Subcategories

Pink Cream 69 - Games People Play (1993) [Japanese Ed.]

Posted By: Andi_Deris
Pink Cream 69 - Games People Play (1993) [Japanese Ed.]

Pink Cream 69 - Games People Play (1993) [Japanese Ed.]
EAC Rip | FLAC: Image+Cue+Log | 431 Mb | MP3 CBR 320 kbps | 156 Mb | Scans | 99 Mb | Time: 56:48
Genre: Hard Rock, Glam Metal | Label: Epic/Sony Records | Cat.: ESCA 5754

Released in 1993, Games People Play was album number three from German melodic hard rock band Pink Cream 69. The band, which at the time featured vocalist Andi Deris (now with Helloween), was one of the best melodic rock bands to emerge at the end of the '80s, and Games People Play is one of the better albums they recorded with Deris on board. If you like bands such as Bonfire, Pretty Maids, or Axxis, it's safe to say you'll like Pink Cream 69.

Pink Cream 69 - Games People Play (1993) [Japanese Ed.]




Pink Cream 69 - Games People Play (1993) [Japanese Ed.]


Track Listing

01. Face In The Mirror (04:48)
02. Way Down (05:12)
03. Keep Your Eye On The Twisted (03:30)
04. Somedays I Sail (04:58)
05. Shattered (03:59)
06. Monday Again (03:12)
07. Dyin' Century (04:38)
08. Till You're Mine (03:43)
09. Still Alive (04:57)
10. Down On Your Luck (04:12)
11. Backflash (01:00)
12. Condemnation (04:29)
13. Don't Let It All Come Down (03:33)
14. A Good Waste Of Time (Japanese bonus track) (04:43)

Produced by Dirk Steffens and Pink Cream 69

The Band

• Andi Deris - vocals
• Alfred Koffler - guitar
• Dennis Ward - bass
• Kosta Zafiriou - drums

Pink Cream 69 - Games People Play (1993) [Japanese Ed.]


Exact Audio Copy V1.0 beta 3 from 29. August 2011

EAC extraction logfile from 4. January 2013, 17:25

Pink Cream 69 / Games People Play

Used drive : SlimtypeDVD A DS8A5SH Adapter: 0 ID: 1

Read mode : Secure
Utilize accurate stream : Yes
Defeat audio cache : Yes
Make use of C2 pointers : No

Read offset correction : 6
Overread into Lead-In and Lead-Out : No
Fill up missing offset samples with silence : Yes
Delete leading and trailing silent blocks : No
Null samples used in CRC calculations : Yes
Used interface : Native Win32 interface for Win NT & 2000

Used output format : User Defined Encoder
Selected bitrate : 320 kBit/s
Quality : High
Add ID3 tag : No
Command line compressor : C:\Program Files (x86)\Exact Audio Copy\Flac\flac.exe
Additional command line options : -V -8 -T "Date=%year%" -T "Genre=%genre%" %source%


TOC of the extracted CD

Track | Start | Length | Start sector | End sector
––––––––––––––––––––––––––––-
1 | 0:00.00 | 4:47.12 | 0 | 21536
2 | 4:47.12 | 5:11.18 | 21537 | 44879
3 | 9:58.30 | 3:29.47 | 44880 | 60601
4 | 13:28.02 | 4:57.68 | 60602 | 82944
5 | 18:25.70 | 3:58.57 | 82945 | 100851
6 | 22:24.52 | 3:11.48 | 100852 | 115224
7 | 25:36.25 | 4:37.27 | 115225 | 136026
8 | 30:13.52 | 3:42.30 | 136027 | 152706
9 | 33:56.07 | 4:55.73 | 152707 | 174904
10 | 38:52.05 | 4:11.65 | 174905 | 193794
11 | 43:03.70 | 0:59.50 | 193795 | 198269
12 | 44:03.45 | 4:28.45 | 198270 | 218414
13 | 48:32.15 | 3:32.10 | 218415 | 234324
14 | 52:04.25 | 4:42.35 | 234325 | 255509


Range status and errors

Selected range

Filename D:\My Music\Pink Cream 69 - 1993 Games People Play\Pink Cream 69 - Games People Play.wav

Peak level 100.0 %
Extraction speed 1.8 X
Range quality 100.0 %
Test CRC 19676B4E
Copy CRC 19676B4E
Copy OK

No errors occurred


AccurateRip summary

Track 1 accurately ripped (confidence 1) [59C4BACD] (AR v1)
Track 2 accurately ripped (confidence 1) [87597C74] (AR v1)
Track 3 accurately ripped (confidence 1) [F2473BF9] (AR v1)
Track 4 accurately ripped (confidence 1) [22C356E7] (AR v1)
Track 5 accurately ripped (confidence 1) [2B7F8471] (AR v1)
Track 6 accurately ripped (confidence 1) [6D6C6A75] (AR v1)
Track 7 accurately ripped (confidence 1) [606AC6B1] (AR v1)
Track 8 accurately ripped (confidence 1) [A7E74E43] (AR v1)
Track 9 accurately ripped (confidence 1) [21499BC6] (AR v1)
Track 10 accurately ripped (confidence 1) [A226FBD1] (AR v1)
Track 11 accurately ripped (confidence 1) [54DF6219] (AR v1)
Track 12 cannot be verified as accurate (confidence 1) [CA45C54C], AccurateRip returned [A09839A8] (AR v2)
Track 13 accurately ripped (confidence 1) [F4BA703D] (AR v1)
Track 14 accurately ripped (confidence 1) [85660DF1] (AR v1)

13 трек(и) скопированы точно
1 трек(и) не удалось проверить на точность

Some tracks could not be verified as accurate

End of status report

==== Log checksum 47CE4F475B0A3BBE6389D1207B2D8EF572028FC869F48814D07F06F08B0E9067 ====


Many thanks to the original uploader: kolushew