Subcategories

Pink Floyd - Delicate Sound Of Thunder (1988)

Posted By: popsakov
Pink Floyd - Delicate Sound Of Thunder (1988)

Pink Floyd - Delicate Sound Of Thunder (1988)
2CD | EAC Rip | WV (Img) + Cue + Log ~ 636 Mb | MP3 CBR320 ~ 252 Mb
Full Scans (PNG, 400 dpi) ~ 245 Mb | RAR 5% Recovery
Psychedelic Rock, Art Rock, Progressive Rock | Columbia #C2K 44484 / CK 44485/6 | US

Delicate Sound of Thunder is a double live album by the English progressive rock band Pink Floyd which was recorded over five nights at the Nassau Coliseum on Long Island, New York in August 1988 and mixed at Abbey Road Studios in September 1988. It was released on 22 November 1988, through EMI Records in the United Kingdom and Columbia Records in the United States.
Pink Floyd - Delicate Sound Of Thunder (1988)

Pink Floyd - Delicate Sound Of Thunder (1988)


***************

Pink Floyd - Delicate Sound Of Thunder (1988)

Pink Floyd - Delicate Sound Of Thunder (1988)

Track List CD1:

01. Shine on You Crazy Diamond [0:11:53.30]
02. Learning to Fly [0:05:27.00]
03. Yet Another Movie [0:06:21.27]
04. Round And Around [0:00:33.35]
05. Sorrow [0:09:28.45]
06. The Dogs of War [0:07:18.30]
07. On The Turning Away [0:07:58.70]

Exact Audio Copy V1.3 from 2. September 2016

EAC extraction logfile from 10. December 2016, 8:23

Pink Floyd / Delicate Sound of Thunder CD1

Used drive : ASUS SDRW-08D2S-U Adapter: 1 ID: 0

Read mode : Secure
Utilize accurate stream : Yes
Defeat audio cache : Yes
Make use of C2 pointers : No

Read offset correction : 6
Overread into Lead-In and Lead-Out : No
Fill up missing offset samples with silence : Yes
Delete leading and trailing silent blocks : No
Null samples used in CRC calculations : Yes
Used interface : Native Win32 interface for Win NT & 2000

Used output format : Internal WAV Routines
Sample format : 44.100 Hz; 16 Bit; Stereo


TOC of the extracted CD

Track | Start | Length | Start sector | End sector
––––––––––––––––––––––––––––-
1 | 0:00.00 | 11:53.30 | 0 | 53504
2 | 11:53.30 | 5:27.00 | 53505 | 78029
3 | 17:20.30 | 6:21.27 | 78030 | 106631
4 | 23:41.57 | 0:33.35 | 106632 | 109141
5 | 24:15.17 | 9:28.45 | 109142 | 151786
6 | 33:43.62 | 7:18.30 | 151787 | 184666
7 | 41:02.17 | 7:58.70 | 184667 | 220586


Range status and errors

Selected range

Filename C:\Music CD\Pink Floyd - Delicate Sound of Thunder CD1.wav

Peak level 95.5 %
Extraction speed 2.0 X
Range quality 100.0 %
Test CRC 4A59D294
Copy CRC 4A59D294
Copy OK

No errors occurred


AccurateRip summary

Track 1 accurately ripped (confidence 8) [4A368931] (AR v2)
Track 2 accurately ripped (confidence 8) [F182A2DD] (AR v2)
Track 3 accurately ripped (confidence 7) [6D3C9D15] (AR v2)
Track 4 accurately ripped (confidence 8) [D69776F9] (AR v2)
Track 5 accurately ripped (confidence 8) [8FEE2BDA] (AR v2)
Track 6 accurately ripped (confidence 8) [B4642DEB] (AR v2)
Track 7 accurately ripped (confidence 8) [9F3BBDD2] (AR v2)

All tracks accurately ripped

End of status report

–– CUETools DB Plugin V2.1.6

[CTDB TOCID: LWnH55KWXclJkgsqQ_hB63u1Yx8-] found
Submit result: LWnH55KWXclJkgsqQ_hB63u1Yx8- has been confirmed
Track | CTDB Status
1 | ( 41/194) Accurately ripped
2 | ( 43/194) Accurately ripped
3 | ( 43/194) Accurately ripped
4 | ( 43/194) Accurately ripped
5 | ( 43/194) Accurately ripped
6 | ( 42/194) Accurately ripped
7 | ( 42/194) Accurately ripped


==== Log checksum A14C2C862D45862567DD3754D1300A7099A8BE29F08D28ACA97FF82BAA0F3A44 ====

foobar2000 1.2.6 / Dynamic Range Meter 1.1.1
log date: 2017-07-08 22:32:17

––––––––––––––––––––––––––––––––––––––––
Analyzed: Pink Floyd / Delicate Sound of Thunder CD1
––––––––––––––––––––––––––––––––––––––––

DR Peak RMS Duration Track
––––––––––––––––––––––––––––––––––––––––
DR15 -0.40 dB -19.33 dB 11:53 01-Shine on You Crazy Diamond
DR14 -0.40 dB -16.69 dB 5:27 02-Learning to Fly
DR13 -0.51 dB -17.40 dB 6:21 03-Yet Another Movie
DR10 -6.66 dB -21.68 dB 0:33 04-Round And Around
DR12 -0.40 dB -14.95 dB 9:29 05-Sorrow
DR13 -0.40 dB -15.45 dB 7:18 06-The Dogs of War
DR14 -0.40 dB -17.17 dB 7:59 07-On The Turning Away
––––––––––––––––––––––––––––––––––––––––

Number of tracks: 7
Official DR value: DR13

Samplerate: 44100 Hz
Channels: 2
Bits per sample: 16
Bitrate: 797 kbps
Codec: WavPack
================================================================================

[CUETools log; Date: 08.07.2017 22:32:20; Version: 2.1.5]
[CTDB TOCID: LWnH55KWXclJkgsqQ_hB63u1Yx8-] found.
Track | CTDB Status
1 | ( 56/241) Accurately ripped
2 | ( 58/241) Accurately ripped
3 | ( 58/241) Accurately ripped
4 | ( 58/241) Accurately ripped
5 | ( 58/241) Accurately ripped
6 | ( 57/241) Accurately ripped
7 | ( 57/241) Accurately ripped
[AccurateRip ID: 000dcc9e-00509692-4a0b7d07] found.
Track [ CRC | V2 ] Status
01 [6ef36710|4a368931] (013+008/316) Accurately ripped
02 [d4c5a2b9|f182a2dd] (013+008/320) Accurately ripped
03 [d0d2f744|6d3c9d15] (013+007/319) Accurately ripped
04 [6b2d022b|d69776f9] (013+008/324) Accurately ripped
05 [f0d6037f|8fee2bda] (013+008/319) Accurately ripped
06 [6dcc8c09|b4642deb] (013+008/321) Accurately ripped
07 [27f6fa30|9f3bbdd2] (013+008/319) Accurately ripped
Offsetted by 45:
01 [314328b0] (017/316) Accurately ripped
02 [a796cacc] (017/320) Accurately ripped
03 [91b02ac7] (017/319) Accurately ripped
04 [ccd927b4] (017/324) Accurately ripped
05 [2d1fcc63] (017/319) Accurately ripped
06 [76f44eae] (017/321) Accurately ripped
07 [5059c641] (017/319) Accurately ripped
Offsetted by -1024:
01 [b8c37f83] (000/316) No match (V2 was not tested)
02 [bf80ed79] (000/320) No match (V2 was not tested)
03 [e56e91c0] (000/319) No match (V2 was not tested)
04 [2f8e33d7] (000/324) No match (V2 was not tested)
05 [d409dc13] (000/319) No match (V2 was not tested)
06 [9b638e4e] (000/321) No match (V2 was not tested)
07 [a1ce2f3a] (000/319) No match (V2 was not tested)
Offsetted by -419:
01 [df274a4c] (000/316) No match (V2 was not tested)
02 [68a759e3] (000/320) No match (V2 was not tested)
03 [f4ab00e4] (000/319) No match (V2 was not tested)
04 [b4c50444] (000/324) No match (V2 was not tested)
05 [d440b9fd] (000/319) No match (V2 was not tested)
06 [523daf3b] (000/321) No match (V2 was not tested)
07 [f896de34] (000/319) No match (V2 was not tested)

Track Peak [ CRC32 ] [W/O NULL] [ LOG ]
– 95,5 [4A59D294] [31C8F910] CRC32
01 95,5 [0F38D60E] [EBE9E80C]
02 95,4 [94577412] [F6D96B5F]
03 94,3 [32089D3F] [530A1D72]
04 46,4 [697FE04C] [79134710]
05 95,5 [8AC0901C] [A3A72737]
06 95,5 [9404073C] [89F3563D]
07 95,4 [A0FD5DBA] [C42541D3]

Pink Floyd - Delicate Sound Of Thunder (1988)

Pink Floyd - Delicate Sound Of Thunder (1988)

Track List CD2:

01. One Of These Days [0:06:15.72]
02. Time [0:05:16.38]
03. Wish Yoy Were Here [0:04:49.12]
04. Us & Them [0:07:22.03]
05. Money [0:09:52.10]
06. Another Brick In The Wall Part II [0:05:28.72]
07. Comfortably Numb [0:08:56.38]
08. Run Like Hell [0:07:12.50]

Exact Audio Copy V1.3 from 2. September 2016

EAC extraction logfile from 10. December 2016, 9:26

Pink Floyd / Delicate Sound of Thunder CD2

Used drive : ASUS SDRW-08D2S-U Adapter: 1 ID: 0

Read mode : Secure
Utilize accurate stream : Yes
Defeat audio cache : Yes
Make use of C2 pointers : No

Read offset correction : 6
Overread into Lead-In and Lead-Out : No
Fill up missing offset samples with silence : Yes
Delete leading and trailing silent blocks : No
Null samples used in CRC calculations : Yes
Used interface : Native Win32 interface for Win NT & 2000

Used output format : Internal WAV Routines
Sample format : 44.100 Hz; 16 Bit; Stereo


TOC of the extracted CD

Track | Start | Length | Start sector | End sector
––––––––––––––––––––––––––––-
1 | 0:00.00 | 6:15.72 | 0 | 28196
2 | 6:15.72 | 5:16.38 | 28197 | 51934
3 | 11:32.35 | 4:49.12 | 51935 | 73621
4 | 16:21.47 | 7:22.03 | 73622 | 106774
5 | 23:43.50 | 9:52.10 | 106775 | 151184
6 | 33:35.60 | 5:28.72 | 151185 | 175856
7 | 39:04.57 | 8:56.38 | 175857 | 216094
8 | 48:01.20 | 7:12.50 | 216095 | 248544


Range status and errors

Selected range

Filename C:\Music CD\Pink Floyd - Delicate Sound of Thunder CD2.wav

Peak level 100.0 %
Extraction speed 2.0 X
Range quality 100.0 %
Test CRC DB42E29A
Copy CRC DB42E29A
Copy OK

No errors occurred


AccurateRip summary

Track 1 accurately ripped (confidence 7) [7DC9C1CE] (AR v2)
Track 2 accurately ripped (confidence 7) [A129D250] (AR v2)
Track 3 accurately ripped (confidence 7) [837D7946] (AR v2)
Track 4 accurately ripped (confidence 7) [996737C7] (AR v2)
Track 5 accurately ripped (confidence 7) [038044C7] (AR v2)
Track 6 accurately ripped (confidence 7) [E555FBDC] (AR v2)
Track 7 accurately ripped (confidence 7) [BF958887] (AR v2)
Track 8 accurately ripped (confidence 7) [456BD999] (AR v2)

All tracks accurately ripped

End of status report

–– CUETools DB Plugin V2.1.6

[CTDB TOCID: FbEXmJJcdFbmSQyMHzbngHhhcgg-] found
Submit result: FbEXmJJcdFbmSQyMHzbngHhhcgg- has been confirmed
Track | CTDB Status
1 | (188/188) Accurately ripped
2 | (187/188) Accurately ripped
3 | (188/188) Accurately ripped
4 | (187/188) Accurately ripped
5 | (185/188) Accurately ripped
6 | (187/188) Accurately ripped
7 | (187/188) Accurately ripped
8 | (185/188) Accurately ripped


==== Log checksum 555EA6CE51A6F345384AB2BEC50402CA9AD1E678D9D076F5C94C2FA33330BCF0 ====

foobar2000 1.2.6 / Dynamic Range Meter 1.1.1
log date: 2017-07-08 22:29:36

––––––––––––––––––––––––––––––––––––––––
Analyzed: Pink Floyd / Delicate Sound of Thunder CD2
––––––––––––––––––––––––––––––––––––––––

DR Peak RMS Duration Track
––––––––––––––––––––––––––––––––––––––––
DR14 0.00 dB -17.39 dB 6:16 01-One Of These Days
DR13 -0.64 dB -15.95 dB 5:17 02-Time
DR13 0.00 dB -18.54 dB 4:49 03-Wish Yoy Were Here
DR13 0.00 dB -18.30 dB 7:22 04-Us & Them
DR13 -0.02 dB -16.97 dB 9:52 05-Money
DR15 -0.16 dB -17.93 dB 5:29 06-Another Brick In The Wall Part II
DR14 0.00 dB -15.81 dB 8:57 07-Comfortably Numb
DR13 0.00 dB -16.79 dB 7:13 08-Run Like Hell
––––––––––––––––––––––––––––––––––––––––

Number of tracks: 8
Official DR value: DR14

Samplerate: 44100 Hz
Channels: 2
Bits per sample: 16
Bitrate: 815 kbps
Codec: WavPack
================================================================================

[CUETools log; Date: 08.07.2017 22:28:25; Version: 2.1.5]
[CTDB TOCID: FbEXmJJcdFbmSQyMHzbngHhhcgg-] found.
Track | CTDB Status
1 | (234/234) Accurately ripped
2 | (233/234) Accurately ripped
3 | (234/234) Accurately ripped
4 | (233/234) Accurately ripped
5 | (231/234) Accurately ripped
6 | (233/234) Accurately ripped
7 | (233/234) Accurately ripped
8 | (230/234) Accurately ripped
[AccurateRip ID: 00100e33-006d0391-740cf108] found.
Track [ CRC | V2 ] Status
01 [21ceea0d|7dc9c1ce] (012+007/318) Accurately ripped
02 [144c332c|a129d250] (012+007/319) Accurately ripped
03 [246cdeb8|837d7946] (012+007/320) Accurately ripped
04 [c5733559|996737c7] (012+007/320) Accurately ripped
05 [234d4188|038044c7] (012+007/317) Accurately ripped
06 [a3cf7c7f|e555fbdc] (012+007/318) Accurately ripped
07 [77ceaaad|bf958887] (012+007/314) Accurately ripped
08 [8569f810|456bd999] (012+007/312) Accurately ripped
Offsetted by -199:
01 [1e52b873] (002/318) Accurately ripped
02 [bc757282] (002/319) Accurately ripped
03 [1aad62ca] (002/320) Accurately ripped
04 [8e9ea3c8] (002/320) Accurately ripped
05 [4209f25a] (002/317) Accurately ripped
06 [9699187d] (002/318) Accurately ripped
07 [53542e75] (002/314) Accurately ripped
08 [57627b24] (002/312) Accurately ripped
Offsetted by -67:
01 [2ba34e9b] (034/318) Accurately ripped
02 [bec61bad] (035/319) Accurately ripped
03 [3d815c96] (035/320) Accurately ripped
04 [31e25efa] (034/320) Accurately ripped
05 [c7046d4d] (034/317) Accurately ripped
06 [cfefd3bf] (034/318) Accurately ripped
07 [86efc307] (033/314) Accurately ripped
08 [50d94774] (033/312) Accurately ripped
Offsetted by -40:
01 [ecc70610] (009/318) Accurately ripped
02 [16497255] (009/319) Accurately ripped
03 [f110597c] (009/320) Accurately ripped
04 [85b890ca] (009/320) Accurately ripped
05 [38bdc0b9] (009/317) Accurately ripped
06 [b4181898] (009/318) Accurately ripped
07 [ecf7ce3a] (009/314) Accurately ripped
08 [201ee8aa] (009/312) Accurately ripped
Offsetted by 38:
01 [d7edb751] (006/318) Accurately ripped
02 [3c382e04] (006/319) Accurately ripped
03 [66560b85] (006/320) Accurately ripped
04 [ec9c4fe0] (006/320) Accurately ripped
05 [146b837d] (006/317) Accurately ripped
06 [c4d22045] (006/318) Accurately ripped
07 [ca39cb0d] (006/314) Accurately ripped
08 [584696a4] (005/312) Accurately ripped
Offsetted by 227:
01 [ab220e9a] (066/318) Accurately ripped
02 [5a481576] (067/319) Accurately ripped
03 [c4272241] (067/320) Accurately ripped
04 [d50a0d7a] (068/320) Accurately ripped
05 [7e0e3598] (067/317) Accurately ripped
06 [c3864213] (066/318) Accurately ripped
07 [b648ac77] (065/314) Accurately ripped
08 [28c2ea76] (064/312) Accurately ripped
Offsetted by 323:
01 [9ba4fce7] (039/318) Accurately ripped
02 [6b7d40a0] (039/319) Accurately ripped
03 [25c93d55] (039/320) Accurately ripped
04 [38d715dd] (039/320) Accurately ripped
05 [2f3c3015] (039/317) Accurately ripped
06 [19181aad] (039/318) Accurately ripped
07 [3320a310] (039/314) Accurately ripped
08 [1c9a8652] (038/312) Accurately ripped
Offsetted by -1133:
01 [9ee3028d] (000/318) No match (V2 was not tested)
02 [7fb99780] (000/319) No match (V2 was not tested)
03 [8a02660c] (000/320) No match (V2 was not tested)
04 [e438e8e0] (000/320) No match (V2 was not tested)
05 [fdb3325b] (000/317) No match (V2 was not tested)
06 [bafe4177] (000/318) No match (V2 was not tested)
07 [a050e2f5] (000/314) No match (V2 was not tested)
08 [bed24f9e] (000/312) No match (V2 was not tested)
Offsetted by -981:
01 [db8f9a12] (000/318) No match (V2 was not tested)
02 [f97e75bd] (000/319) No match (V2 was not tested)
03 [4ddfe5b8] (000/320) No match (V2 was not tested)
04 [a548532e] (000/320) No match (V2 was not tested)
05 [5de6d12e] (000/317) No match (V2 was not tested)
06 [27375819] (000/318) No match (V2 was not tested)
07 [bf284ff6] (000/314) No match (V2 was not tested)
08 [18a91bae] (000/312) No match (V2 was not tested)
Offsetted by 233:
01 [a87a2d63] (000/318) No match (V2 was not tested)
02 [be90c352] (000/319) No match (V2 was not tested)
03 [07ae57f1] (000/320) No match (V2 was not tested)
04 [a962eabf] (000/320) No match (V2 was not tested)
05 [136b17e2] (000/317) No match (V2 was not tested)
06 [b1e84cb0] (000/318) No match (V2 was not tested)
07 [6f71472d] (000/314) No match (V2 was not tested)
08 [272481cf] (000/312) No match (V2 was not tested)

Track Peak [ CRC32 ] [W/O NULL] [ LOG ]
– 100,0 [DB42E29A] [72A10D1F] CRC32
01 100,0 [4540DF87] [8019595E]
02 92,8 [3D92304A] [29A0E6EF]
03 99,9 [2B4D237B] [EFFA7AF9]
04 99,9 [D27DDAB4] [6DD27278]
05 99,8 [B59411BB] [6FDE588D]
06 98,1 [36956051] [52DBC92D]
07 100,0 [8C4971B1] [3712281C]
08 100,0 [4A401D18] [8D23912B]

Pink Floyd - Delicate Sound Of Thunder (1988)

All thanks go to edenika

>>> Pink Floyd in my Blog <<<

Download from icerbox.com: