Subcategories

Pink Floyd - The Dark Side Of The Moon (1973)

Posted By: popsakov
Pink Floyd - The Dark Side Of The Moon (1973)

Pink Floyd - The Dark Side Of The Moon (1973)
EAC Rip | WV (Img) + Cue + Log ~ 260 Mb | MP3 CBR320 ~ 103 Mb
Scans (PNG, 400 dpi) ~ 101 Mb | RAR 5% Recovery
Progressive Rock, Psychedelic Rock | Harvest #CDP 7 46001 2

The Dark Side of the Moon is the eighth album by the English rock band Pink Floyd. Originally released on 1 March 1973, on the label Harvest, it built on ideas explored in the band's earlier recordings and live shows, but departs from instrumental thematic by founding member Syd Barrett. The album explores themes including conflict, greed, the passage of time, and mental illness, the latter partly inspired by Barrett's deteriorating mental state. The Dark Side of the Moon was an immediate success; it topped the Billboard Top LPs & Tapes chart for a week and remained in the chart for 741 weeks from 1973 to 1988. With an estimated 45 million copies sold, it is Pink Floyd's most commercially successful album and one of the best-selling worldwide. It produced two singles, "Money" and "Us and Them", and is the band's most popular album among fans and critics, and has been ranked as one of the greatest albums of all time.
~ Wiki

***************

Pink Floyd - The Dark Side Of The Moon (1973)

Pink Floyd - The Dark Side Of The Moon (1973)

Track List:

01. Speak to Me - Breathe [0:03:57.60]
02. On the Run [0:03:35.00]
03. Time [0:07:04.60]
04. The Great Gig in the Sky [0:04:47.05]
05. Money [0:06:22.35]
06. Us and Them [0:07:50.20]
07. Any Colour You Like [0:03:25.50]
08. Brain Damage [0:03:50.38]
09. Eclipse [0:02:01.17]

Exact Audio Copy V1.3 from 2. September 2016

EAC extraction logfile from 6. June 2017, 20:55

Pink Floyd / The Dark Side of the Moon

Used drive : HL-DT-STDVDRAM GH24NSC0 Adapter: 1 ID: 0

Read mode : Secure
Utilize accurate stream : Yes
Defeat audio cache : Yes
Make use of C2 pointers : No

Read offset correction : 6
Overread into Lead-In and Lead-Out : No
Fill up missing offset samples with silence : Yes
Delete leading and trailing silent blocks : No
Null samples used in CRC calculations : Yes
Used interface : Native Win32 interface for Win NT & 2000

Used output format : Internal WAV Routines
Sample format : 44.100 Hz; 16 Bit; Stereo


TOC of the extracted CD

Track | Start | Length | Start sector | End sector
––––––––––––––––––––––––––––-
1 | 0:00.32 | 3:57.60 | 32 | 17866
2 | 3:58.17 | 3:35.00 | 17867 | 33991
3 | 7:33.17 | 7:04.60 | 33992 | 65851
4 | 14:38.02 | 4:47.05 | 65852 | 87381
5 | 19:25.07 | 6:22.35 | 87382 | 116066
6 | 25:47.42 | 7:50.20 | 116067 | 151336
7 | 33:37.62 | 3:25.50 | 151337 | 166761
8 | 37:03.37 | 3:50.38 | 166762 | 184049
9 | 40:54.00 | 2:01.17 | 184050 | 193141


Range status and errors

Selected range

Filename C:\Music CD\Pink Floyd - The Dark Side of the Moon.wav

Peak level 100.0 %
Extraction speed 1.6 X
Range quality 100.0 %
Test CRC 62652B18
Copy CRC 62652B18
Copy OK

No errors occurred


AccurateRip summary

Track 1 accurately ripped (confidence 34) [83093700] (AR v2)
Track 2 accurately ripped (confidence 35) [7B82866D] (AR v2)
Track 3 accurately ripped (confidence 34) [B42DDB98] (AR v2)
Track 4 accurately ripped (confidence 34) [DF1CE719] (AR v2)
Track 5 accurately ripped (confidence 34) [0B726477] (AR v2)
Track 6 accurately ripped (confidence 34) [CB4CECDD] (AR v2)
Track 7 accurately ripped (confidence 34) [B5DE9E05] (AR v2)
Track 8 accurately ripped (confidence 34) [2CA63901] (AR v2)
Track 9 accurately ripped (confidence 34) [45DFB9DA] (AR v2)

All tracks accurately ripped

End of status report

–– CUETools DB Plugin V2.1.6

[CTDB TOCID: feqryR4Va7z46MCotmH6VI.q_ko-] found
Submit result: feqryR4Va7z46MCotmH6VI.q_ko- has been confirmed
Track | CTDB Status
1 | (67/98) Accurately ripped, or (1/98) differs in 657 samples @00:17:01-00:17:02
2 | (68/98) Accurately ripped
3 | (67/98) Accurately ripped
4 | (68/98) Accurately ripped
5 | (68/98) Accurately ripped
6 | (68/98) Accurately ripped
7 | (68/98) Accurately ripped
8 | (68/98) Accurately ripped
9 | (68/98) Accurately ripped


==== Log checksum C2F28396C08644FD44322917BBFAC7A78564233472893740FC066D29A9D83EC0 ====

foobar2000 1.2.6 / Dynamic Range Meter 1.1.1
log date: 2017-06-09 21:55:37

––––––––––––––––––––––––––––––––––––––––
Analyzed: Pink Floyd / The Dark Side of the Moon
––––––––––––––––––––––––––––––––––––––––

DR Peak RMS Duration Track
––––––––––––––––––––––––––––––––––––––––
DR12 -1.13 dB -16.15 dB 3:58 01-Speak to Me - Breathe
DR11 -0.47 dB -17.00 dB 3:35 02-On the Run
DR10 0.00 dB -14.20 dB 7:05 03-Time
DR11 -0.24 dB -16.40 dB 4:47 04-The Great Gig in the Sky
DR11 0.00 dB -13.72 dB 6:22 05-Money
DR10 -0.08 dB -15.63 dB 7:50 06-Us and Them
DR12 0.00 dB -13.39 dB 3:26 07-Any Colour You Like
DR11 -0.34 dB -16.60 dB 3:51 08-Brain Damage
DR10 0.00 dB -13.26 dB 2:01 09-Eclipse
––––––––––––––––––––––––––––––––––––––––

Number of tracks: 9
Official DR value: DR11

Samplerate: 44100 Hz
Channels: 2
Bits per sample: 16
Bitrate: 800 kbps
Codec: WavPack
================================================================================

[CUETools log; Date: 09.06.2017 21:55:43; Version: 2.1.5]
Pregap length 00:00:32.
[CTDB TOCID: feqryR4Va7z46MCotmH6VI.q_ko-] found.
Track | CTDB Status
1 | (68/99) Accurately ripped, or (1/99) differs in 657 samples @00:17:01-00:17:02
2 | (69/99) Accurately ripped
3 | (68/99) Accurately ripped
4 | (69/99) Accurately ripped
5 | (69/99) Accurately ripped
6 | (69/99) Accurately ripped
7 | (69/99) Accurately ripped
8 | (69/99) Accurately ripped
9 | (69/99) Accurately ripped
[AccurateRip ID: 000f82a3-0072ae8b-700a0f09] found.
Track [ CRC | V2 ] Status
01 [cd0bb794|83093700] (25+34/97) Accurately ripped
02 [7a705193|7b82866d] (25+35/97) Accurately ripped
03 [565169b7|b42ddb98] (25+34/96) Accurately ripped
04 [af479764|df1ce719] (25+34/96) Accurately ripped
05 [bbef13b4|0b726477] (25+34/97) Accurately ripped
06 [609f282d|cb4cecdd] (24+34/96) Accurately ripped
07 [cee15625|b5de9e05] (25+34/96) Accurately ripped
08 [bd619421|2ca63901] (25+34/97) Accurately ripped
09 [f92a0948|45dfb9da] (25+34/97) Accurately ripped
Offsetted by -539:
01 [653abf50] (10/97) Accurately ripped
02 [d27e6520] (10/97) Accurately ripped
03 [213500a0] (10/96) Accurately ripped
04 [c90c02f6] (10/96) Accurately ripped
05 [ab9e0cd8] (10/97) Accurately ripped
06 [696bb039] (10/96) Accurately ripped
07 [73c69719] (10/96) Accurately ripped
08 [b3339235] (10/97) Accurately ripped
09 [3242afc3] (10/97) Accurately ripped

Track Peak [ CRC32 ] [W/O NULL] [ LOG ]
– 100,0 [62652B18] [76F138EF] CRC32
01 87,8 [B28B237B] [E7D5D181]
02 94,7 [5494E99B] [9CF0E70E]
03 100,0 [43396C65] [BB723B13]
04 97,2 [2BBBD1C5] [E6298423]
05 100,0 [60CE91F6] [B70A863E]
06 99,1 [C35DC2AC] [58C152CD]
07 100,0 [D00A7B22] [69859D1F]
08 96,1 [23C00BA5] [6A2E79E7]
09 100,0 [4FB2E014] [DB141CA3]

Pink Floyd - The Dark Side Of The Moon (1973)

All thanks go to edenika

>>> Pink Floyd in my Blog <<<

Download from icerbox.com: