Subcategories

Pink Floyd - Wish You Were Here (1975) {2011, SACD, Remastered} CD-Layer

Posted By: popsakov
Pink Floyd - Wish You Were Here (1975) {2011, SACD, Remastered} CD-Layer

Pink Floyd - Wish You Were Here (1975) {2011, SACD, Remastered} CD-Layer
EAC Rip | FLAC (Img) + Cue + Log ~ 284 Mb | MP3 CBR320 ~ 124 Mb
Scans Included (JPG, 300 dpi) | RAR 5% Recovery
Psychedelic Rock, Progressive Rock, Art Rock | EMI Records #5099952243325

Wish You Were Here is the ninth studio album by English rock band Pink Floyd. It was released on 12 September 1975 by Harvest Records in the United Kingdom and a day later by Columbia Records in the United States. The album topped record charts in both regions.

Inspired by material the group composed while performing around Europe, Wish You Were Here was recorded during numerous recording sessions at Abbey Road Studios in London, England. Two of the album's four songs criticise the music business, another expresses alienation and the multi-part track "Shine On You Crazy Diamond" is a tribute to Syd Barrett. Barrett's mental breakdown had forced him to leave the group seven years earlier, prior to the release of the group's second studio album A Saucerful of Secrets (on which he only appeared on three tracks). It was lead writer Roger Waters' idea to split "Shine On You Crazy Diamond" into two parts that would bookend the album around three new compositions and to introduce a concept linking them all. As with their previous album The Dark Side of the Moon (1973), the band used studio effects and synthesizers, and brought in guest singers to supply vocals on some tracks of the album. These singers were Roy Harper, who provided the lead vocals on "Have a Cigar", and the Blackberries, who added backing vocals to "Shine On You Crazy Diamond".

Wish You Were Here was an instant commercial success (despite the fact that Harvest Records' parent company EMI was unable to print enough copies of the album to satisfy commercial demand), and although it initially received mixed reviews, the album has since gone on to receive critical acclaim. It appears on Rolling Stone's lists of "The 500 Greatest Albums of All Time" and the "50 Greatest Prog Rock Albums of All Time". Band members Richard Wright and David Gilmour have cited Wish You Were Here as their favourite Pink Floyd album.
~ Wiki
Pink Floyd - Wish You Were Here (1975) {2011, SACD, Remastered} CD-Layer


***************

Pink Floyd - Wish You Were Here (1975) {2011, SACD, Remastered} CD-Layer

Pink Floyd - Wish You Were Here (1975) {2011, SACD, Remastered} CD-Layer

Track List:

01. Shine On You Crazy Diamond (Parts I - V) [13:33]
02. Welcome To The Machine [7:23]
03. Have A Cigar [5:08]
04. Wish You Were Here [5:36]
05. Shine On You Crazy Diamond (Parts VI - IX) [12:30]

Exact Audio Copy V1.0 beta 3 from 29. August 2011

EAC extraction logfile from 30. January 2018, 21:30

Pink Floyd / Wish You Were Here (2011 SACD)

Used drive : PLEXTOR DVDR PX-740A Adapter: 0 ID: 0

Read mode : Secure
Utilize accurate stream : Yes
Defeat audio cache : Yes
Make use of C2 pointers : No

Read offset correction : 618
Overread into Lead-In and Lead-Out : No
Fill up missing offset samples with silence : Yes
Delete leading and trailing silent blocks : No
Null samples used in CRC calculations : Yes
Used interface : Native Win32 interface for Win NT & 2000

Used output format : Internal WAV Routines
Sample format : 44.100 Hz; 16 Bit; Stereo


TOC of the extracted CD

Track | Start | Length | Start sector | End sector
––––––––––––––––––––––––––––-
1 | 0:02.00 | 13:32.61 | 150 | 61110
2 | 13:34.61 | 7:23.04 | 61111 | 94339
3 | 20:57.65 | 5:08.16 | 94340 | 117455
4 | 26:06.06 | 5:35.63 | 117456 | 142643
5 | 31:41.69 | 12:29.73 | 142644 | 198891


Range status and errors

Selected range

Filename C:\MUSIC\CD Rips_J\PF 75\Pink Floyd - Wish You Were Here (2011 SACD).wav

Peak level 100.0 %
Extraction speed 9.0 X
Range quality 100.0 %
Test CRC FE34DAF8
Copy CRC FE34DAF8
Copy OK

No errors occurred


AccurateRip summary

Track 1 accurately ripped (confidence 200) [7877E778] (AR v2)
Track 2 accurately ripped (confidence 200) [909297E9] (AR v2)
Track 3 accurately ripped (confidence 200) [892B996C] (AR v2)
Track 4 accurately ripped (confidence 200) [5CDE7F0E] (AR v2)
Track 5 accurately ripped (confidence 200) [77953B83] (AR v2)

All tracks accurately ripped

End of status report

==== Log checksum 08DCF4AF2D8B3F8CEDE40FCBA6E71B4146A760E5D5DF101B325069C58936C82A ====

foobar2000 1.3.16 / Dynamic Range Meter 1.1.1
log date: 2018-02-09 14:30:43

––––––––––––––––––––––––––––––––––––––––
Analyzed: Pink Floyd / Wish You Were Here (2011 SACD)
––––––––––––––––––––––––––––––––––––––––

DR Peak RMS Duration Track
––––––––––––––––––––––––––––––––––––––––
DR12 0.00 dB -14.83 dB 13:33 01-Shine On You Crazy Diamond (Parts I - V)
DR11 -0.07 dB -14.47 dB 7:23 02-Welcome To The Machine
DR12 0.00 dB -13.56 dB 5:08 03-Have A Cigar
DR12 0.00 dB -16.67 dB 5:36 04-Wish You Were Here
DR11 0.00 dB -14.48 dB 12:30 05-Shine On You Crazy Diamond (Parts VI - IX)
––––––––––––––––––––––––––––––––––––––––

Number of tracks: 5
Official DR value: DR11

Samplerate: 44100 Hz
Channels: 2
Bits per sample: 16
Bitrate: 802 kbps
Codec: FLAC
================================================================================

[CUETools log; Date: 09.02.2018 14:30:47; Version: 2.1.5]
Pregap length 00:02:00.
[CTDB TOCID: VAx1GStflbNvh81Z4YuQU.7Dyus-] found.
Track | CTDB Status
1 | (236/238) Accurately ripped
2 | (235/238) Accurately ripped
3 | (237/238) Accurately ripped
4 | (237/238) Accurately ripped
5 | (237/238) Accurately ripped
[AccurateRip ID: 000960c1-002a725c-450a5905] found.
Track [ CRC | V2 ] Status
01 [e0c3652b|7877e778] (025+200/225) Accurately ripped
02 [4aae7fa6|909297e9] (025+200/225) Accurately ripped
03 [e33e0bce|892b996c] (025+200/225) Accurately ripped
04 [29bc23da|5cde7f0e] (026+200/226) Accurately ripped
05 [9fcf1dda|77953b83] (025+200/225) Accurately ripped

Track Peak [ CRC32 ] [W/O NULL] [ LOG ]
– 100,0 [FE34DAF8] [A5C751F9] CRC32
01 100,0 [E750A714] [DBC2F873]
02 99,2 [80204701] [149E5984]
03 100,0 [F84DD31B] [EB304C11]
04 100,0 [743A3AA7] [DFC441E2]
05 99,9 [396D4B74] [B0E0FC5C]

Pink Floyd - Wish You Were Here (1975) {2011, SACD, Remastered} CD-Layer

All thanks go to Juergen

>>> Pink Floyd in my Blog <<<

Download from icerbox.com: