Subcategories

Pink Floyd - The Best Of Tour 72 (1990) {The Swingin' Pig} **[RE-UP]**

Posted By: TestTickles
Pink Floyd - The Best Of Tour 72 (1990) {The Swingin' Pig} **[RE-UP]**

Pink Floyd - The Best Of Tour 72 (1990) {The Swingin' Pig}
EAC Rip | FLAC with CUE and log | scans | 206 mb
MP3 CBR 320kbps | RAR | 93 mb
Genre: progressive rock, classic rock

The Best Of Tour 72 is a 1990 bootleg CD by British progressive funsters The Pink Floyd. This was recorded at the Rainbow Theater in London, England on 20 February, 1972 when they were performing The Dark Side Of The Moon from start to finish. At this phase, "On The Run" was called "The Travel Sequence" while "The Great Gig In The Sky" was "Mortality Sequence", complete with recordings of prayers that would be completely removed when the final mix was released a year later.

Pink Floyd - The Best Of Tour 72 (1990) {The Swingin' Pig} **[RE-UP]**

1. Speak To Me (Incomplete)/Breathe
2. On The Run (The Travel Sequence)
3. Time
4. Breathe (Reprise)
5. The Great Gig In The Sky (Mortality Sequence)
6. Money
7. Us And Them (Incomplete)
8. Any Colour You Like
9. Brain Damage
10. Eclipse

Exact Audio Copy V1.1 from 23. June 2015

EAC extraction logfile from 29. May 2016, 10:40

Pink Floyd / The Best Of Tour 72

Used drive : TEAC DVD-ROM DV-28SW Adapter: 1 ID: 0

Read mode : Secure
Utilize accurate stream : Yes
Defeat audio cache : Yes
Make use of C2 pointers : No

Read offset correction : 6
Overread into Lead-In and Lead-Out : No
Fill up missing offset samples with silence : Yes
Delete leading and trailing silent blocks : No
Null samples used in CRC calculations : Yes
Used interface : Native Win32 interface for Win NT & 2000
Gap handling : Left out

Used output format : Internal WAV Routines
Sample format : 44.100 Hz; 16 Bit; Stereo


TOC of the extracted CD

Track | Start | Length | Start sector | End sector
––––––––––––––––––––––––––––-
1 | 0:00.00 | 2:55.18 | 0 | 13142
2 | 2:55.18 | 6:10.10 | 13143 | 40902
3 | 9:05.28 | 6:33.05 | 40903 | 70382
4 | 15:38.33 | 1:03.47 | 70383 | 75154
5 | 16:42.05 | 4:23.20 | 75155 | 94899
6 | 21:05.25 | 7:52.63 | 94900 | 130362
7 | 28:58.13 | 2:18.50 | 130363 | 140762
8 | 31:16.63 | 4:37.17 | 140763 | 161554
9 | 35:54.05 | 3:52.05 | 161555 | 178959
10 | 39:46.10 | 1:14.68 | 178960 | 184577


Track 1

Filename C:\My Documents\My FLAC\Pink Floyd - The Best Of Tour 72 (1990) [FLAC] {The Swingin' Pig}\01 - Speak To Me, Breathe.wav

Pre-gap length 0:00:02.00

Peak level 87.6 %
Extraction speed 2.6 X
Track quality 100.0 %
Test CRC 66790BBA
Copy CRC 66790BBA
Cannot be verified as accurate (confidence 4) [FE539CFA], AccurateRip returned [F8D76A84] (AR v2)
Copy OK

Track 2

Filename C:\My Documents\My FLAC\Pink Floyd - The Best Of Tour 72 (1990) [FLAC] {The Swingin' Pig}\02 - On The Run.wav

Peak level 84.0 %
Extraction speed 3.2 X
Track quality 100.0 %
Test CRC 044164E5
Copy CRC 044164E5
Cannot be verified as accurate (confidence 4) [8815A080], AccurateRip returned [501B84FD] (AR v2)
Copy OK

Track 3

Filename C:\My Documents\My FLAC\Pink Floyd - The Best Of Tour 72 (1990) [FLAC] {The Swingin' Pig}\03 - Time.wav

Peak level 67.6 %
Extraction speed 3.2 X
Track quality 99.9 %
Test CRC D6CB414E
Copy CRC D6CB414E
Cannot be verified as accurate (confidence 4) [80C0644E], AccurateRip returned [317769AF] (AR v2)
Copy OK

Track 4

Filename C:\My Documents\My FLAC\Pink Floyd - The Best Of Tour 72 (1990) [FLAC] {The Swingin' Pig}\04 - Breathe (Reprise).wav

Peak level 64.1 %
Extraction speed 2.6 X
Track quality 100.0 %
Test CRC B0055134
Copy CRC B0055134
Cannot be verified as accurate (confidence 4) [2BEE098B], AccurateRip returned [E614B89A] (AR v2)
Copy OK

Track 5

Filename C:\My Documents\My FLAC\Pink Floyd - The Best Of Tour 72 (1990) [FLAC] {The Swingin' Pig}\05 - The Great Gig In The Sky.wav

Peak level 50.8 %
Extraction speed 3.2 X
Track quality 99.9 %
Test CRC D866705A
Copy CRC D866705A
Cannot be verified as accurate (confidence 4) [4F91819A], AccurateRip returned [A6E1520E] (AR v2)
Copy OK

Track 6

Filename C:\My Documents\My FLAC\Pink Floyd - The Best Of Tour 72 (1990) [FLAC] {The Swingin' Pig}\06 - Money.wav

Peak level 70.4 %
Extraction speed 4.3 X
Track quality 100.0 %
Test CRC 53BC740E
Copy CRC 53BC740E
Cannot be verified as accurate (confidence 4) [E7C59D61], AccurateRip returned [0CC68424] (AR v2)
Copy OK

Track 7

Filename C:\My Documents\My FLAC\Pink Floyd - The Best Of Tour 72 (1990) [FLAC] {The Swingin' Pig}\07 - Us And Them.wav

Peak level 70.2 %
Extraction speed 3.9 X
Track quality 100.0 %
Test CRC DD60FA5B
Copy CRC DD60FA5B
Cannot be verified as accurate (confidence 4) [BED90FB4], AccurateRip returned [C686D87D] (AR v2)
Copy OK

Track 8

Filename C:\My Documents\My FLAC\Pink Floyd - The Best Of Tour 72 (1990) [FLAC] {The Swingin' Pig}\08 - Any Colour You Like.wav

Peak level 66.0 %
Extraction speed 3.4 X
Track quality 99.9 %
Test CRC 963438F6
Copy CRC 963438F6
Cannot be verified as accurate (confidence 4) [A7456ABC], AccurateRip returned [5288FD5E] (AR v2)
Copy OK

Track 9

Filename C:\My Documents\My FLAC\Pink Floyd - The Best Of Tour 72 (1990) [FLAC] {The Swingin' Pig}\09 - Brain Damage.wav

Peak level 69.6 %
Extraction speed 2.5 X
Track quality 99.9 %
Test CRC 12034A8B
Copy CRC 12034A8B
Cannot be verified as accurate (confidence 4) [2559C9E3], AccurateRip returned [74284423] (AR v2)
Copy OK

Track 10

Filename C:\My Documents\My FLAC\Pink Floyd - The Best Of Tour 72 (1990) [FLAC] {The Swingin' Pig}\10 - Eclipse.wav

Peak level 74.1 %
Extraction speed 3.5 X
Track quality 100.0 %
Test CRC 8D4BBDE7
Copy CRC 8D4BBDE7
Cannot be verified as accurate (confidence 4) [46A305D6], AccurateRip returned [EE77D1FA] (AR v2)
Copy OK


No tracks could be verified as accurate
You may have a different pressing from the one(s) in the database

No errors occurred

End of status report

–– CUETools DB Plugin V2.1.6

[CTDB TOCID: n.jHEOCaH6Xm6Tlx5HHkGqNFUdY-] found
Submit result: n.jHEOCaH6Xm6Tlx5HHkGqNFUdY- has been submitted
Track | CTDB Status
1 | (0/9) No match
2 | (0/9) No match
3 | (0/9) No match
4 | (9/9) Accurately ripped
5 | (0/9) No match
6 | (0/9) No match
7 | (9/9) Accurately ripped
8 | (0/9) No match
9 | (0/9) No match
10 | (9/9) Accurately ripped


==== Log checksum D22DD10A57C336400527F441995A7476DB96766D8FF436CA6EDEC52A43427381 ====


Thank you to the original uploader.

Pink Floyd - The Best Of Tour 72 (1990) {The Swingin' Pig} **[RE-UP]**