Subcategories

Planet Funk - Albums Collection 2002-2012 (6CD)

Posted By: Designol
Planet Funk - Albums Collection 2002-2012 (6CD)

Planet Funk - Albums Collection 2002-2012 (6CD)
EAC | FLAC | Image (Cue&Log) ~ 2.36 Gb | Mp3 (CBR320) ~ 825 Mb | Scans ~ 623 Gb
Electronic, House, Electro, Alternative Dance-Rock | Time: 06:00:03

One of the main protagonists of the Italian dance music scene, Planet Funk emerged in 1999 as the fusion of two successful club music outfits, Souled Out (formed by Neapolitan producers Alessandro Sommella, Domenico "GG" Canu, and Sergio Della Monica) and Kamasutra (Florence's keyboard player Marco Baroni and DJ Alex Neri). The name Planet Funk was taken from an old Alex Neri track. English vocalists Auli Kokko and Dan Black were asked to join, and the ensemble mixed the track "Chase the Sun" for the summer of 2000. The song became an unexpected hit in Ibiza, prompting Verve's discoverer David Boyd to sign the group with Virgin Records. The first album, 2002's Non Zero Sumness, went gold and was also crowned at the Italian Music Awards. A remixed version Non Zero Sumness Plus One appeared toward the end of the year, followed by The Illogical Consequence in 2005 and Static in 2006. Other vocalists featured in the albums include Raiss, Sally Doherty, John Graham, and Luke Allen. Planet Funk have been invited to collaborate with Simple Minds, and to remix tracks by New Order and Faithless, among others.

Biography by Mariano Prunes, Allmusic.com

Planet Funk - Albums Collection 2002-2012 (6CD)





Planet Funk - Albums Collection 2002-2012 (6CD)

Planet Funk - Non Zero Sumness (2002)
EAC | FLAC | Image (Cue&Log) ~ 396 Mb | Mp3 (CBR320) ~ 139 Mb | Scans ~ 94 Mb
Label: Bustin' Loose/Sony Music | # STD5106532 | Time: 01:00:41

2002 debut album for Italian dance act with two hits under their belt, 'Chase The Sun' & 'Inside All The People'. The band's influences include Pink Floyd, King Crimson, The Police, The Clash, Stevie Wonder, Brian Eno, Underworld, Leftfield, Cocteau Twins, New Order & Depeche Mode.

Tracklist:

01. Where Is The Max (04:40)
02. Chase The Sun (03:53)
03. All Man's Land (05:32)
04. The Switch (04:41)
05. Inside All The People (04:57)
06. Under The Rain (06:23)
07. Paraffin (04:30)
08. Piano Piano (02:31)
09. Tightrope Artist (05:16)
10. Who Said (Stuck In The UK) (03:45)
11. The Waltz/Rosa Blu (Hidden Track) (14:27)


Exact Audio Copy V1.0 beta 3 from 29. August 2011

EAC extraction logfile from 24. February 2013, 20:16

Planet Funk / Non Zero Sumness

Used drive : Optiarc BD RW BD-5300S Adapter: 3 ID: 0

Read mode : Secure
Utilize accurate stream : Yes
Defeat audio cache : Yes
Make use of C2 pointers : No

Read offset correction : 6
Overread into Lead-In and Lead-Out : No
Fill up missing offset samples with silence : Yes
Delete leading and trailing silent blocks : No
Null samples used in CRC calculations : Yes
Used interface : Installed external ASPI interface

Used output format : User Defined Encoder
Selected bitrate : 1024 kBit/s
Quality : High
Add ID3 tag : No
Command line compressor : C:\Program Files (x86)\Exact Audio Copy\Flac\flac.exe
Additional command line options : -8 -V -T "Date=%year%" -T "Genre=%genre%" -T "COMMENT=ripped by bvstudio®" %source%


TOC of the extracted CD

Track | Start | Length | Start sector | End sector
––––––––––––––––––––––––––––-
1 | 0:00.00 | 4:40.47 | 0 | 21046
2 | 4:40.47 | 3:53.03 | 21047 | 38524
3 | 8:33.50 | 5:32.27 | 38525 | 63451
4 | 14:06.02 | 4:41.55 | 63452 | 84581
5 | 18:47.57 | 4:57.53 | 84582 | 106909
6 | 23:45.35 | 6:23.32 | 106910 | 135666
7 | 30:08.67 | 4:30.58 | 135667 | 155974
8 | 34:39.50 | 2:31.47 | 155975 | 167346
9 | 37:11.22 | 5:16.55 | 167347 | 191101
10 | 42:28.02 | 3:45.25 | 191102 | 208001
11 | 46:13.27 | 14:27.48 | 208002 | 273074


Range status and errors

Selected range

Filename F:\Planet Funk\2002 - Non Zero Sumness\Planet Funk - Non Zero Sumness.wav

Peak level 98.0 %
Extraction speed 7.3 X
Range quality 100.0 %
Test CRC 52F0A69D
Copy CRC 52F0A69D
Copy OK

No errors occurred


AccurateRip summary

Track 1 accurately ripped (confidence 5) [537AB059] (AR v2)
Track 2 accurately ripped (confidence 5) [237CE064] (AR v2)
Track 3 accurately ripped (confidence 5) [9BE4567A] (AR v2)
Track 4 accurately ripped (confidence 5) [804AC4CA] (AR v2)
Track 5 accurately ripped (confidence 5) [A264ECCC] (AR v2)
Track 6 accurately ripped (confidence 5) [62D3A517] (AR v2)
Track 7 accurately ripped (confidence 5) [60682303] (AR v2)
Track 8 accurately ripped (confidence 5) [4EA10D54] (AR v2)
Track 9 accurately ripped (confidence 5) [BA640991] (AR v2)
Track 10 accurately ripped (confidence 5) [C90778C7] (AR v2)
Track 11 accurately ripped (confidence 5) [0A0ABEA2] (AR v2)

All tracks accurately ripped

End of status report

–– CUETools DB Plugin V2.1.4

[CTDB TOCID: ZPtYgV1A2zORGr0Pic.btkY_iEk-] found
Submit result: ZPtYgV1A2zORGr0Pic.btkY_iEk- has been confirmed
Track | CTDB Status
1 | (8/8) Accurately ripped
2 | (8/8) Accurately ripped
3 | (8/8) Accurately ripped
4 | (8/8) Accurately ripped
5 | (8/8) Accurately ripped
6 | (8/8) Accurately ripped
7 | (8/8) Accurately ripped
8 | (8/8) Accurately ripped
9 | (8/8) Accurately ripped
10 | (8/8) Accurately ripped
11 | (8/8) Accurately ripped


==== Log checksum 67EFBF2CAEBDB1DDAF1A4E44D5F94CA54CE962F71FA810A2F9BCC193FEF497C2 ====

foobar2000 1.2.3 / Dynamic Range Meter 1.1.1
log date: 2013-02-24 20:48:48

––––––––––––––––––––––––––––––––––––––––
Analyzed: Planet Funk / Non Zero Sumness
––––––––––––––––––––––––––––––––––––––––

DR Peak RMS Duration Track
––––––––––––––––––––––––––––––––––––––––
DR8 -0.18 dB -10.20 dB 4:41 01-Where Is The Max
DR8 -0.18 dB -9.87 dB 3:53 02-Chase The Sun
DR8 -0.18 dB -10.77 dB 5:32 03-All Man's Land
DR7 -0.18 dB -9.22 dB 4:42 04-The Switch
DR8 -0.18 dB -9.54 dB 4:58 05-Inside All The People
DR8 -0.18 dB -9.22 dB 6:23 06-Under The Rain
DR8 -0.18 dB -9.49 dB 4:31 07-Paraffin
DR8 -0.18 dB -11.10 dB 2:32 08-Piano Piano
DR8 -0.18 dB -10.34 dB 5:17 09-Tightrope Artist
DR8 -0.18 dB -9.26 dB 3:45 10-Who Said (Stuck In The UK)
DR9 -0.18 dB -11.37 dB 14:28 11-The Waltz
––––––––––––––––––––––––––––––––––––––––

Number of tracks: 11
Official DR value: DR8

Samplerate: 44100 Hz
Channels: 2
Bits per sample: 16
Bitrate: 913 kbps
Codec: FLAC
================================================================================




Planet Funk - Albums Collection 2002-2012 (6CD)

Planet Funk - Non Zero Sumness Plus One (2003)
EAC | FLAC | Image (Cue&Log) ~ 484 Mb | Mp3 (CBR320) ~ 167 Mb | Scans ~ 104 Mb
Label: Virgin Music (Italy) | # 7243 5 83915 2 7 | Time: 01:13:09

2003 re-issue of their 2002 debut album for Italian dance act with three hits under their belt, 'Chase The Sun', 'Inside All The People' and the most recent UK hit, 'Who Said (Stuck in the UK)'. The band's influences include Pink Floyd, King Crimson, The Police, The Clash, Stevie Wonder, Brian Eno, Underworld, Leftfield, Cocteau Twins, New Order & Depeche Mode. This Italian version includes one more single entitled 'One Step Closer' interpreted by Jim Kerr of Simple Minds + a remix of 'Who Said' and 'Rosa Blu', a ghost track in the previous edition. Copy Controlled. Slipcase. EMI. Featuring the hits "Chase The Sun, "Inside All The People," and "Who Said (Stuck In The UK)," the debut set from the Italian dance band features an exceptional bonus track: A remix of "One Step Closer" by Simple Minds' Jim Kerr.

Tracklist:

01. Where Is The Max (04:40)
02. Chase The Sun (03:53)
03. All Mans Land (05:32)
04. The Switch (04:41)
05. Inside All The People (04:57)
06. Under The Rain (06:23)
07. Paraffin (04:30)
08. Piano Piano (02:31)
09. Tightrope Artist (05:16)
10. Who Said (03:45)
11. The Waltz (06:36)
12. One Step Closer (feat. Simple Minds) (03:54)
13. Who Said (Posillipo Mix) (09:01)
14. Rosa Blu (07:23)


Exact Audio Copy V1.0 beta 3 from 29. August 2011

EAC extraction logfile from 25. February 2013, 21:32

Planet Funk / Non Zero Sumness Plus One

Used drive : PIONEER DVD-RW DVR-112D Adapter: 2 ID: 1

Read mode : Secure
Utilize accurate stream : Yes
Defeat audio cache : Yes
Make use of C2 pointers : No

Read offset correction : 48
Overread into Lead-In and Lead-Out : No
Fill up missing offset samples with silence : Yes
Delete leading and trailing silent blocks : No
Null samples used in CRC calculations : Yes
Used interface : Installed external ASPI interface

Used output format : User Defined Encoder
Selected bitrate : 1024 kBit/s
Quality : High
Add ID3 tag : No
Command line compressor : C:\Program Files (x86)\Exact Audio Copy\Flac\flac.exe
Additional command line options : -8 -V -T "Date=%year%" -T "Genre=%genre%" -T "COMMENT=ripped by bvstudio®" %source%


TOC of the extracted CD

Track | Start | Length | Start sector | End sector
––––––––––––––––––––––––––––-
1 | 0:00.00 | 4:40.47 | 0 | 21046
2 | 4:40.47 | 3:53.03 | 21047 | 38524
3 | 8:33.50 | 5:32.27 | 38525 | 63451
4 | 14:06.02 | 4:41.55 | 63452 | 84581
5 | 18:47.57 | 4:57.53 | 84582 | 106909
6 | 23:45.35 | 6:23.32 | 106910 | 135666
7 | 30:08.67 | 4:30.58 | 135667 | 155974
8 | 34:39.50 | 2:31.47 | 155975 | 167346
9 | 37:11.22 | 5:16.55 | 167347 | 191101
10 | 42:28.02 | 3:45.25 | 191102 | 208001
11 | 46:13.27 | 6:36.06 | 208002 | 237707
12 | 52:49.33 | 3:54.11 | 237708 | 255268
13 | 56:43.44 | 9:01.33 | 255269 | 295876
14 | 65:45.02 | 7:23.43 | 295877 | 329144
15 | 75:40.45 | 4:12.30 | 340545 | 359474


Range status and errors

Selected range

Filename F:\APE, FLAC, LOSSLESS\Planet Funk\2003 - Non Zero Sumness Plus One\Planet Funk - Non Zero Sumness Plus One.wav

Peak level 99.7 %
Extraction speed 2.1 X
Range quality 100.0 %
Test CRC F800F0B2
Copy CRC F800F0B2
Copy OK

No errors occurred


AccurateRip summary

Track 1 not present in database
Track 2 not present in database
Track 3 not present in database
Track 4 not present in database
Track 5 not present in database
Track 6 not present in database
Track 7 not present in database
Track 8 not present in database
Track 9 not present in database
Track 10 not present in database
Track 11 not present in database
Track 12 not present in database
Track 13 not present in database
Track 14 not present in database

None of the tracks are present in the AccurateRip database

End of status report

–– CUETools DB Plugin V2.1.4

[CTDB TOCID: 8ULbu7cvVJIs.YMZEdfJ.0qN.3w-] found
Submit result: 8ULbu7cvVJIs.YMZEdfJ.0qN.3w- has been uploaded
Track | CTDB Status
1 | (0/2) No match
2 | (0/2) No match
3 | (0/2) No match
4 | (0/2) No match
5 | (0/2) No match
6 | (0/2) No match
7 | (0/2) No match
8 | (0/2) No match
9 | (0/2) No match
10 | (0/2) No match
11 | (0/2) No match
12 | (0/2) No match
13 | (0/2) No match
14 | (0/2) No match


==== Log checksum F62C3C25BCFD03FC7742FC41AE96BFEF5235A256F8F26D061F59E9D2DFABBAF3 ====

foobar2000 1.2.3 / Dynamic Range Meter 1.1.1
log date: 2013-02-25 21:34:33

––––––––––––––––––––––––––––––––––––––––
Analyzed: Planet Funk / Non Zero Sumness Plus One
––––––––––––––––––––––––––––––––––––––––

DR Peak RMS Duration Track
––––––––––––––––––––––––––––––––––––––––
DR8 -0.18 dB -10.20 dB 4:41 01-Where Is The Max
DR8 -0.18 dB -9.87 dB 3:53 02-Chase The Sun
DR8 -0.18 dB -10.77 dB 5:32 03-All Mans Land
DR7 -0.18 dB -9.22 dB 4:42 04-The Switch
DR8 -0.18 dB -9.54 dB 4:58 05-Inside All The People
DR8 -0.18 dB -9.22 dB 6:23 06-Under The Rain
DR8 -0.18 dB -9.49 dB 4:31 07-Paraffin
DR8 -0.18 dB -11.10 dB 2:32 08-Piano Piano
DR8 -0.18 dB -10.34 dB 5:17 09-Tightrope Artist
DR8 -0.18 dB -9.26 dB 3:45 10-Who Said
DR9 -0.18 dB -11.31 dB 6:36 11-The Waltz
DR8 -0.18 dB -9.24 dB 3:54 12-One Step Closer (feat. Simple Minds)
DR7 -0.02 dB -8.25 dB 9:01 13-Who Said (Posillipo Mix)
DR9 -0.18 dB -11.17 dB 7:24 14-Rosa Blu
––––––––––––––––––––––––––––––––––––––––

Number of tracks: 14
Official DR value: DR8

Samplerate: 44100 Hz
Channels: 2
Bits per sample: 16
Bitrate: 926 kbps
Codec: FLAC
================================================================================




Planet Funk - Albums Collection 2002-2012 (6CD)

Planet Funk - The Illogical Consequence (2005)
EAC | FLAC | Image (Cue&Log) ~ 384 Mb | Mp3 (CBR320) ~ 135 Mb | Scans ~ 105 Mb
Label: Bustin' Loose Ltd./EMI Music Italy | # 0724347480522 | Time: 00:59:10

Few people have the right to say their music is a planetary phenomenon, but the Italian-Anglo collective centred on producer players Sergio Della Monica, Alex Neri, Domenico GG Canu, and Marco Baroni can make that claim with confidence. They are the masters of open frontier funk, in the broadest and most shimmering sense of the f-word. With a history of worldwide monster hits behind them, the team that in 2003 stormed the charts with 'Chase The Sun' have taken their eclectic groove evangelism to the next level.

Tracklist:

01. Movement Is Noted (02:02)
02. Everyday (04:20)
03. Stop Me (03:52)
04. Trapped Upon The Ground (03:25)
05. Come Alive (04:16)
06. Laces (03:23)
07. The End (04:33)
08. Ultraviolet Days (04:53)
09. Tears After The Rainbow (08:05)
10. Inhuman Perfection (04:49)
11. Peak (03:46)
12. Dusk (05:07)
13. Out On The Dancefloor (06:35)


Exact Audio Copy V1.0 beta 3 from 29. August 2011

EAC extraction logfile from 28. April 2013, 0:38

Planet Funk / The Illogical Consequence

Used drive : Optiarc BD RW BD-5300S Adapter: 3 ID: 0

Read mode : Secure
Utilize accurate stream : Yes
Defeat audio cache : Yes
Make use of C2 pointers : No

Read offset correction : 6
Overread into Lead-In and Lead-Out : No
Fill up missing offset samples with silence : Yes
Delete leading and trailing silent blocks : No
Null samples used in CRC calculations : Yes
Used interface : Installed external ASPI interface

Used output format : User Defined Encoder
Selected bitrate : 1024 kBit/s
Quality : High
Add ID3 tag : No
Command line compressor : C:\Program Files (x86)\Exact Audio Copy\Flac\flac.exe
Additional command line options : -8 -V -T "Date=%year%" -T "Genre=%genre%" -T "COMMENT=ripped by bvstudio®" %source%


TOC of the extracted CD

Track | Start | Length | Start sector | End sector
––––––––––––––––––––––––––––-
1 | 0:00.00 | 2:02.37 | 0 | 9186
2 | 2:02.37 | 4:19.70 | 9187 | 28681
3 | 6:22.32 | 3:52.45 | 28682 | 46126
4 | 10:15.02 | 3:25.10 | 46127 | 61511
5 | 13:40.12 | 4:16.20 | 61512 | 80731
6 | 17:56.32 | 3:23.45 | 80732 | 96001
7 | 21:20.02 | 4:33.63 | 96002 | 116539
8 | 25:53.65 | 4:52.70 | 116540 | 138509
9 | 30:46.60 | 8:05.00 | 138510 | 174884
10 | 38:51.60 | 4:48.70 | 174885 | 196554
11 | 43:40.55 | 3:46.65 | 196555 | 213569
12 | 47:27.45 | 5:07.20 | 213570 | 236614
13 | 52:34.65 | 6:35.07 | 236615 | 266246


Range status and errors

Selected range

Filename F:\Planet Funk\2005 - The Illogical Consequence\Planet Funk - The Illogical Consequence.wav

Peak level 98.0 %
Extraction speed 7.2 X
Range quality 100.0 %
Test CRC 6A4E7243
Copy CRC 6A4E7243
Copy OK

No errors occurred


AccurateRip summary

Track 1 cannot be verified as accurate (confidence 2) [90CAC62C], AccurateRip returned [5F18DCDC] (AR v2)
Track 2 cannot be verified as accurate (confidence 2) [93ECB42D], AccurateRip returned [A3390BCC] (AR v2)
Track 3 cannot be verified as accurate (confidence 3) [E98302F8], AccurateRip returned [156664A3] (AR v2)
Track 4 cannot be verified as accurate (confidence 2) [CEBD2757], AccurateRip returned [1EA2512E] (AR v2)
Track 5 cannot be verified as accurate (confidence 2) [1814345A], AccurateRip returned [84800CC2] (AR v2)
Track 6 cannot be verified as accurate (confidence 2) [111FDDCD], AccurateRip returned [4E5E966D] (AR v2)
Track 7 cannot be verified as accurate (confidence 2) [CF104BA9], AccurateRip returned [5406D519] (AR v2)
Track 8 cannot be verified as accurate (confidence 2) [3420FA6D], AccurateRip returned [D56EC1E5] (AR v2)
Track 9 cannot be verified as accurate (confidence 2) [BBC6CF4C], AccurateRip returned [A9AF4AFF] (AR v2)
Track 10 cannot be verified as accurate (confidence 2) [45C20780], AccurateRip returned [1FF5FDDD] (AR v2)
Track 11 cannot be verified as accurate (confidence 2) [954CF3EA], AccurateRip returned [63471A8A] (AR v2)
Track 12 cannot be verified as accurate (confidence 2) [8C7FFDF0], AccurateRip returned [5B1653E4] (AR v2)
Track 13 cannot be verified as accurate (confidence 2) [AC1EB50B], AccurateRip returned [D4C605AB] (AR v2)

No tracks could be verified as accurate
You may have a different pressing from the one(s) in the database

End of status report

–– CUETools DB Plugin V2.1.5

[CTDB TOCID: 1X65WRFSPWUUDOLk3MHpl5TZOtg-] disk not present in database
Submit result: 1X65WRFSPWUUDOLk3MHpl5TZOtg- has been uploaded


==== Log checksum 680EC666A1228D4607F3BBBB2DEBC6D2B84795B5ECD82C7065BF2DB2B87D188F ====

foobar2000 1.2.6 beta 1 / Dynamic Range Meter 1.1.1
log date: 2013-04-28 18:24:35

––––––––––––––––––––––––––––––––––––––––
Analyzed: Planet Funk / The Illogical Consequence
––––––––––––––––––––––––––––––––––––––––

DR Peak RMS Duration Track
––––––––––––––––––––––––––––––––––––––––
DR7 -0.18 dB -9.62 dB 2:02 01-Movement Is Noted
DR7 -0.18 dB -8.21 dB 4:20 02-Everyday
DR7 -0.18 dB -8.01 dB 3:53 03-Stop Me
DR7 -0.18 dB -8.25 dB 3:25 04-Trapped Upon The Ground
DR7 -0.18 dB -8.59 dB 4:16 05-Come Alive
DR8 -0.18 dB -9.11 dB 3:24 06-Laces
DR6 -0.18 dB -8.25 dB 4:34 07-The End
DR7 -0.18 dB -8.94 dB 4:53 08-Ultraviolet Days
DR7 -0.18 dB -9.20 dB 8:05 09-Tears After The Rainbow
DR7 -0.18 dB -10.02 dB 4:49 10-Inhuman Perfection
DR7 -0.18 dB -8.92 dB 3:47 11-Peak
DR8 -0.18 dB -11.30 dB 5:07 12-Dusk
DR8 -0.18 dB -10.20 dB 6:35 13-Out On The Dancefloor
––––––––––––––––––––––––––––––––––––––––

Number of tracks: 13
Official DR value: DR7

Samplerate: 44100 Hz
Channels: 2
Bits per sample: 16
Bitrate: 908 kbps
Codec: FLAC
================================================================================




Planet Funk - Albums Collection 2002-2012 (6CD)

Planet Funk - Static (2006)
EAC | FLAC | Image (Cue&Log) ~ 275 Mb | Mp3 (CBR320) ~ 95 Mb | Scans ~ 140 Mb
Label: EMI Music Italy | # 0946 3 78809 2 0 | Time: 00:41:27

Static is the third album by Planet Funk. It was released in 2006 under EMI Music. Vocal parts are interpreted by Luke Allen, except track 10, which is sung by Jovanotti.

Tracklist:

01. It's Your Time (03:01)
02. Magic Number (03:42)
03. Swallow (02:55)
04. In The Beginning (04:06)
05. If We Try (03:09)
06. Static (04:57)
07. We Turn (04:24)
08. Running Through My Head (05:53)
09. Tears (05:13)
10. Big Fish (04:04)


Exact Audio Copy V1.0 beta 3 from 29. August 2011

EAC extraction logfile from 28. April 2013, 0:58

Planet Funk / Static

Used drive : Optiarc BD RW BD-5300S Adapter: 3 ID: 0

Read mode : Secure
Utilize accurate stream : Yes
Defeat audio cache : Yes
Make use of C2 pointers : No

Read offset correction : 6
Overread into Lead-In and Lead-Out : No
Fill up missing offset samples with silence : Yes
Delete leading and trailing silent blocks : No
Null samples used in CRC calculations : Yes
Used interface : Installed external ASPI interface

Used output format : User Defined Encoder
Selected bitrate : 1024 kBit/s
Quality : High
Add ID3 tag : No
Command line compressor : C:\Program Files (x86)\Exact Audio Copy\Flac\flac.exe
Additional command line options : -8 -V -T "Date=%year%" -T "Genre=%genre%" -T "COMMENT=ripped by bvstudio®" %source%


TOC of the extracted CD

Track | Start | Length | Start sector | End sector
––––––––––––––––––––––––––––-
1 | 0:00.00 | 3:00.71 | 0 | 13570
2 | 3:00.71 | 3:42.49 | 13571 | 30269
3 | 6:43.45 | 2:55.10 | 30270 | 43404
4 | 9:38.55 | 4:06.40 | 43405 | 61894
5 | 13:45.20 | 3:09.37 | 61895 | 76106
6 | 16:54.57 | 4:57.35 | 76107 | 98416
7 | 21:52.17 | 4:24.16 | 98417 | 118232
8 | 26:16.33 | 5:52.70 | 118233 | 144702
9 | 32:09.28 | 5:13.06 | 144703 | 168183
10 | 37:22.34 | 4:04.52 | 168184 | 186535


Range status and errors

Selected range

Filename F:\Planet Funk\2006 - Static\Planet Funk - Static.wav

Peak level 100.0 %
Extraction speed 6.3 X
Range quality 100.0 %
Test CRC 2932D8EE
Copy CRC 2932D8EE
Copy OK

No errors occurred


AccurateRip summary

Track 1 accurately ripped (confidence 2) [BA0A955A] (AR v1)
Track 2 accurately ripped (confidence 2) [3FB999DC] (AR v1)
Track 3 accurately ripped (confidence 2) [4F2F2B35] (AR v1)
Track 4 accurately ripped (confidence 2) [3302B9C7] (AR v1)
Track 5 accurately ripped (confidence 2) [CBBF8C64] (AR v1)
Track 6 accurately ripped (confidence 2) [D866BE66] (AR v1)
Track 7 accurately ripped (confidence 2) [C99BB71C] (AR v1)
Track 8 accurately ripped (confidence 2) [7F059BFC] (AR v1)
Track 9 accurately ripped (confidence 2) [93DF3B40] (AR v1)
Track 10 accurately ripped (confidence 2) [F51C0376] (AR v1)

All tracks accurately ripped

End of status report

–– CUETools DB Plugin V2.1.5

[CTDB TOCID: WE8I9MJAW_VFB1oLfQ.UQICFVkY-] found
Submit result: WE8I9MJAW_VFB1oLfQ.UQICFVkY- has been confirmed
Track | CTDB Status
1 | (2/2) Accurately ripped
2 | (2/2) Accurately ripped
3 | (2/2) Accurately ripped
4 | (2/2) Accurately ripped
5 | (2/2) Accurately ripped
6 | (2/2) Accurately ripped
7 | (2/2) Accurately ripped
8 | (2/2) Accurately ripped
9 | (2/2) Accurately ripped
10 | (2/2) Accurately ripped


==== Log checksum D1F47B26B2931D0D4707FEDEC2535EF0212CD8DC4F148299148D7936AC1C099E ====

foobar2000 1.2.6 beta 1 / Dynamic Range Meter 1.1.1
log date: 2013-04-28 19:23:36

––––––––––––––––––––––––––––––––––––––––
Analyzed: Planet Funk / Static
––––––––––––––––––––––––––––––––––––––––

DR Peak RMS Duration Track
––––––––––––––––––––––––––––––––––––––––
DR6 0.00 dB -6.40 dB 3:01 01-It's Your Time
DR6 0.00 dB -7.91 dB 3:43 02-Magic Number
DR7 0.00 dB -7.90 dB 2:55 03-Swallow
DR8 0.00 dB -10.16 dB 4:07 04-In The Beginning
DR8 0.00 dB -9.09 dB 3:09 05-If We Try
DR6 0.00 dB -7.53 dB 4:57 06-Static
DR7 0.00 dB -8.61 dB 4:24 07-We Turn
DR7 0.00 dB -9.97 dB 5:53 08-Running Through My Head
DR6 0.00 dB -7.50 dB 5:13 09-Tears
DR6 0.00 dB -8.48 dB 4:05 10-Big Fish
––––––––––––––––––––––––––––––––––––––––

Number of tracks: 10
Official DR value: DR7

Samplerate: 44100 Hz
Channels: 2
Bits per sample: 16
Bitrate: 929 kbps
Codec: FLAC
================================================================================




Planet Funk - Albums Collection 2002-2012 (6CD)

Planet Funk - Planet Funk (Best Of) (2009)
EAC | FLAC | Image (Cue&Log) ~ 542 Mb | Mp3 (CBR320) ~ 182 Mb | Scans ~ 108 Mb
Label: Universal Music (Italy) | # 0602527006703 | Time: 01:19:51

2009 compilation from the Italian Electronic outfit. This collection contains 15 of their biggest and best PLUS three new tracks: 'Lemonade', 'Too Much TV' and 'Paper Feathers'.

Tracklist:

01. Lemonade (New Recording) (03:41)
02. Inside All The People (2008 Version) (04:57)
03. Stop Me (03:50)
04. Who Said (03:38)
05. Too Much TV (New Recording) (03:04)
06. The Switch (05:15)
07. Come Alive (04:17)
08. Chase The Sun (03:55)
09. Paper Feathers (New Recording) (04:44)
10. Paraffin (04:32)
11. Everyday (04:21)
12. It's Your Time (03:02)
13. Peak (03:49)
14. Static (04:58)
15. All Man's Land (05:33)
16. Ultraviolet Days (04:50)
17. One Step Closer (feat. Jim Kerr) (06:43)
18. The End (04:34)


Exact Audio Copy V1.0 beta 3 from 29. August 2011

EAC extraction logfile from 28. April 2013, 2:50

Planet Funk / Planet Funk (Best Of)

Used drive : Optiarc BD RW BD-5300S Adapter: 3 ID: 0

Read mode : Secure
Utilize accurate stream : Yes
Defeat audio cache : Yes
Make use of C2 pointers : No

Read offset correction : 6
Overread into Lead-In and Lead-Out : No
Fill up missing offset samples with silence : Yes
Delete leading and trailing silent blocks : No
Null samples used in CRC calculations : Yes
Used interface : Installed external ASPI interface

Used output format : User Defined Encoder
Selected bitrate : 1024 kBit/s
Quality : High
Add ID3 tag : No
Command line compressor : C:\Program Files (x86)\Exact Audio Copy\Flac\flac.exe
Additional command line options : -8 -V -T "Date=%year%" -T "Genre=%genre%" -T "COMMENT=ripped by bvstudio®" %source%


TOC of the extracted CD

Track | Start | Length | Start sector | End sector
––––––––––––––––––––––––––––-
1 | 0:00.00 | 3:41.59 | 0 | 16633
2 | 3:41.59 | 4:57.10 | 16634 | 38918
3 | 8:38.69 | 3:50.07 | 38919 | 56175
4 | 12:29.01 | 3:38.05 | 56176 | 72530
5 | 16:07.06 | 3:04.55 | 72531 | 86385
6 | 19:11.61 | 5:15.43 | 86386 | 110053
7 | 24:27.29 | 4:17.05 | 110054 | 129333
8 | 28:44.34 | 3:55.00 | 129334 | 146958
9 | 32:39.34 | 4:44.32 | 146959 | 168290
10 | 37:23.66 | 4:32.48 | 168291 | 188738
11 | 41:56.39 | 4:21.62 | 188739 | 208375
12 | 46:18.26 | 3:02.10 | 208376 | 222035
13 | 49:20.36 | 3:49.65 | 222036 | 239275
14 | 53:10.26 | 4:58.28 | 239276 | 261653
15 | 58:08.54 | 5:33.27 | 261654 | 286655
16 | 63:42.06 | 4:50.33 | 286656 | 308438
17 | 68:32.39 | 6:43.05 | 308439 | 338668
18 | 75:15.44 | 4:34.13 | 338669 | 359231


Range status and errors

Selected range

Filename F:\Planet Funk\2009 - Planet Funk (Best Of)\Planet Funk - Planet Funk (Best Of).wav

Peak level 100.0 %
Extraction speed 8.4 X
Range quality 99.9 %
Test CRC 574B7F65
Copy CRC 574B7F65
Copy OK

No errors occurred


AccurateRip summary

Track 1 accurately ripped (confidence 4) [535103FF] (AR v1)
Track 2 accurately ripped (confidence 5) [C306E945] (AR v1)
Track 3 accurately ripped (confidence 4) [C5D3409C] (AR v1)
Track 4 accurately ripped (confidence 4) [1C228DD8] (AR v1)
Track 5 accurately ripped (confidence 4) [A46F5FB7] (AR v1)
Track 6 accurately ripped (confidence 5) [5416C198] (AR v1)
Track 7 accurately ripped (confidence 4) [7293DC50] (AR v1)
Track 8 accurately ripped (confidence 5) [C2617341] (AR v1)
Track 9 accurately ripped (confidence 4) [CF700429] (AR v1)
Track 10 accurately ripped (confidence 4) [3DA2E453] (AR v1)
Track 11 accurately ripped (confidence 4) [9E4744FE] (AR v1)
Track 12 accurately ripped (confidence 4) [B415CC7F] (AR v1)
Track 13 accurately ripped (confidence 4) [AAF6FC15] (AR v1)
Track 14 accurately ripped (confidence 4) [4145D69F] (AR v1)
Track 15 accurately ripped (confidence 4) [EF7D1D6F] (AR v1)
Track 16 accurately ripped (confidence 4) [684F8BD2] (AR v1)
Track 17 accurately ripped (confidence 4) [06845468] (AR v1)
Track 18 accurately ripped (confidence 4) [135FBFA3] (AR v1)

All tracks accurately ripped

End of status report

–– CUETools DB Plugin V2.1.5

[CTDB TOCID: ekFFSYg8Gu1GOvhS2HZfnQI00Z0-] found
Submit result: already submitted
Track | CTDB Status
1 | (8/8) Accurately ripped
2 | (8/8) Accurately ripped
3 | (8/8) Accurately ripped
4 | (8/8) Accurately ripped
5 | (8/8) Accurately ripped
6 | (8/8) Accurately ripped
7 | (8/8) Accurately ripped
8 | (8/8) Accurately ripped
9 | (8/8) Accurately ripped
10 | (8/8) Accurately ripped
11 | (8/8) Accurately ripped
12 | (8/8) Accurately ripped
13 | (8/8) Accurately ripped
14 | (8/8) Accurately ripped
15 | (8/8) Accurately ripped
16 | (8/8) Accurately ripped
17 | (8/8) Accurately ripped
18 | (8/8) Accurately ripped


==== Log checksum 0450209CE46F2918A572AD5F67B9859972E6EE5C671B42C7D6471DF31DCE3BD3 ====

foobar2000 1.2.6 beta 1 / Dynamic Range Meter 1.1.1
log date: 2013-04-28 20:05:29

––––––––––––––––––––––––––––––––––––––––
Analyzed: Planet Funk / Planet Funk (Best Of)
––––––––––––––––––––––––––––––––––––––––

DR Peak RMS Duration Track
––––––––––––––––––––––––––––––––––––––––
DR8 0.00 dB -9.10 dB 3:42 01-Lemonade (New Recording)
DR8 -0.18 dB -9.49 dB 4:57 02-Inside All The People (2008 Version)
DR7 0.00 dB -8.11 dB 3:50 03-Stop Me
DR8 -0.18 dB -9.09 dB 3:38 04-Who Said
DR8 0.00 dB -9.48 dB 3:05 05-Too Much TV (New Recording)
DR8 0.00 dB -9.31 dB 5:16 06-The Switch
DR7 0.00 dB -8.43 dB 4:17 07-Come Alive
DR8 -0.18 dB -9.92 dB 3:55 08-Chase The Sun
DR8 0.00 dB -9.72 dB 4:44 09-Paper Feathers (New Recording)
DR8 -0.18 dB -9.49 dB 4:33 10-Paraffin
DR7 -0.18 dB -8.26 dB 4:22 11-Everyday
DR6 0.00 dB -6.40 dB 3:02 12-It's Your Time
DR7 -0.18 dB -8.97 dB 3:50 13-Peak
DR6 0.00 dB -7.53 dB 4:58 14-Static
DR8 0.00 dB -10.19 dB 5:33 15-All Man's Land
DR7 -0.18 dB -8.90 dB 4:50 16-Ultraviolet Days
DR8 0.00 dB -10.43 dB 6:43 17-One Step Closer (feat. Jim Kerr)
DR6 -0.18 dB -8.25 dB 4:34 18-The End
––––––––––––––––––––––––––––––––––––––––

Number of tracks: 18
Official DR value: DR7

Samplerate: 44100 Hz
Channels: 2
Bits per sample: 16
Bitrate: 950 kbps
Codec: FLAC
================================================================================




Planet Funk - Albums Collection 2002-2012 (6CD)

Planet Funk - The Great Shake + 2 (2012)
EAC | FLAC | Image (Cue&Log) ~ 329 Mb | Mp3 (CBR320) ~ 104 Mb | Scans ~ 70 Mb
Label: Universal Music | # 0602527979977 | Time: 00:45:41

Planet Funk combine Italian dance with British indie vocals (is there such a thing?) to great effect. The first two tracks played loud will blow your mind (especially Another Sunrise) and few tracks disappoint. Not the greatest dance album ever, but if you liked their hits "Inside all the people" and "Chase the Sun" then you should like this.

Review by Seasider, Amazon.com

Tracklist:

01. These Boots Are Made For Walkin' (03:17)
02. All Your Love (03:26)
03. Another Sunrise (04:00)
04. The Great Shake (04:17)
05. How Should I Know (03:41)
06. Just Another Try (05:10)
07. Live It Up (04:10)
08. Ora Il Mondo E Perfetto (con Giuliano Sangiorgi) (05:20)
09. The Other Side (03:38)
10. You Remain (04:44)
11. Ora Il Mondo E Perfetto (Radio Edit) (con Giuliano Sangiorgi) (03:53)


Exact Audio Copy V1.0 beta 3 from 29. August 2011

EAC extraction logfile from 24. February 2013, 20:37

Planet Funk / The Great Shake +2

Used drive : Optiarc BD RW BD-5300S Adapter: 3 ID: 0

Read mode : Secure
Utilize accurate stream : Yes
Defeat audio cache : Yes
Make use of C2 pointers : No

Read offset correction : 6
Overread into Lead-In and Lead-Out : No
Fill up missing offset samples with silence : Yes
Delete leading and trailing silent blocks : No
Null samples used in CRC calculations : Yes
Used interface : Installed external ASPI interface

Used output format : User Defined Encoder
Selected bitrate : 1024 kBit/s
Quality : High
Add ID3 tag : No
Command line compressor : C:\Program Files (x86)\Exact Audio Copy\Flac\flac.exe
Additional command line options : -8 -V -T "Date=%year%" -T "Genre=%genre%" -T "COMMENT=ripped by bvstudio®" %source%


TOC of the extracted CD

Track | Start | Length | Start sector | End sector
––––––––––––––––––––––––––––-
1 | 0:00.00 | 3:17.31 | 0 | 14805
2 | 3:17.31 | 3:26.00 | 14806 | 30255
3 | 6:43.31 | 4:00.53 | 30256 | 48308
4 | 10:44.09 | 4:17.08 | 48309 | 67591
5 | 15:01.17 | 3:41.69 | 67592 | 84235
6 | 18:43.11 | 5:10.33 | 84236 | 107518
7 | 23:53.44 | 4:10.06 | 107519 | 126274
8 | 28:03.50 | 5:20.65 | 126275 | 150339
9 | 33:24.40 | 3:38.29 | 150340 | 166718
10 | 37:02.69 | 4:44.15 | 166719 | 188033
11 | 41:47.09 | 3:53.35 | 188034 | 205543


Range status and errors

Selected range

Filename F:\Planet Funk\2012 - The Great Shake +2\Planet Funk - The Great Shake +2.wav

Peak level 100.0 %
Extraction speed 6.9 X
Range quality 100.0 %
Test CRC 71D927FB
Copy CRC 71D927FB
Copy OK

No errors occurred


AccurateRip summary

Track 1 not present in database
Track 2 not present in database
Track 3 not present in database
Track 4 not present in database
Track 5 not present in database
Track 6 not present in database
Track 7 not present in database
Track 8 not present in database
Track 9 not present in database
Track 10 not present in database
Track 11 not present in database

None of the tracks are present in the AccurateRip database

End of status report

–– CUETools DB Plugin V2.1.4

[CTDB TOCID: h1AWqyEIZV2ekwU5cagjwDyJ8GQ-] disk not present in database
Submit result: h1AWqyEIZV2ekwU5cagjwDyJ8GQ- has been uploaded


==== Log checksum A285D8B9B58C8F6596D5F9B5E5FE07BA61D06966407B1057301CD1AE433CD170 ====

foobar2000 1.2.3 / Dynamic Range Meter 1.1.1
log date: 2013-02-24 21:32:41

––––––––––––––––––––––––––––––––––––––––
Analyzed: Planet Funk / The Great Shake +2
––––––––––––––––––––––––––––––––––––––––

DR Peak RMS Duration Track
––––––––––––––––––––––––––––––––––––––––
DR6 0.00 dB -7.73 dB 3:17 01-These Boots Are Made For Walkin'
DR7 0.00 dB -7.42 dB 3:26 02-All Your Love
DR6 0.00 dB -7.02 dB 4:01 03-Another Sunrise
DR6 0.00 dB -7.72 dB 4:17 04-The Great Shake
DR7 0.00 dB -7.54 dB 3:42 05-How Should I Know
DR6 0.00 dB -7.50 dB 5:10 06-Just Another Try
DR6 0.00 dB -7.59 dB 4:10 07-Live It Up
DR6 0.00 dB -7.71 dB 5:21 08-Ora Il Mondo E Perfetto (con Giuliano Sangiorgi)
DR7 0.00 dB -8.06 dB 3:38 09-The Other Side
DR7 0.00 dB -7.28 dB 4:44 10-You Remain
DR6 0.00 dB -7.60 dB 3:53 11-Ora Il Mondo E Perfetto (Radio Edit) (con Giuliano Sangiorgi)
––––––––––––––––––––––––––––––––––––––––

Number of tracks: 11
Official DR value: DR6

Samplerate: 44100 Hz
Channels: 2
Bits per sample: 16
Bitrate: 1008 kbps
Codec: FLAC
================================================================================




All thanks to original releaser - bvstudio

More interesting music in My Blog