Subcategories

Plat du Jour - Plat du Jour (1977) {2016, Reissue}

Posted By: popsakov
Plat du Jour - Plat du Jour (1977) {2016, Reissue}

Plat du Jour - Plat du Jour (1977/2016)
EAC Rip | FLAC (Img) + Cue + Log ~ 205 Mb | MP3 CBR320 ~ 88 Mb
Scans (JPG, 600 dpi) ~ 30 Mb | RAR 5% Recovery
Jazz Rock, Avantgarde, Experimental, Progressive Rock, Psychedelic Rock | Paisley Press #PP 117

Very obscure and unknown, strictly short-lived and super rare to spot, but worth mentioning in the end, Plat du Jour mark a dot on the French eclectic Prog map, somewhere near Rouen apparently, during the year 1977. Their self-titled LP was released under the label Speedball, five compositions (or six, depending on how the first two-part epic is regarded) lasting around 35 minutes. The music can be placed either in jazz-rock, either in avant-prog, but with those two essences clustering and a bit of extra fuzzy psychedelism, cold bass Zeuhl and straight progressive rock being heard, it's wiser to take in account all the nuances.

The details about this project, the story behind it, or the musicians' profile are scarce. The main lineup consists of Vincent Denis (guitars & vocals), Rodolphe Moulin (bass), Oliver Pedron (percussion), Alain Potier (saxophone), Jacques Staub (keyboards, percussion), Francois Ovide(percussion) and Francois Maze (vocals) - the latter two noted as guests, each on one track only. On the SP "Totem/Zil-bra", printed by Speedball around that time as well, Phillipe Doray (likely the artist from PD Asociaux Associes?) is noted as composer. Plat du Jour is mentioned to be one of Ovide's early par-experimental, par-groovy projects (the radical SO & CO. and this laid-back one) - making it more surprising not only that he is a guest musician, but that he also plays drums instead of guitar -, while nothing relevant is known about the other artists. The ensemble's short session could be due to the fact that Ovide moved on to play with Albert MARCOEUR, WEIDORJE, GWENDAL and John GREAVES. There's an additional mention ballparking this band's style close to ETRON FOU LELOUBLAN.

Heavy on the mix, slightly experimental, snappy and groovy and of an uncommon prog taste, Plat Du Jour has its interesting to hear parts. Inside their consistent instrumental universe, rhythms and improvisations kick in, the guitar dominates most of the album, but the saxophone builds one great momentum as well. Tricky music at the beginning - fuzzy, windy, jazzy, mood-mixing afterwards. Vocally, there's both a hoarse, agitated, crazy and a looser taste. The back-cover of the vinyl includes the lyrics.

Rare if not unique, as a progressive classic collection item, this is first of all for the "catchy/wacko/fun/funky/avant/zeuhlish/jazz-rock"
~ progarchives.com

***************

Plat du Jour - Plat du Jour (1977) {2016, Reissue}

Track List:

01. 5 et 11 [06:38]
02. Autoroute [06:30]
03. Zilbra [04:54]
04. Totem [08:09]
05. L’Homme [04:18]
06. Rock ‘n’ Speed [05:53]

Personnel:

Vincent Denis - guitar, vocals
Rodolphe Moulin - bass, vocals
Alain Potier - saxophone, vocals
Jacques Staub - keyboards, percussion
Olivier Pedron - drums, percussion

And:
François Ovide - guitar (3)
François Maze - vocals (4)

Exact Audio Copy V1.1 from 23. June 2015

Отчёт EAC об извлечении, выполненном 10. апреля 2016, 0:18

PLAT DU JOUR / Plat du Jour

Дисковод: TSSTcorpCDDVDW SH-224DB Adapter: 1 ID: 1

Режим чтения : Достоверность
Использование точного потока : Да
Отключение кэша аудио : Да
Использование указателей C2 : Нет

Коррекция смещения при чтении : 6
Способность читать области Lead-in и Lead-out : Нет
Заполнение пропущенных сэмплов тишиной : Да
Удаление блоков с тишиной в начале и конце : Нет
При вычислениях CRC использовались нулевые сэмплы : Да
Интерфейс : Встроенный Win32-интерфейс для Win NT/2000

Выходной формат : Внутренние WAV-операции
Формат сэмплов : 44.100 Гц; 16 бит; стерео


TOC извлечённого CD

Трек | Старт | Длительность | Начальный сектор | Конечный сектор
––––––––––––––––––––––––––––––––––-
1 | 0:00.00 | 6:37.16 | 0 | 29790
2 | 6:37.16 | 6:29.62 | 29791 | 59027
3 | 13:07.03 | 4:53.26 | 59028 | 81028
4 | 18:00.29 | 8:08.25 | 81029 | 117653
5 | 26:08.54 | 4:17.33 | 117654 | 136961
6 | 30:26.12 | 5:52.46 | 136962 | 163407


Характеристики диапазона извлечения и сообщения об ошибках

Выбранный диапазон

Имя файла D:\TEMP\PLAT DU JOUR - 1977 - Plat du Jour [2016 Paisley Press rem. edition, PP 117].wav

Пиковый уровень 96.6 %
Скорость извлечения 2.7 X
Качество диапазона 100.0 %
CRC теста 120ABB01
CRC копии 120ABB01
Копирование… OK

Ошибок не произошло


AccurateRip: сводка

Трек 1 отсутствует в базе данных
Трек 2 отсутствует в базе данных
Трек 3 отсутствует в базе данных
Трек 4 отсутствует в базе данных
Трек 5 отсутствует в базе данных
Трек 6 отсутствует в базе данных

Ни одного трека нет в базе AccurateRip

Конец отчёта

==== Контрольная сумма отчёта 56B3D1EB06C91554A531F47CBA7AEE48597DF06492B26F4511B720F690ED42F0 ====

foobar2000 1.2.6 / Dynamic Range Meter 1.1.1
log date: 2016-04-10 08:30:55

––––––––––––––––––––––––––––––––––––––––
Analyzed: PLAT DU JOUR / Plat du Jour
––––––––––––––––––––––––––––––––––––––––

DR Peak RMS Duration Track
––––––––––––––––––––––––––––––––––––––––
DR10 -0.30 dB -13.40 dB 6:37 01-5 et 11
DR11 -0.30 dB -15.85 dB 6:30 02-Autoroute
DR10 -0.30 dB -12.00 dB 4:53 03-Zilbra
DR10 -0.30 dB -13.20 dB 8:08 04-Totem
DR11 -0.30 dB -14.47 dB 4:17 05-L’Homme
DR11 -0.30 dB -13.68 dB 5:53 06-Rock ‘n’ Speed
––––––––––––––––––––––––––––––––––––––––

Number of tracks: 6
Official DR value: DR11

Samplerate: 44100 Hz
Channels: 2
Bits per sample: 16
Bitrate: 753 kbps
Codec: FLAC
================================================================================

[CUETools log; Date: 10.04.2016 8:30:53; Version: 2.1.5]
[CTDB TOCID: U3yJR2LQ.NPx6R0FZJTi_YqHOJ8-] disk not present in database.
[AccurateRip ID: 0008f860-002f86b9-5a088206] disk not present in database.

Track Peak [ CRC32 ] [W/O NULL] [ LOG ]
– 96,6 [120ABB01] [8EB4A3D1] CRC32
01 96,6 [AA2818D4] [AC20C05E]
02 96,6 [0E8DD0BC] [42846E04]
03 96,6 [445F400F] [CA9EF8E1]
04 96,6 [48E0D8AF] [21C0BA80]
05 96,5 [CD1A0D5E] [53A7AA75]
06 96,6 [610C8076] [B4BA2F5D]

Plat du Jour - Plat du Jour (1977) {2016, Reissue}

Plat du Jour - Plat du Jour (1977) {2016, Reissue}

All thanks go to spAceLover

Visit my blog!

Download:
Nitroflare: FLAC | Scans | mp3
FileJoker: FLAC | Scans | mp3