Subcategories

Pleasure - Glide: The Essential Selection 1975-1982 [2CD] (2013)

Posted By: BlondStyle
Pleasure - Glide: The Essential Selection 1975-1982 [2CD] (2013)

Pleasure - Glide: The Essential Selection 1975-1982 [2CD] (2013)
R&B, Soul/Funk, Disco | EAC Rip | FLAC, Img+CUE+LOG+Scans (TIF) | 02:05:59 | 946,73 Mb
Label: Fantasy/RCA/Decision Records (USA) | Cat.# DEC-CD-1102 | Released: 2013-09-23
Pleasure - Glide: The Essential Selection 1975-1982 [2CD] (2013)

Only nine of Pleasure's songs hit Billboard's R&B chart - none higher than the #10 "Glide" but anyone who has spent some time with the studio albums knows the band released a large quantity of great material. The 24-track Glide: The Essential Selection compiles most of the group's highlights. Six of those charting A-sides, including "Ghettos of the Mind," "Joyous," and, of course, "Glide" made the cut. Often-sampled deep cuts like "Bouncy Lady," "Let's Dance," and the brilliant "Thoughts of Old Flames," along with another perfect sweet-soul ballad, "Tune In," are contained as well. Stylistically, the band fit somewhere between the Blackbyrds and Slave and should be as well-known as either group. This sharp package should help a little. In-depth liner notes come from A. Scott Galloway.
~Review by Andy Kellman

Pleasure - Glide: The Essential Selection 1975-1982 [2CD] (2013)

Pleasure - Glide: The Essential Selection 1975-1982 [2CD] (2013)

Pleasure - Glide: The Essential Selection 1975-1982 [2CD] (2013)




Release of this 2CD-Set: 2013, September, 23 [CDs Fantasy/RCA/Decision Records (USA), Cat.# DEC-CD-1102 / UPC: 819376110226]
This compilation ℗ 2013 Red River Entertainment LLC d/b/a Decision Records
© 2013 Concord Music Group Inc. and Sony Music Entertainment.
Printed/Made in the U.S.A.

Tracklist:

Disc 1

01. Dust Yourself Off (03:51)
02. Bouncy Lady (03:55)
03. Let's Dance (05:01)
04. I'm Mad (03:10)
05. Ghettos Of The Mind (05:07)
06. Joyous (06:28)
07. Let Me Be The One (05:09)
08. Only You (03:19)
09. Sassafrass Girl (06:51)
10. Tune In (06:36)
11. Foxy Lady (Disco Version) (06:26)
12. Farewell, Goodbye (04:57)
13. Glide (06:28)

Disc 2

01. Nothing To It (04:08)
02. Thoughts Of Old Flames (04:14)
03. Space Is The Place (04:12)
04. Now You Shoose Me (05:00)
05. Special Things (04:42)
06. Take A Chance (06:40)
07. Living Without You (04:35)
08. Give It Up (05:01)
09. Sending My Love (05:29)
10. It's So Hard (05:06)
11. Stone Love (03:06)
12. Glide (Special Disco Remix) (06:28)

Exact Audio Copy V1.3 from 2. September 2016

EAC extraction logfile from 10. April 2019, 5:30

Pleasure / Glide: The Essential Selection 1975-1982 [Disc 1]

Used drive : Memorex 52MAXX 3252AJ1 Adapter: 1 ID: 1

Read mode : Secure
Utilize accurate stream : Yes
Defeat audio cache : Yes
Make use of C2 pointers : Yes

Read offset correction : 6
Overread into Lead-In and Lead-Out : No
Fill up missing offset samples with silence : Yes
Delete leading and trailing silent blocks : No
Null samples used in CRC calculations : Yes
Used interface : Native Win32 interface for Win NT & 2000

Used output format : User Defined Encoder
Selected bitrate : 896 kBit/s
Quality : Low
Add ID3 tag : Yes
Command line compressor : C:\Program Files (x86)\Exact Audio Copy\FLAC\FLAC.EXE
Additional command line options : %ishigh%-V -p -l 12 -b 4096 -m -e -r 8%ishigh%%islow%-5%islow% –replay-gain -T "ARTIST=%artist%" -T "ALBUM=%albumtitle%" -T "TITLE=%title%" -T "DATE=%year%" -T "TRACKNUMBER=%tracknr%" -T "GENRE=%genre%" -T "ENSEMBLE=%albuminterpret%" -T "ALBUMARTIST=%albumartist%" -T "COMPOSER=%albumcomposer%" -T "DISCNUMBER=%cdnumber%" -T "TOTALDISCS=%totalcds%" -T "TOTALTRACKS=%numtracks%" -T "SOURCEMEDIA=CD" -T "COMMENT=%comment%" %hascover%-T "PICTURE=%coverfile%"%hascover% %source%


TOC of the extracted CD

Track | Start | Length | Start sector | End sector
––––––––––––––––––––––––––––-
1 | 0:00.00 | 3:51.04 | 0 | 17328
2 | 3:51.04 | 3:54.47 | 17329 | 34925
3 | 7:45.51 | 5:01.30 | 34926 | 57530
4 | 12:47.06 | 3:10.06 | 57531 | 71786
5 | 15:57.12 | 5:06.67 | 71787 | 94803
6 | 21:04.04 | 6:28.29 | 94804 | 123932
7 | 27:32.33 | 5:08.74 | 123933 | 147106
8 | 32:41.32 | 3:19.17 | 147107 | 162048
9 | 36:00.49 | 6:51.02 | 162049 | 192875
10 | 42:51.51 | 6:35.58 | 192876 | 222558
11 | 49:27.34 | 6:26.06 | 222559 | 251514
12 | 55:53.40 | 4:56.63 | 251515 | 273777
13 | 60:50.28 | 6:28.32 | 273778 | 302909


Range status and errors

Selected range

Filename C:\Users\M@ce\Music\Archives\Rips\Pleasure - Glide- The Essential Selection 1975-1982 [Disc 1].wav

Peak level 98.8 %
Extraction speed 3.6 X
Range quality 99.9 %
Test CRC 06C882D9
Copy CRC 06C882D9
Copy OK

No errors occurred


AccurateRip summary

Track 1 accurately ripped (confidence 1) [0E8952FB] (AR v2)
Track 2 accurately ripped (confidence 1) [5CD6EAB6] (AR v2)
Track 3 accurately ripped (confidence 1) [C46BA4C4] (AR v2)
Track 4 accurately ripped (confidence 1) [A6246152] (AR v2)
Track 5 accurately ripped (confidence 1) [6717F86A] (AR v2)
Track 6 accurately ripped (confidence 1) [B30B5DEA] (AR v2)
Track 7 accurately ripped (confidence 1) [AC340A87] (AR v2)
Track 8 accurately ripped (confidence 1) [3F9A07B0] (AR v2)
Track 9 accurately ripped (confidence 1) [883B3E83] (AR v2)
Track 10 accurately ripped (confidence 1) [43B65722] (AR v2)
Track 11 accurately ripped (confidence 1) [398D8FF9] (AR v2)
Track 12 accurately ripped (confidence 1) [36368BCE] (AR v2)
Track 13 accurately ripped (confidence 1) [71590E54] (AR v2)

All tracks accurately ripped

End of status report

–– CUETools DB Plugin V2.1.6

[CTDB TOCID: tAfaC4F9ZQfEiZIhdYxq59X2vKg-] found
Submit result: tAfaC4F9ZQfEiZIhdYxq59X2vKg- has been confirmed
Track | CTDB Status
1 | (9/9) Accurately ripped
2 | (9/9) Accurately ripped
3 | (9/9) Accurately ripped
4 | (9/9) Accurately ripped
5 | (9/9) Accurately ripped
6 | (8/9) Accurately ripped
7 | (9/9) Accurately ripped
8 | (9/9) Accurately ripped
9 | (9/9) Accurately ripped
10 | (9/9) Accurately ripped
11 | (9/9) Accurately ripped
12 | (9/9) Accurately ripped
13 | (8/9) Accurately ripped


==== Log checksum A94AADEE10259DA19B7E1EDA127397EE5BCCAC3C6C58961E3AAFA8D618D390E9 ====

––––––––––––––––––––––––––––––––––––––––
Analyzed: Pleasure / Glide: The Essential Selection 1975-1982 [Disc 1]
––––––––––––––––––––––––––––––––––––––––

DR Peak RMS Duration Track
––––––––––––––––––––––––––––––––––––––––
DR10 -0.30 dB -11.32 dB 3:51 01-Dust Yourself Off
DR11 -0.30 dB -12.98 dB 3:55 02-Bouncy Lady
DR11 -0.10 dB -12.51 dB 5:01 03-Let's Dance
DR10 -0.10 dB -11.53 dB 3:10 04-I'm Mad
DR9 -0.10 dB -10.76 dB 5:07 05-Ghettos of the Mind
DR10 -0.10 dB -11.60 dB 6:28 06-Joyous
DR10 -0.10 dB -11.60 dB 5:09 07-Let Me Be the One
DR9 -0.10 dB -10.44 dB 3:19 08-Only You
DR11 -0.10 dB -12.73 dB 6:51 09-Sassafrass Girl
DR9 -0.10 dB -11.98 dB 6:36 10-Tune In
DR10 -0.10 dB -11.14 dB 6:26 11-Foxy Lady [Disco Version]
DR9 -0.10 dB -11.41 dB 4:57 12-Farewell, Goodbye
DR12 -0.10 dB -13.04 dB 6:28 13-Glide
––––––––––––––––––––––––––––––––––––––––

Number of tracks: 13
Official DR value: DR10

Samplerate: 44100 Hz
Channels: 2
Bits per sample: 16
Bitrate: 946 kbps
Codec: FLAC
================================================================================

Exact Audio Copy V1.3 from 2. September 2016

EAC extraction logfile from 10. April 2019, 6:47

Pleasure / Glide: The Essential Selection 1975-1982 [Disc 2]

Used drive : Memorex 52MAXX 3252AJ1 Adapter: 1 ID: 1

Read mode : Secure
Utilize accurate stream : Yes
Defeat audio cache : Yes
Make use of C2 pointers : Yes

Read offset correction : 6
Overread into Lead-In and Lead-Out : No
Fill up missing offset samples with silence : Yes
Delete leading and trailing silent blocks : No
Null samples used in CRC calculations : Yes
Used interface : Native Win32 interface for Win NT & 2000

Used output format : User Defined Encoder
Selected bitrate : 896 kBit/s
Quality : Low
Add ID3 tag : Yes
Command line compressor : C:\Program Files (x86)\Exact Audio Copy\FLAC\FLAC.EXE
Additional command line options : %ishigh%-V -p -l 12 -b 4096 -m -e -r 8%ishigh%%islow%-5%islow% –replay-gain -T "ARTIST=%artist%" -T "ALBUM=%albumtitle%" -T "TITLE=%title%" -T "DATE=%year%" -T "TRACKNUMBER=%tracknr%" -T "GENRE=%genre%" -T "ENSEMBLE=%albuminterpret%" -T "ALBUMARTIST=%albumartist%" -T "COMPOSER=%albumcomposer%" -T "DISCNUMBER=%cdnumber%" -T "TOTALDISCS=%totalcds%" -T "TOTALTRACKS=%numtracks%" -T "SOURCEMEDIA=CD" -T "COMMENT=%comment%" %hascover%-T "PICTURE=%coverfile%"%hascover% %source%


TOC of the extracted CD

Track | Start | Length | Start sector | End sector
––––––––––––––––––––––––––––-
1 | 0:00.00 | 4:07.64 | 0 | 18588
2 | 4:07.64 | 4:13.49 | 18589 | 37612
3 | 8:21.38 | 4:12.25 | 37613 | 56537
4 | 12:33.63 | 5:00.19 | 56538 | 79056
5 | 17:34.07 | 4:41.69 | 79057 | 100200
6 | 22:16.01 | 6:39.73 | 100201 | 130198
7 | 28:55.74 | 4:35.29 | 130199 | 150852
8 | 33:31.28 | 5:01.23 | 150853 | 173450
9 | 38:32.51 | 5:28.44 | 173451 | 198094
10 | 44:01.20 | 5:05.38 | 198095 | 221007
11 | 49:06.58 | 3:05.39 | 221008 | 234921
12 | 52:12.22 | 6:28.31 | 234922 | 264052


Range status and errors

Selected range

Filename C:\Users\M@ce\Music\Archives\Rips\Pleasure - Glide- The Essential Selection 1975-1982 [Disc 2].wav

Peak level 100.0 %
Extraction speed 3.7 X
Range quality 100.0 %
Test CRC 4588D240
Copy CRC 4588D240
Copy OK

No errors occurred


AccurateRip summary

Track 1 accurately ripped (confidence 1) [C6B67B56] (AR v2)
Track 2 accurately ripped (confidence 1) [6D98BA5D] (AR v2)
Track 3 accurately ripped (confidence 1) [A18E9A3C] (AR v2)
Track 4 accurately ripped (confidence 1) [A3B9734C] (AR v2)
Track 5 accurately ripped (confidence 1) [AF9F5DB8] (AR v2)
Track 6 accurately ripped (confidence 1) [5D4BBF9A] (AR v2)
Track 7 accurately ripped (confidence 1) [E1B504A2] (AR v2)
Track 8 accurately ripped (confidence 1) [DC8F6A53] (AR v2)
Track 9 accurately ripped (confidence 1) [9C3C7774] (AR v2)
Track 10 accurately ripped (confidence 1) [C69CE43E] (AR v2)
Track 11 accurately ripped (confidence 1) [FE34CCB7] (AR v2)
Track 12 accurately ripped (confidence 1) [CF6FBD3F] (AR v2)

All tracks accurately ripped

End of status report

–– CUETools DB Plugin V2.1.6

[CTDB TOCID: HZIr4tjvDXrjfRdsQCerfsyRD3s-] found
Submit result: HZIr4tjvDXrjfRdsQCerfsyRD3s- has been confirmed
Track | CTDB Status
1 | (9/9) Accurately ripped
2 | (9/9) Accurately ripped
3 | (9/9) Accurately ripped
4 | (9/9) Accurately ripped
5 | (9/9) Accurately ripped
6 | (9/9) Accurately ripped
7 | (9/9) Accurately ripped
8 | (9/9) Accurately ripped
9 | (9/9) Accurately ripped
10 | (9/9) Accurately ripped
11 | (9/9) Accurately ripped
12 | (8/9) Accurately ripped


==== Log checksum 0369B15C846D8B23708C69BCC642A110B1CC6C9EF2C4F4E561DEF28F7BBF7229 ====

––––––––––––––––––––––––––––––––––––––––
Analyzed: Pleasure / Glide: The Essential Selection 1975-1982 [Disc 2]
––––––––––––––––––––––––––––––––––––––––

DR Peak RMS Duration Track
––––––––––––––––––––––––––––––––––––––––
DR12 -0.10 dB -13.05 dB 4:08 01-Nothing To It
DR14 -0.10 dB -15.65 dB 4:14 02-Thoughts Of Old Flames
DR11 -0.10 dB -12.50 dB 4:12 03-Space Is The Place
DR13 -0.10 dB -14.27 dB 5:00 04-Now You Shoose Me
DR11 -0.10 dB -12.48 dB 4:42 05-Special Things
DR10 -0.10 dB -11.69 dB 6:40 06-Take A Chance
DR13 0.00 dB -15.70 dB 4:35 07-Living Without You
DR12 -0.01 dB -13.95 dB 5:01 08-Give It Up
DR15 -0.01 dB -15.73 dB 5:29 09-Sending My Love
DR12 -0.01 dB -13.06 dB 5:06 10-It's So Hard
DR13 -0.01 dB -14.94 dB 3:06 11-Stone Love
DR12 0.00 dB -13.17 dB 6:28 12-Glide (Special Disco Remix)
––––––––––––––––––––––––––––––––––––––––

Number of tracks: 12
Official DR value: DR12

Samplerate: 44100 Hz
Channels: 2
Bits per sample: 16
Bitrate: 897 kbps
Codec: FLAC
================================================================================

Thanks to my friend, M@ce

♫~Welcome To My Blog~♫

password: BlondStyle