Subcategories

Popa Chubby - Old School: Popa Chubby & Friends Play Muddy, Willie And More (2003) Repost / New Rip

Posted By: popsakov
Popa Chubby - Old School: Popa Chubby & Friends Play Muddy, Willie And More (2003) Repost / New Rip

Popa Chubby - Old School: Popa Chubby & Friends Play Muddy, Willie And More (2003)
EAC Rip | FLAC (Img) + Cue + Log ~ 425 Mb | MP3 CBR320 ~ 141 Mb
Full Scans (JPG, 600 dpi) ~ 62 Mb | RAR 5% Recovery
Modern Electric Blues, Blues Rock | DixieFrog #DFGCD 8565

On this high-power album, the larger than life New York bluesman goes back to the roots of post-war Chicago Blues and plays famous tracks by Muddy Waters, Howlin Wolf, Willie Dixon, etc.He's joined by leading contemporary blues stars Bill Perry, Mason Casey, Matt Smith, Jean-Jacques Milteau, Paul Personne and Dimitri Archip from the Black Coffee Blues Band.On "Old School", Popa Chubby (who recently played some UK gigs) smokes TNT, drinks dynamite and shows he can put some speed on the classic tracks of his blues heroes.

***************

Popa Chubby - Old School: Popa Chubby & Friends Play Muddy, Willie And More (2003) Repost / New Rip

Track List:

01. Back Door Man [6:06]
02. The Same Thing [6:18]
03. I Can't Be Satisfied [3:14]
04. She's 19 Years Old [7:18]
05. I Can't Quit You Baby [7:03]
06. Got My Mojo Working [5:00]
07. I'm So Glad She's Mine [6:09]
08. Baby Come Home [5:28]
09. Low Down Ways [4:46]
10. Little Red Rooster [7:08]

Personnel:
Popa Chubby - Guitar, Dobro, Bass, Vocals
Nicholas D'Amato - Bass
Steve Holley - Drums
Mike Lattrell - Wurlitzer
Bill Perry - Guitar, Vocals
Dave Keyes - Piano
Dimitri Archip - Vocals
Matt Smith - Banjo, Dobro, Mandoline, Vocals
Galea - Vocals
Jean Jacques Milteau - Harp
Eddie Camiolo - Bass
Mason Casey - Harp

Exact Audio Copy V1.1 from 23. June 2015

EAC extraction logfile from 12. January 2018, 23:20

Popa Chubby / Old School

Used drive : Optiarc DVD RW AD-7283S Adapter: 1 ID: 0

Read mode : Secure
Utilize accurate stream : Yes
Defeat audio cache : Yes
Make use of C2 pointers : No

Read offset correction : 48
Overread into Lead-In and Lead-Out : No
Fill up missing offset samples with silence : Yes
Delete leading and trailing silent blocks : No
Null samples used in CRC calculations : Yes
Used interface : Native Win32 interface for Win NT & 2000

Used output format : User Defined Encoder
Selected bitrate : 128 kBit/s
Quality : High
Add ID3 tag : No
Command line compressor : C:\Program Files (x86)\Exact Audio Copy\Flac\flac.exe
Additional command line options : -V -8 -T "Genre=%genre%" -T "Artist=%artist%" -T "Title=%title%" -T "Album=%albumtitle%" -T "Date=%year%" -T "Tracknumber=%tracknr%" -T "Comment=%comment%" %source%


TOC of the extracted CD

Track | Start | Length | Start sector | End sector
––––––––––––––––––––––––––––-
1 | 0:00.00 | 6:05.74 | 0 | 27448
2 | 6:05.74 | 6:18.10 | 27449 | 55808
3 | 12:24.09 | 3:14.29 | 55809 | 70387
4 | 15:38.38 | 7:18.27 | 70388 | 103264
5 | 22:56.65 | 7:03.09 | 103265 | 134998
6 | 29:59.74 | 4:59.43 | 134999 | 157466
7 | 34:59.42 | 6:09.32 | 157467 | 185173
8 | 41:08.74 | 5:28.26 | 185174 | 209799
9 | 46:37.25 | 4:46.11 | 209800 | 231260
10 | 51:23.36 | 7:07.55 | 231261 | 263340


Range status and errors

Selected range

Filename F:\alexbras\2003 Popa Chubby - Old School - Popa Chubby And Friends Play Muddy, Willie And More\Popa Chubby - Old School.wav

Peak level 98.8 %
Extraction speed 4.0 X
Range quality 99.9 %
Test CRC F4031B22
Copy CRC F4031B22
Copy OK

No errors occurred


AccurateRip summary

Track 1 cannot be verified as accurate (confidence 13) [C3C55BA6], AccurateRip returned [502D08EC] (AR v2)
Track 2 cannot be verified as accurate (confidence 13) [1E4D28B9], AccurateRip returned [F7A38080] (AR v2)
Track 3 cannot be verified as accurate (confidence 13) [ABA66909], AccurateRip returned [A6C94E5E] (AR v2)
Track 4 cannot be verified as accurate (confidence 13) [6BA09C98], AccurateRip returned [E1C5042C] (AR v2)
Track 5 cannot be verified as accurate (confidence 13) [1659C77C], AccurateRip returned [75CD5EE8] (AR v2)
Track 6 cannot be verified as accurate (confidence 13) [7DF4C46A], AccurateRip returned [80AFFD97] (AR v2)
Track 7 cannot be verified as accurate (confidence 12) [AD3B1463], AccurateRip returned [5CC927A1] (AR v2)
Track 8 cannot be verified as accurate (confidence 13) [3F6E8134], AccurateRip returned [9BBB9117] (AR v2)
Track 9 cannot be verified as accurate (confidence 13) [D2C128B8], AccurateRip returned [E677DA49] (AR v2)
Track 10 cannot be verified as accurate (confidence 13) [4C22E496], AccurateRip returned [0C182185] (AR v2)

No tracks could be verified as accurate
You may have a different pressing from the one(s) in the database

End of status report

==== Log checksum B5B27766101A1CEBC48ED26664C088D6E42FFF01F698BC98D1300DD530177E5E ====

foobar2000 1.3.16 / Dynamic Range Meter 1.1.1
log date: 2018-01-30 01:24:07

––––––––––––––––––––––––––––––––––––––––
Analyzed: Popa Chubby / Old School
––––––––––––––––––––––––––––––––––––––––

DR Peak RMS Duration Track
––––––––––––––––––––––––––––––––––––––––
DR8 -0.57 dB -9.25 dB 6:06 01-Back Door Man
DR7 -0.10 dB -8.41 dB 6:18 02-The Same Thing
DR7 -0.10 dB -8.15 dB 3:14 03-I Can't Be Satisfied
DR8 -0.10 dB -9.81 dB 7:18 04-She's 19 Years Old
DR6 -0.61 dB -8.32 dB 7:03 05-I Can't Quit You Baby
DR7 -0.10 dB -7.71 dB 5:00 06-Got My Mojo Working
DR7 -0.10 dB -8.05 dB 6:09 07-I'm So Glad She's Mine
DR8 -0.10 dB -9.39 dB 5:28 08-Baby Come Home
DR8 -0.10 dB -9.26 dB 4:46 09-Low Down Ways
DR8 -0.10 dB -9.33 dB 7:08 10-Little Red Rooster
––––––––––––––––––––––––––––––––––––––––

Number of tracks: 10
Official DR value: DR7

Samplerate: 44100 Hz
Channels: 2
Bits per sample: 16
Bitrate: 967 kbps
Codec: FLAC
================================================================================

[CUETools log; Date: 30.01.2018 1:24:16; Version: 2.1.5]
[CTDB TOCID: 2bz.7aYdtmz_9xr2VVNbewK0864-] found.
Track | CTDB Status
1 | (19/19) Accurately ripped
2 | (19/19) Accurately ripped
3 | (19/19) Accurately ripped
4 | (19/19) Accurately ripped
5 | (18/19) Accurately ripped
6 | (19/19) Accurately ripped
7 | (19/19) Accurately ripped
8 | (19/19) Accurately ripped
9 | (19/19) Accurately ripped
10 | (19/19) Accurately ripped
[AccurateRip ID: 0015f4e9-00afa67b-890db70a] found.
Track [ CRC | V2 ] Status
01 [e6cc5dfc|c3c55ba6] (00+00/25) No match
02 [dc818091|1e4d28b9] (00+00/25) No match
03 [16e8f3f7|aba66909] (00+00/25) No match
04 [4a97e792|6ba09c98] (00+00/24) No match
05 [f4d3906a|1659c77c] (00+00/24) No match
06 [7235d340|7df4c46a] (00+00/24) No match
07 [db27ea74|ad3b1463] (00+00/24) No match
08 [6cb5ca99|3f6e8134] (00+00/25) No match
09 [2bd7185c|d2c128b8] (00+00/24) No match
10 [c1012d19|4c22e496] (00+00/23) No match
Offsetted by 36:
01 [846aaf75] (12/25) Accurately ripped
02 [c5b08f99] (12/25) Accurately ripped
03 [1a282ffc] (12/25) Accurately ripped
04 [d1dbcdcd] (11/24) Accurately ripped
05 [6822ea55] (11/24) Accurately ripped
06 [80afb362] (11/24) Accurately ripped
07 [5cc927a1] (12/24) Accurately ripped
08 [d7c4ecbf] (12/25) Accurately ripped
09 [4c4ac474] (11/24) Accurately ripped
10 [83548b4c] (10/23) Accurately ripped

Track Peak [ CRC32 ] [W/O NULL] [ LOG ]
– 98,8 [F4031B22] [618B0FB4] CRC32
01 93,6 [7C4731DE] [F88BFAA9]
02 98,8 [F249FE03] [4B456D33]
03 98,8 [6A77DD42] [A7D8906A]
04 98,8 [A627AE83] [A9261119]
05 93,2 [F918FAB5] [3FBC59F1]
06 98,8 [D4DB3865] [2B12DDA5]
07 98,8 [27750C92] [B2697A00]
08 98,8 [FD4C5E00] [D336B109]
09 98,8 [8DDD44A0] [3634B87F]
10 98,8 [D687A37E] [C8AC046F]

Popa Chubby - Old School: Popa Chubby & Friends Play Muddy, Willie And More (2003) Repost / New Rip

All thanks go to alex1248

>>> Popa Chubby in my Blog <<<

Download from icerbox.com: