Subcategories

Porcupine Tree - 4 Chords That Made a Million (2000)

Posted By: v3122
Porcupine Tree - 4 Chords That Made a Million (2000)

Porcupine Tree - 4 Chords That Made a Million (2000)
EAC | Flac(Image) + Cue + Log & MP3 CBR 320Kbps
Snapper Music, SMASCD111 | ~ 79 or 31 Mb | Scans Included
Progressive Rock

"Four Chords That Made a Million" is a single by British progressive rock band Porcupine Tree, released in April 2000, a month before the release of the album Lightbulb Sun, in order to promote it. It came in three formats: a regular CD, a limited-version CD (2000 copies) and a 7" vinyl (1000 copies)…

~ wiki
Porcupine Tree - 4 Chords That Made a Million (2000)


Porcupine Tree - 4 Chords That Made a Million (2000):

Porcupine Tree - 4 Chords That Made a Million (2000)

Tracklist:

01. 4 Chords That Made A Million (3:41)
02. Disappear (3:41)
03. In Formaldehyde (5:10)

Converted to Image (CUETools 2.1.4)

Exact Audio Copy V1.0 beta 3 from 29. August 2011

EAC extraction logfile from 22. July 2013, 14:14

Porcupine Tree / 4 Chords That Made a Million (CDEP)

Used drive : TSSTcorpCDDVDW SH-224BB Adapter: 1 ID: 0

Read mode : Secure
Utilize accurate stream : Yes
Defeat audio cache : Yes
Make use of C2 pointers : No

Read offset correction : 6
Overread into Lead-In and Lead-Out : No
Fill up missing offset samples with silence : Yes
Delete leading and trailing silent blocks : No
Null samples used in CRC calculations : Yes
Used interface : Installed external ASPI interface
Gap handling : Appended to previous track

Used output format : Internal WAV Routines
Sample format : 44.100 Hz; 16 Bit; Stereo


TOC of the extracted CD

Track | Start | Length | Start sector | End sector
––––––––––––––––––––––––––––-
1 | 0:00.00 | 3:40.70 | 0 | 16569
2 | 3:40.70 | 3:41.20 | 16570 | 33164
3 | 7:22.15 | 5:10.07 | 33165 | 56421


Track 1

Filename D:\Porcupine Tree\1999 - Four Chords That Made a Million (EP) (Snapper Music SMASCD111 UK)\01 - 4 Chords That Made A Million.wav

Pre-gap length 0:00:02.00

Peak level 100.0 %
Extraction speed 1.9 X
Track quality 100.0 %
Test CRC 472A91B0
Copy CRC 472A91B0
Accurately ripped (confidence 10) [48F442E2] (AR v1)
Copy OK

Track 2

Filename D:\Porcupine Tree\1999 - Four Chords That Made a Million (EP) (Snapper Music SMASCD111 UK)\02 - Disappear.wav

Peak level 100.0 %
Extraction speed 2.1 X
Track quality 100.0 %
Test CRC A95B417C
Copy CRC A95B417C
Accurately ripped (confidence 10) [D7F835E5] (AR v1)
Copy OK

Track 3

Filename D:\Porcupine Tree\1999 - Four Chords That Made a Million (EP) (Snapper Music SMASCD111 UK)\03 - In Formaldehyde.wav

Peak level 100.0 %
Extraction speed 2.1 X
Track quality 99.9 %
Test CRC F58AC9C4
Copy CRC F58AC9C4
Accurately ripped (confidence 10) [B3F9722B] (AR v1)
Copy OK


All tracks accurately ripped

No errors occurred

End of status report

==== Log checksum 9AD338DFF37BECB867D480911A2D643EF49E1A0BD6F5A99B4B1348DC34545628 ====

foobar2000 1.2.9 / Dynamic Range Meter 1.1.1
log date: 2016-08-05 00:12:35

––––––––––––––––––––––––––––––––––––––––
Analyzed: Porcupine Tree / 4 Chords That Made a Million (CDEP)
––––––––––––––––––––––––––––––––––––––––

DR Peak RMS Duration Track
––––––––––––––––––––––––––––––––––––––––
DR9 0.00 dB -10.85 dB 3:41 01-4 Chords That Made A Million
DR9 0.00 dB -13.39 dB 3:41 02-Disappear
DR9 0.00 dB -12.00 dB 5:10 03-In Formaldehyde
––––––––––––––––––––––––––––––––––––––––

Number of tracks: 3
Official DR value: DR9

Samplerate: 44100 Hz
Channels: 2
Bits per sample: 16
Bitrate: 847 kbps
Codec: FLAC

[CUETools log; Date: 05.08.2016 0:09:16; Version: 2.1.4]
[AccurateRip ID: 00019ead-000577b4-1402f003] found.
Track [ CRC | V2 ] Status
01 [48f442e2|c662e3fd] (11+07/18) Accurately ripped
02 [d7f835e5|8e253705] (11+07/18) Accurately ripped
03 [b3f9722b|1693ad0c] (11+07/18) Accurately ripped

Track Peak [ CRC32 ] [W/O NULL] [ LOG ]
– 99,9 [65C10ACE] [84A40EDF]
01 99,9 [472A91B0] [B24366C3] CRC32
02 99,9 [A95B417C] [BE26187D] CRC32
03 99,9 [F58AC9C4] [D472A9C3] CRC32

Porcupine Tree - 4 Chords That Made a Million (2000)

All thanks go to the original releaser

Porcupine Tree in my Blog

Download Porcupine Tree - 4 Chords That Made a Million (2000):
FileJoker: Flac | Mp3-320