Subcategories

Porcupine Tree - Nil Recurring (2007) Repost

Posted By: v3122
Porcupine Tree - Nil Recurring (2007) Repost

Porcupine Tree - Nil Recurring (2007)
EAC | Flac(Image) + Cue + Log & MP3 CBR 320Kbps
Transmission 5.1 | ~ 194 or 72 Mb | Scans Included
Progressive Rock

Nil Recurring (also Transmission 5.1) is an EP by British progressive rock band Porcupine Tree, released on 17 September 2007 through the band's online store. The standard version of the mini-album is composed of four tracks written during the Fear of a Blank Planet recording sessions and was completed over the summer of 2007. The third track on the EP - "Cheating The Polygraph" - was originally slated as the fifth track for Fear of a Blank Planet, but was later dropped from the final track list.

The EP's title, which stems from the opening instrumental track on the EP, was actually derived from an unreleased demo written during the Fear of a Blank Planet recording sessions, called "Always Recurring". Although the band never formally released the song, lyrical and melodic elements of the track were reused in the closing piece of the EP, "What Happens Now?".

Nil Recurring entered the UK Top 30 Independent Label Albums at #8 and remains #1 EP of 2007 on Rate Your Music…

~ wiki
Porcupine Tree - Nil Recurring (2007) Repost


Porcupine Tree - Nil Recurring (2007):

Porcupine Tree - Nil Recurring (2007) Repost

Tracklist:

01. Nil Recurring (6:08)
02. Normal (7:08)
03. Cheating The Polygraph (7:06)
04. What Happens Now? (8:24)

Converted to Image (CUETools 2.1.4)

Exact Audio Copy V0.99 prebeta 4 from 23. January 2008

EAC extraction logfile from 5. May 2009, 23:35

Porcupine Tree / Nil Recurring

Used drive : LITE-ON DVD SHD-16P1S Adapter: 5 ID: 1

Read mode : Secure
Utilize accurate stream : Yes
Defeat audio cache : Yes
Make use of C2 pointers : No

Read offset correction : 6
Overread into Lead-In and Lead-Out : No
Fill up missing offset samples with silence : Yes
Delete leading and trailing silent blocks : No
Null samples used in CRC calculations : Yes
Used interface : Native Win32 interface for Win NT & 2000
Gap handling : Appended to previous track

Used output format : User Defined Encoder
Selected bitrate : 768 kBit/s
Quality : High
Add ID3 tag : No
Command line compressor : C:\Program Files\Exact Audio Copy\FLAC\FLAC.EXE
Additional command line options : -V -8 -T "artist=%a" -T "title=%t" -T "album=%g" -T "date=%y" -T "tracknumber=%n" -T "genre=%m" %s


TOC of the extracted CD

Track | Start | Length | Start sector | End sector
––––––––––––––––––––––––––––-
1 | 0:00.00 | 6:08.13 | 0 | 27612
2 | 6:08.13 | 7:07.56 | 27613 | 59693
3 | 13:15.69 | 7:06.30 | 59694 | 91673
4 | 20:22.24 | 8:23.44 | 91674 | 129442


Track 1

Filename C:\EAC Rips\Porcupine Tree\Nil Recurring\01. Porcupine Tree - Nil Recurring.wav

Pre-gap length 0:00:02.00

Peak level 100.0 %
Track quality 100.0 %
Test CRC 7994C408
Copy CRC 7994C408
Accurately ripped (confidence 47) [30536E25]
Copy OK

Track 2

Filename C:\EAC Rips\Porcupine Tree\Nil Recurring\02. Porcupine Tree - Normal.wav

Peak level 100.0 %
Track quality 100.0 %
Test CRC B5A3F3A4
Copy CRC B5A3F3A4
Accurately ripped (confidence 48) [3780EEFC]
Copy OK

Track 3

Filename C:\EAC Rips\Porcupine Tree\Nil Recurring\03. Porcupine Tree - Cheating The Polygraph.wav

Peak level 100.0 %
Track quality 100.0 %
Test CRC 94C923AE
Copy CRC 94C923AE
Accurately ripped (confidence 48) [FBFBD591]
Copy OK

Track 4

Filename C:\EAC Rips\Porcupine Tree\Nil Recurring\04. Porcupine Tree - What Happens Now .wav

Peak level 100.0 %
Track quality 100.0 %
Test CRC D343F96E
Copy CRC D343F96E
Accurately ripped (confidence 47) [ABED9283]
Copy OK


All tracks accurately ripped

No errors occurred

End of status report

foobar2000 1.2.9 / Dynamic Range Meter 1.1.1
log date: 2016-08-25 16:21:30

––––––––––––––––––––––––––––––––––––––––
Analyzed: Porcupine Tree / Nil Recurring
––––––––––––––––––––––––––––––––––––––––

DR Peak RMS Duration Track
––––––––––––––––––––––––––––––––––––––––
DR9 0.00 dB -12.09 dB 6:08 01-Nil Recurring
DR8 0.00 dB -11.18 dB 7:08 02-Normal
DR9 0.00 dB -11.55 dB 7:06 03-Cheating The Polygraph
DR7 0.00 dB -10.53 dB 8:24 04-What Happens Now?
––––––––––––––––––––––––––––––––––––––––

Number of tracks: 4
Official DR value: DR8

Samplerate: 44100 Hz
Channels: 2
Bits per sample: 16
Bitrate: 899 kbps
Codec: FLAC

[CUETools log; Date: 25.08.2016 16:21:22; Version: 2.1.4]
[CTDB TOCID: OBwUTBK7OSeXRWmPDWjI_Jkey4o-] found.
Track | CTDB Status
1 | (216/217) Accurately ripped
2 | (216/217) Accurately ripped
3 | (216/217) Accurately ripped
4 | (215/217) Accurately ripped
[AccurateRip ID: 0004b4c8-00130bdc-2c06bd04] found.
Track [ CRC | V2 ] Status
01 [30536e25|27c5e2dd] (100+076/305) Accurately ripped
02 [3780eefc|474b034e] (102+077/308) Accurately ripped
03 [fbfbd591|71218b50] (101+077/306) Accurately ripped
04 [abed9283|4b59a74f] (099+076/299) Accurately ripped
Offsetted by -12:
01 [6170792f] (059/305) Accurately ripped
02 [b3406781] (059/308) Accurately ripped
03 [6ad9c968] (058/306) Accurately ripped
04 [d1165aa6] (057/299) Accurately ripped
Offsetted by -676:
01 [fab663eb] (002/305) Accurately ripped
02 [2cc9daeb] (002/308) Accurately ripped
03 [4dc7a2bb] (002/306) Accurately ripped
04 [0aab3ab1] (000/299) No match (V2 was not tested)
Offsetted by -6:
01 [e22a5d53] (000/305) No match (V2 was not tested)
02 [84eba745] (000/308) No match (V2 was not tested)
03 [119375b4] (000/306) No match (V2 was not tested)
04 [e2fff401] (000/299) No match (V2 was not tested)
Offsetted by 24:
01 [6750a4d4] (000/305) No match (V2 was not tested)
02 [a37f9098] (000/308) No match (V2 was not tested)
03 [6851a6af] (000/306) No match (V2 was not tested)
04 [59fd9b90] (000/299) No match (V2 was not tested)

Track Peak [ CRC32 ] [W/O NULL] [ LOG ]
– 100,0 [BAF7D774] [09F5C632]
01 100,0 [7994C408] [2253A4E8] CRC32
02 100,0 [B5A3F3A4] [FD8786F1] CRC32
03 100,0 [94C923AE] [CB4D8813] CRC32
04 100,0 [D343F96E] [ABBFE20A] CRC32

Porcupine Tree - Nil Recurring (2007) Repost

All thanks go to the original releaser

Porcupine Tree in my Blog

Download Porcupine Tree - Nil Recurring (2007):