Subcategories

Portrait - Discography [4CD] (2008-2017)

Posted By: Andi_Deris
Portrait - Discography [4CD] (2008-2017)

Portrait - Discography [4CD] (2008-2017)
EAC Rip | FLAC: Image+Cue+Log | 1.5 Gb | Scans
Holycaust Records/Metal Blade Records
Heavy Metal

Portrait is a metal band from the southern parts of Sweden, founded in 2006 by guitarist Christian Lindell and drummer Anders Persson. After playing together in different irrelevant extreme metal bands since they were about 12 years of age, and after in one of these constellations rehearsing a cover of the Running Wild classic “Black Demon”, the two came to the conclusion that what they really wanted to do was to play that same kind of timeless heavy metal, being the most elevated form of music there ever was.

Portrait - Discography [4CD] (2008-2017)




Portrait - Discography [4CD] (2008-2017)


2008 Portrait (Reissue 2009)
EAC Rip | FLAC: Image+Cue+Log | 340 Mb | Scans | Time: 45:38
Holycaust Records | S810-14


Track Listing

01. Hell (07:37)
02. A Ghastly Silence (05:19)
03. Village Of The Fallen Angel (05:41)
04. Consecration (04:26)
05. A Thousand Nightmares (04:53)
06. Bow Unto The Devil (04:11)
07. Beware The Demons (04:21)
08. The Adversary (09:11)

Exact Audio Copy V1.3 from 2. September 2016

EAC extraction logfile from 21. March 2017, 13:22

Portrait / Portrait

Used drive : ATAPI iHAS122 W Adapter: 2 ID: 0

Read mode : Secure
Utilize accurate stream : Yes
Defeat audio cache : Yes
Make use of C2 pointers : No

Read offset correction : 48
Overread into Lead-In and Lead-Out : No
Fill up missing offset samples with silence : Yes
Delete leading and trailing silent blocks : No
Null samples used in CRC calculations : Yes
Used interface : Installed external ASPI interface

Used output format : User Defined Encoder
Selected bitrate : 1024 kBit/s
Quality : High
Add ID3 tag : No
Command line compressor : C:\Program Files\FLAC\flac.exe
Additional command line options : -V -8 -T "Date=%year%" -T "Genre=%genre%" -T"COMMENT=Ripped by Ilijan - ilko" -8 -V %source%


TOC of the extracted CD

Track | Start | Length | Start sector | End sector
––––––––––––––––––––––––––––-
1 | 0:00.00 | 7:37.08 | 0 | 34282
2 | 7:37.08 | 5:19.18 | 34283 | 58225
3 | 12:56.26 | 5:41.06 | 58226 | 83806
4 | 18:37.32 | 4:25.58 | 83807 | 103739
5 | 23:03.15 | 4:52.58 | 103740 | 125697
6 | 27:55.73 | 4:10.58 | 125698 | 144505
7 | 32:06.56 | 4:20.46 | 144506 | 164051
8 | 36:27.27 | 9:11.06 | 164052 | 205382


Range status and errors

Selected range

Filename D:\ilko\Portrait - Portrait.wav

Peak level 60.7 %
Extraction speed 2.9 X
Range quality 100.0 %
Test CRC 0E8C8326
Copy CRC 0E8C8326
Copy OK

No errors occurred


AccurateRip summary

Track 1 accurately ripped (confidence 5) [ED16BB60] (AR v2)
Track 2 accurately ripped (confidence 5) [A95D15B0] (AR v2)
Track 3 accurately ripped (confidence 5) [92182412] (AR v2)
Track 4 accurately ripped (confidence 5) [AE6546F8] (AR v2)
Track 5 accurately ripped (confidence 5) [0E4761E4] (AR v2)
Track 6 accurately ripped (confidence 5) [60EF66BA] (AR v2)
Track 7 accurately ripped (confidence 5) [B4A7252A] (AR v2)
Track 8 accurately ripped (confidence 3) [D544C62C] (AR v2)

All tracks accurately ripped

End of status report

–– CUETools DB Plugin V2.1.6

[CTDB TOCID: uQmnvEAqi.R7kCp445VK_xp9upM-] found
Submit result: uQmnvEAqi.R7kCp445VK_xp9upM- has been confirmed
Track | CTDB Status
1 | (6/6) Accurately ripped
2 | (6/6) Accurately ripped
3 | (6/6) Accurately ripped
4 | (6/6) Accurately ripped
5 | (6/6) Accurately ripped
6 | (6/6) Accurately ripped
7 | (6/6) Accurately ripped
8 | (6/6) Accurately ripped


==== Log checksum 38BF2D36D16C9B4D56938A8550B6DB9AB89440976E27EF74DECDE835BFDD3A70 ====


Portrait - Discography [4CD] (2008-2017)


2011 Crimen Laesae Majestatis Divinae
EAC Rip | FLAC: Image+Cue+Log | 423 Mb | Scans | 21 Mb | Time: 53:42
Metal Blade Records | 3984-15002-2


Track Listing

01. Beast of Fire (07:50)
02. Infinite Descension (06:46)
03. The Wilderness Beyond (02:25)
04. Bloodbath (06:33)
05. Darkness Forever (08:11)
06. The Nightcomers (05:38)
07. The Passion (06:46)
08. Der Todesking (09:34)

Exact Audio Copy V1.3 from 2. September 2016

EAC extraction logfile from 21. March 2017, 13:53

Portrait / Crimen Laesae Majestatis Divinae

Used drive : ATAPI iHAS122 W Adapter: 2 ID: 0

Read mode : Secure
Utilize accurate stream : Yes
Defeat audio cache : Yes
Make use of C2 pointers : No

Read offset correction : 48
Overread into Lead-In and Lead-Out : No
Fill up missing offset samples with silence : Yes
Delete leading and trailing silent blocks : No
Null samples used in CRC calculations : Yes
Used interface : Installed external ASPI interface

Used output format : User Defined Encoder
Selected bitrate : 1024 kBit/s
Quality : High
Add ID3 tag : No
Command line compressor : C:\Program Files\FLAC\flac.exe
Additional command line options : -V -8 -T "Date=%year%" -T "Genre=%genre%" -T"COMMENT=Ripped by Ilijan - ilko" -8 -V %source%


TOC of the extracted CD

Track | Start | Length | Start sector | End sector
––––––––––––––––––––––––––––-
1 | 0:00.00 | 7:50.01 | 0 | 35250
2 | 7:50.01 | 6:46.31 | 35251 | 65731
3 | 14:36.32 | 2:24.40 | 65732 | 76571
4 | 17:00.72 | 6:33.32 | 76572 | 106078
5 | 23:34.29 | 8:10.55 | 106079 | 142883
6 | 31:45.09 | 5:37.46 | 142884 | 168204
7 | 37:22.55 | 6:45.69 | 168205 | 198648
8 | 44:08.49 | 9:33.46 | 198649 | 241669


Range status and errors

Selected range

Filename D:\ilko\Portrait - Crimen Laesae Majestatis Divinae.wav

Peak level 100.0 %
Extraction speed 3.9 X
Range quality 100.0 %
Test CRC C4FB29F5
Copy CRC C4FB29F5
Copy OK

No errors occurred


AccurateRip summary

Track 1 accurately ripped (confidence 12) [53E334C0] (AR v2)
Track 2 accurately ripped (confidence 12) [37021ADF] (AR v2)
Track 3 accurately ripped (confidence 12) [3FCE5072] (AR v2)
Track 4 accurately ripped (confidence 12) [B8D528E2] (AR v2)
Track 5 accurately ripped (confidence 12) [B5C78825] (AR v2)
Track 6 accurately ripped (confidence 12) [84252493] (AR v2)
Track 7 accurately ripped (confidence 12) [01F6C9AA] (AR v2)
Track 8 accurately ripped (confidence 12) [F94699B1] (AR v2)

All tracks accurately ripped

End of status report

–– CUETools DB Plugin V2.1.6

[CTDB TOCID: Pl.9I1HcJjWvrD1zhl0iAVBjxpY-] found
Submit result: Pl.9I1HcJjWvrD1zhl0iAVBjxpY- has been confirmed
Track | CTDB Status
1 | (13/13) Accurately ripped
2 | (13/13) Accurately ripped
3 | (13/13) Accurately ripped
4 | (13/13) Accurately ripped
5 | (13/13) Accurately ripped
6 | (13/13) Accurately ripped
7 | (13/13) Accurately ripped
8 | (13/13) Accurately ripped


==== Log checksum CB9FD6D58B0FD0EB866D86E0253F6919798F25DE053CCA058F9A3EF4DD474061 ====


Portrait - Discography [4CD] (2008-2017)


2014 Crossroads (Digipak)
EAC Rip | FLAC: Image+Cue+Log | 336 Mb | Scans | 28 Mb | Time: 42:52
Metal Blade Records | 3984-15320-2


Track Listing

01. Liberation (01:44)
02. At The Ghost Gate (06:52)
03. We Were Not Alone (05:01)
04. In Time (04:59)
05. Black Easter (05:38)
06. Ageless Rites (04:57)
07. Our Roads Must Never Cross (04:36)
08. Lily (09:05)

Exact Audio Copy V1.3 from 2. September 2016

EAC extraction logfile from 21. March 2017, 14:20

Portrait / Crossroads

Used drive : ATAPI iHAS122 W Adapter: 2 ID: 0

Read mode : Secure
Utilize accurate stream : Yes
Defeat audio cache : Yes
Make use of C2 pointers : No

Read offset correction : 48
Overread into Lead-In and Lead-Out : No
Fill up missing offset samples with silence : Yes
Delete leading and trailing silent blocks : No
Null samples used in CRC calculations : Yes
Used interface : Installed external ASPI interface

Used output format : User Defined Encoder
Selected bitrate : 1024 kBit/s
Quality : High
Add ID3 tag : No
Command line compressor : C:\Program Files\FLAC\flac.exe
Additional command line options : -V -8 -T "Date=%year%" -T "Genre=%genre%" -T"COMMENT=Ripped by Ilijan - ilko" -8 -V %source%


TOC of the extracted CD

Track | Start | Length | Start sector | End sector
––––––––––––––––––––––––––––-
1 | 0:00.00 | 1:43.49 | 0 | 7773
2 | 1:43.49 | 6:52.34 | 7774 | 38707
3 | 8:36.08 | 5:01.27 | 38708 | 61309
4 | 13:37.35 | 4:58.74 | 61310 | 83733
5 | 18:36.34 | 5:37.70 | 83734 | 109078
6 | 24:14.29 | 4:56.63 | 109079 | 131341
7 | 29:11.17 | 4:35.69 | 131342 | 152035
8 | 33:47.11 | 9:04.61 | 152036 | 192896


Range status and errors

Selected range

Filename D:\ilko\Portrait - Crossroads.wav

Peak level 95.7 %
Extraction speed 3.7 X
Range quality 100.0 %
Test CRC 93B85191
Copy CRC 93B85191
Copy OK

No errors occurred


AccurateRip summary

Track 1 accurately ripped (confidence 8) [DEE032A7] (AR v2)
Track 2 accurately ripped (confidence 8) [F20E91D0] (AR v2)
Track 3 accurately ripped (confidence 8) [2F33512C] (AR v2)
Track 4 accurately ripped (confidence 8) [592828AE] (AR v2)
Track 5 accurately ripped (confidence 8) [E3C6DEB9] (AR v2)
Track 6 accurately ripped (confidence 8) [499D7F83] (AR v2)
Track 7 accurately ripped (confidence 8) [287835A3] (AR v2)
Track 8 accurately ripped (confidence 8) [C4C5BFF9] (AR v2)

All tracks accurately ripped

End of status report

–– CUETools DB Plugin V2.1.6

[CTDB TOCID: N30orNEHyhSQRM.udgOBBnCZDl8-] found
Submit result: already submitted
Track | CTDB Status
1 | (20/20) Accurately ripped
2 | (20/20) Accurately ripped
3 | (20/20) Accurately ripped
4 | (20/20) Accurately ripped
5 | (20/20) Accurately ripped
6 | (20/20) Accurately ripped
7 | (20/20) Accurately ripped
8 | (20/20) Accurately ripped


==== Log checksum 5643A39D6FED966842CD5A74B291E8F18BB66BC9E89162BECC55AA7901EA215D ====


Portrait - Discography [4CD] (2008-2017)


2017 Burn The World (Limited Ed., Digipak)
EAC Rip | FLAC: Image+Cue+Log | 383 Mb | Scans | 27 Mb | Time: 50:13
Metal Blade Records | 3984-15521-2


Track Listing

01. Saturn Return (Intro) (00:54)
02. Burn The World (06:15)
03. Likfassna (05:58)
04. Flaming Blood (05:15)
05. Mine To Reap (05:20)
06. Martyrs (07:46)
07. Further She Rode (01:53)
08. The Sower's Cross (Bonus Track) (03:30)
09. To Die For (04:32)
10. Pure Of Heart (08:49)

Exact Audio Copy V1.3 from 2. September 2016

EAC extraction logfile from 18. September 2017, 19:31

Portrait / Burn The World

Used drive : ATAPI iHAS122 W Adapter: 2 ID: 0

Read mode : Secure
Utilize accurate stream : Yes
Defeat audio cache : Yes
Make use of C2 pointers : No

Read offset correction : 48
Overread into Lead-In and Lead-Out : No
Fill up missing offset samples with silence : Yes
Delete leading and trailing silent blocks : No
Null samples used in CRC calculations : Yes
Used interface : Installed external ASPI interface

Used output format : User Defined Encoder
Selected bitrate : 1024 kBit/s
Quality : High
Add ID3 tag : No
Command line compressor : C:\Program Files\FLAC\flac.exe
Additional command line options : -V -8 -T "Date=%year%" -T "Genre=%genre%" -T"COMMENT=Ripped by Ilijan - ilko" -8 -V %source%


TOC of the extracted CD

Track | Start | Length | Start sector | End sector
––––––––––––––––––––––––––––-
1 | 0:00.00 | 0:54.10 | 0 | 4059
2 | 0:54.10 | 6:14.51 | 4060 | 32160
3 | 7:08.61 | 5:58.30 | 32161 | 59040
4 | 13:07.16 | 5:14.41 | 59041 | 82631
5 | 18:21.57 | 5:20.26 | 82632 | 106657
6 | 23:42.08 | 7:45.53 | 106658 | 141585
7 | 31:27.61 | 1:52.48 | 141586 | 150033
8 | 33:20.34 | 3:30.23 | 150034 | 165806
9 | 36:50.57 | 4:32.34 | 165807 | 186240
10 | 41:23.16 | 8:49.23 | 186241 | 225938


Range status and errors

Selected range

Filename D:\ilko\Portrait - Burn The World.wav

Peak level 93.7 %
Extraction speed 3.8 X
Range quality 100.0 %
Test CRC 08E73676
Copy CRC 08E73676
Copy OK

No errors occurred


AccurateRip summary

Track 1 not present in database
Track 2 not present in database
Track 3 not present in database
Track 4 not present in database
Track 5 not present in database
Track 6 not present in database
Track 7 not present in database
Track 8 not present in database
Track 9 not present in database
Track 10 not present in database

None of the tracks are present in the AccurateRip database

End of status report

–– CUETools DB Plugin V2.1.6

[CTDB TOCID: z3U5ktYtb3g1EdsSIuCZdkIOz5Y-] found
Submit result: z3U5ktYtb3g1EdsSIuCZdkIOz5Y- has been confirmed
Track | CTDB Status
1 | (12/12) Accurately ripped
2 | (12/12) Accurately ripped
3 | (12/12) Accurately ripped
4 | (12/12) Accurately ripped
5 | (12/12) Accurately ripped
6 | (12/12) Accurately ripped
7 | (12/12) Accurately ripped
8 | (12/12) Accurately ripped
9 | (12/12) Accurately ripped
10 | (12/12) Accurately ripped


==== Log checksum C63C514C027335BF90C0779288A10B8088B612F60BBB49F4AC18CEC2DEFAAF19 ====


The Band

• Per Lengstedt: Vocals
• Christian Lindell: Guitars
• Robin Holmberg: Guitars
• Fredrik Petersson: Bass
• Anders Persson: Drums

Portrait - Discography [4CD] (2008-2017)


BIO

The relentless, Swedish heavy metal monster known as Portrait was born in the year 2006 with the intention to exterminate the entire world.

After the demo tape Welcome to My Funeral took the underground by storm and the release of an equally successful 7" EP Into the Nothingness (New Iron Age Records, 2007), Portrait closed a one-album deal with German underground label Iron Kodex Records, who licensed the vinyl edition of the self-titled album to High-Roller Records. Two years later, the self-titled debut album sold approximately 5000 copies, making it a high selling release for the label who has also released albums from cult bands such as Manilla Road, Metal Church, Darkness, and Trouble. The self-titled album received rave reviews in magazines like Terrorizer (8.5/10), Rock Hard (8/10) and Sweden Rock Magazine (8/10), as well as in the underground press.

After the release of the self-titled album, the decision was made to no longer continue with the vocalist. Vocalist Per Lengstedt (formerly Karlsson) stepped into the picture as he shares the same hardworking attitude as Portrait and his musical and vocal abilities are on par with the rest of the group. Stronger than ever before, an 11-date European tour and additional festival appearances (including stops at Sweden Rock Festival, Hole in the Sky, Headbangers Open Air, Up the Hammers and Hell's Pleasure) followed the joining of Per Lengstedt, as Portrait set out in support of the group's self-titled release.

In the autumn of 2009, the writing process for the follow-up to the debut full-length album had started. Three songs were recorded in Berno Studio (Malmo, Sweden) in December 2009 - two of which were released on a 7" EP titled The Murder of All Things Righteous, through High Roller Records in March 2010. After joining the Metal Blade roster in the summer of 2010, Portrait finished the material for the band's second full-length album, Crimen Laesae Majestatis Divinae, and entered the studio in November 2010.

The album was released in May 2011 and received great reviews in the press. In Rock Hard Magazine's charts, for example, it was only topped by the new Journey album (at the time)! Crimen Laesae Majestatis Divinae was followed up by festival shows at Bang Your Head, Headbangers Open Air, Rock Hard Festival and Finland's Hammer Open Air. The band also supported Evile on a three week tour throughout Europe.

After some line-up changes in 2012, the band began to focus on their third album, entitled Crossroads. The writing and recording process took about a year, and again Tore Stjerna of Necromorbus Studio handled the production together with the band. The album was released in April 2014, received great reviews again and was followed by festival shows and tours in Europe and the UK. The band also released the track "We Were Not Alone" as a CD single that came out together with Sweden Rock Magazine, which also included a cover version of the unreleased Judas Priest song "Mother Sun".

In December 2014, yet another release saw the light of day: this one being the split EP Under Command (Metal Blade Records), together with Swedish metal band Ram. More live shows followed until the autumn of 2015 when focus was switched towards a new album, entitled Burn the World. This fourth full-length Portrait album will be released on August 25th, 2017 through Metal Blade Records, and features guest appearances by Set Teitan (Dissection/Watain) and Kevin Bower (Hell).

"'Burn the World' is our fiercest one to date, holding all aspects of Portrait within it, yet in an even more dynamic, empowered and elevated form than its predecessors," the band explains. "Expect nothing else than sheer heavy metal rage dedicated to all forces that seek to end this world through their fires of adversity."


Many thanks to the original uploader: Ilijan