Subcategories

Powerman 5000 - New Wave (2017)

Posted By: popsakov
Powerman 5000 - New Wave (2017)

Powerman 5000 - New Wave (2017)
EAC Rip | FLAC (Img) + Cue + Log ~ 231 Mb | Full Scans (PNG, 400 dpi) ~ 164 Mb | RAR 5% Recovery
Industrial Metal, Electronic Rock | Pavement Music #PVMT 6074

Powerman 5000 is an American rock band formed in 1991. The group has released eight albums, gaining its highest level of commercial success with 1999's Tonight the Stars Revolt!, which reached number 29 on the Billboard 200 while spawning the singles "When Worlds Collide" and "Nobody's Real". The band's latest release, New Wave, came out in 2017 on the Pavement Entertainment label, and the group is touring in support of the album. Frontman Spider One is the younger brother of fellow metal musician Rob Zombie.
~ Wiki
Powerman 5000 - New Wave (2017)


***************

Powerman 5000 - New Wave (2017)

Track List:

01. Footsteps And Voices [3:21]
02. Hostage [2:44]
03. Sid Vicious In A Dress [3:39]
04. David Fucking Bowie [3:13]
05. Cult Leader [3:18]
06. No White Flags [4:20]
07. Thank God [1:11]
08. Die On Your Feet [2:31]
09. Get A Life [2:51]
10. Run For Your Life [3:05]

Personnel:
Spider One - Vocals
Ryan Hernandez - Guitars
Ty Oliver - Guitars
Murv Douglas - Bass
DJ Rattan - Drums

Additional Musicians:
Greg Johnson - Additional Guitars
Kevin Garcia - Additional Drums

Exact Audio Copy V1.0 beta 3 from 29. August 2011

EAC extraction logfile from 2. November 2017, 0:23

Powerman 5000 / New Wave

Used drive : PIONEER BD-RW BDR-TD03 Adapter: 0 ID: 1

Read mode : Secure
Utilize accurate stream : Yes
Defeat audio cache : Yes
Make use of C2 pointers : No

Read offset correction : 667
Overread into Lead-In and Lead-Out : No
Fill up missing offset samples with silence : Yes
Delete leading and trailing silent blocks : No
Null samples used in CRC calculations : Yes
Used interface : Native Win32 interface for Win NT & 2000

Used output format : User Defined Encoder
Selected bitrate : 768 kBit/s
Quality : High
Add ID3 tag : No
Command line compressor : C:\Program Files (x86)\Exact Audio Copy\FLAC\FLAC.EXE
Additional command line options : -6 -V -T "ARTIST=%artist%" -T "TITLE=%title%" -T "ALBUM=%albumtitle%" -T "DATE=%year%" -T "TRACKNUMBER=%tracknr%" -T "GENRE=%genre%" -T "COMMENT=%comment%" -T "BAND=%albuminterpret%" -T "ALBUMARTIST=%albuminterpret%" -T "COMPOSER=%composer%" %haslyrics%–tag-from-file=LYRICS="%lyricsfile%"%haslyrics% -T "DISCNUMBER=%cdnumber%" -T "TOTALDISCS=%totalcds%" -T "TOTALTRACKS=%numtracks%" %hascover%–picture="%coverfile%"%hascover% %source% -o %dest%


TOC of the extracted CD

Track | Start | Length | Start sector | End sector
––––––––––––––––––––––––––––-
1 | 0:00.00 | 3:20.65 | 0 | 15064
2 | 3:20.65 | 2:43.41 | 15065 | 27330
3 | 6:04.31 | 3:39.10 | 27331 | 43765
4 | 9:43.41 | 3:12.66 | 43766 | 58231
5 | 12:56.32 | 3:17.47 | 58232 | 73053
6 | 16:14.04 | 4:20.11 | 73054 | 92564
7 | 20:34.15 | 1:10.61 | 92565 | 97875
8 | 21:45.01 | 2:31.20 | 97876 | 109220
9 | 24:16.21 | 2:50.59 | 109221 | 122029
10 | 27:07.05 | 3:04.60 | 122030 | 135889


Range status and errors

Selected range

Filename C:\Users\Deris\Desktop\500017\Powerman 5000 - New Wave.wav

Peak level 98.8 %
Extraction speed 4.2 X
Range quality 100.0 %
Test CRC 20067443
Copy CRC 20067443
Copy OK

No errors occurred


AccurateRip summary

Track 1 not present in database
Track 2 not present in database
Track 3 not present in database
Track 4 not present in database
Track 5 not present in database
Track 6 not present in database
Track 7 not present in database
Track 8 not present in database
Track 9 not present in database
Track 10 not present in database

None of the tracks are present in the AccurateRip database

End of status report

–– CUETools DB Plugin V2.1.3

[CTDB TOCID: O3gWyOV3FbVx6ALV1w5DPpg7rHY-] found, Submit result: O3gWyOV3FbVx6ALV1w5DPpg7rHY- has been confirmed
[586a1e07] (10/10) Accurately ripped


==== Log checksum 49EA35164CC84B266C9B9D1903FA3646F7A8C2EA089511B6C2C8B899B9F848B3 ====

foobar2000 1.3.16 / Dynamic Range Meter 1.1.1
log date: 2017-11-09 00:35:29

––––––––––––––––––––––––––––––––––––––––
Analyzed: Powerman 5000 / New Wave
––––––––––––––––––––––––––––––––––––––––

DR Peak RMS Duration Track
––––––––––––––––––––––––––––––––––––––––
DR6 -0.10 dB -7.03 dB 3:21 01-Footsteps And Voices
DR6 -0.10 dB -6.80 dB 2:44 02-Hostage
DR5 -0.10 dB -6.35 dB 3:39 03-Sid Vicious In A Dress
DR6 -0.10 dB -7.50 dB 3:13 04-David Fucking Bowie
DR6 -0.10 dB -7.11 dB 3:18 05-Cult Leader
DR9 -0.16 dB -12.18 dB 4:20 06-No White Flags
DR6 -0.10 dB -7.23 dB 1:11 07-Thank God
DR6 -0.10 dB -6.90 dB 2:31 08-Die On Your Feet
DR6 -0.10 dB -7.17 dB 2:51 09-Get A Life
DR6 -0.10 dB -9.14 dB 3:05 10-Run For Your Life
––––––––––––––––––––––––––––––––––––––––

Number of tracks: 10
Official DR value: DR6

Samplerate: 44100 Hz
Channels: 2
Bits per sample: 16
Bitrate: 1020 kbps
Codec: FLAC
================================================================================

[CUETools log; Date: 09.11.2017 0:35:31; Version: 2.1.5]
[CTDB TOCID: O3gWyOV3FbVx6ALV1w5DPpg7rHY-] found.
Track | CTDB Status
1 | (11/11) Accurately ripped
2 | (11/11) Accurately ripped
3 | (11/11) Accurately ripped
4 | (11/11) Accurately ripped
5 | (11/11) Accurately ripped
6 | (11/11) Accurately ripped
7 | (11/11) Accurately ripped
8 | (11/11) Accurately ripped
9 | (11/11) Accurately ripped
10 | (11/11) Accurately ripped
[AccurateRip ID: 000bd376-005dc6b2-8e07130a] disk not present in database.

Track Peak [ CRC32 ] [W/O NULL] [ LOG ]
– 98,8 [20067443] [ED4C9B59] CRC32
01 98,8 [E896BC47] [343487B1]
02 98,8 [69227ED0] [41D3024B]
03 98,8 [BE1C9830] [982B7D08]
04 98,8 [D07C60F6] [3E46F108]
05 98,8 [5181C9E9] [10B04354]
06 98,2 [7291F89C] [AEF575EC]
07 98,8 [24DF425D] [A28EB2BF]
08 98,8 [261C247B] [F6033004]
09 98,8 [48323A27] [474011EC]
10 98,8 [F4FC82E8] [897243D7]

Powerman 5000 - New Wave (2017)

All thanks go to Boris1

>>> My Blog <<<

Download from icerbox.com: