Subcategories

Praying Mantis - Captured Alive In Tokyo City (1996) [Japanese Ed.] 2CD

Posted By: Andi_Deris
Praying Mantis - Captured Alive In Tokyo City (1996) [Japanese Ed.] 2CD

Praying Mantis - Captured Alive In Tokyo City (1996) [Japanese Ed.] 2CD
EAC Rip | FLAC: Image+Cue+Log | 833 Mb | MP3 CBR 320 kbps | 277 Mb | Scans | Time: 01:55:03
Pony Canyon Inc. | PCCY-00902
Hard Rock, Heavy Metal, NWOBHM

Live At Club Citta Kawasaki, Japan On 11 & 12 Nov 1995. Superb live album with Barden (SILVER, STATETROOPER and MSG) ably providing the vocals on classics old and new. Limited Edition - 2CD set.

Praying Mantis - Captured Alive In Tokyo City (1996) [Japanese Ed.] 2CD




Praying Mantis - Captured Alive In Tokyo City (1996) [Japanese Ed.] 2CD


DISC 1
01:02:06

01. Victory (07:53)
02. A Cry For The New World (07:01)
03. Can't See The Angels (05:43)
04. Bring On The Night (04:55)
05. Only The Children Cry (05:25)
06. To The Power Of Ten (03:57)
07. The Horn (02:59)
08. Dream On (06:11)
09. Welcome To My Hollywood (06:39)
10. Turn The Tables (05:18)
11. Children Of The Earth (06:05)

DISC 2
52:59

01. Angry Man (04:03)
02. Don't Be Afraid Of The Dark (06:21)
03. Cheated (03:46)
04. Letting Go (08:17)
05. Lovers To The Grave (05:56)
06. Flirting With Suicide (06:23)
07. Rise Up Again (05:29)
08. Armed And Ready (06:12)
09. Captured City (06:31)

Produced by Norman Goodman and Tino Troy

The Band

• Gary Barden - Lead Vox
• Clive Burr - Drums
• Dennis Stratton - Guitar, Vox
• Chris Troy - Bass, Vox
• Tino Troy - Guitar, Vox



Exact Audio Copy V1.0 beta 1 from 15. November 2010

EAC extraction logfile from 22. May 2012, 16:26

Praying Mantis / Captured Alive In Tokyo City CD1

Used drive : Optiarc DVD RW AD-7240S Adapter: 2 ID: 0

Read mode : Secure
Utilize accurate stream : Yes
Defeat audio cache : Yes
Make use of C2 pointers : No

Read offset correction : 48
Overread into Lead-In and Lead-Out : No
Fill up missing offset samples with silence : Yes
Delete leading and trailing silent blocks : No
Null samples used in CRC calculations : Yes
Used interface : Native Win32 interface for Win NT & 2000

Used output format : Internal WAV Routines
Sample format : 44.100 Hz; 16 Bit; Stereo


TOC of the extracted CD

Track | Start | Length | Start sector | End sector
––––––––––––––––––––––––––––-
1 | 0:00.00 | 7:53.02 | 0 | 35476
2 | 7:53.02 | 7:00.50 | 35477 | 67026
3 | 14:53.52 | 5:43.30 | 67027 | 92781
4 | 20:37.07 | 4:54.73 | 92782 | 114904
5 | 25:32.05 | 5:24.62 | 114905 | 139266
6 | 30:56.67 | 3:56.65 | 139267 | 157031
7 | 34:53.57 | 2:59.00 | 157032 | 170456
8 | 37:52.57 | 6:10.65 | 170457 | 198271
9 | 44:03.47 | 6:38.58 | 198272 | 228179
10 | 50:42.30 | 5:17.57 | 228180 | 252011
11 | 56:00.12 | 6:05.00 | 252012 | 279386


Range status and errors

Selected range

Filename D:\spiralarch\Praying Mantis - Captured Alive In Tokyo City CD1.wav

Peak level 97.2 %
Extraction speed 0.4 X
Range quality 100.0 %
Test CRC 8237049E
Copy CRC 8237049E
Copy OK

No errors occurred


AccurateRip summary

Track 1 not present in database
Track 2 not present in database
Track 3 not present in database
Track 4 not present in database
Track 5 not present in database
Track 6 not present in database
Track 7 not present in database
Track 8 not present in database
Track 9 not present in database
Track 10 not present in database
Track 11 not present in database

None of the tracks are present in the AccurateRip database

End of status report

==== Log checksum 2C9C6B6A2D2CF83C043F4E2902FCBB4440E4F09EBE46BBC2CFA06377BD8A9AD3 ====

Exact Audio Copy V1.0 beta 1 from 15. November 2010

EAC extraction logfile from 22. May 2012, 16:59

Praying Mantis / Captured Alive In Tokyo City CD2

Used drive : Optiarc DVD RW AD-7240S Adapter: 2 ID: 0

Read mode : Secure
Utilize accurate stream : Yes
Defeat audio cache : Yes
Make use of C2 pointers : No

Read offset correction : 48
Overread into Lead-In and Lead-Out : No
Fill up missing offset samples with silence : Yes
Delete leading and trailing silent blocks : No
Null samples used in CRC calculations : Yes
Used interface : Native Win32 interface for Win NT & 2000

Used output format : Internal WAV Routines
Sample format : 44.100 Hz; 16 Bit; Stereo


TOC of the extracted CD

Track | Start | Length | Start sector | End sector
––––––––––––––––––––––––––––-
1 | 0:00.00 | 4:02.50 | 0 | 18199
2 | 4:02.50 | 6:21.22 | 18200 | 46796
3 | 10:23.72 | 3:45.68 | 46797 | 63739
4 | 14:09.65 | 8:17.02 | 63740 | 101016
5 | 22:26.67 | 5:55.53 | 101017 | 127694
6 | 28:22.45 | 6:23.10 | 127695 | 156429
7 | 34:45.55 | 5:29.27 | 156430 | 181131
8 | 40:15.07 | 6:12.10 | 181132 | 209041
9 | 46:27.17 | 6:31.20 | 209042 | 238386


Range status and errors

Selected range

Filename D:\spiralarch\Praying Mantis - Captured Alive In Tokyo City CD2.wav

Peak level 97.2 %
Extraction speed 0.4 X
Range quality 100.0 %
Test CRC E375A307
Copy CRC E375A307
Copy OK

No errors occurred


AccurateRip summary

Track 1 not present in database
Track 2 not present in database
Track 3 not present in database
Track 4 not present in database
Track 5 not present in database
Track 6 not present in database
Track 7 not present in database
Track 8 not present in database
Track 9 not present in database

None of the tracks are present in the AccurateRip database

End of status report

==== Log checksum F311B6186442D22A1915424A53901EC3813F4099BD12B09BA71B45E497C8FC28 ====


Many thanks to the original uploader: spiralarch