Subcategories

Primal Fear - Best Of Fear (2017) [Japanese Ed.] 2CD

Posted By: Andi_Deris
Primal Fear - Best Of Fear (2017) [Japanese Ed.] 2CD

Primal Fear - Best Of Fear (2017) [Japanese Ed.] 2CD
EAC Rip | FLAC: Image+Cue+Log | 1.1 Gb | MP3 CBR 320 kbps | 372 Mb | Scans | 69 Mb
Ward Records Inc. | GQCS-90450~1
Heavy/Power Metal

“Best of Fear“, as the name implies, is a new best of compilation from German heavy metal masters, Primal Fear. This double album culls together the best material from Primal Fear’s last 10 years of work (including the albums “New Religion,” “16.6 (Before the Devil Knows You're Dead),” “Unbreakable,” “Delivering the Black,” & “Rulebreaker”), plus four brand new songs recorded specifically for this release.

This comprehensive overview of Primal Fear's body of work over the past ten years is aptly split into two records which showcases the magnificence (and constantly maturing) songwriting abilities of these heavy metal lifers. The first album encompasses the heavier and more straight ahead material, while the second shows the more involved and epic side of the band’s songwriting.

So, whether you're just discovering Primal Fear or you're a long-time fan, this is a really good overview of their music over the past ten years and is not to be missed!

Primal Fear - Best Of Fear (2017) [Japanese Ed.] 2CD




Primal Fear - Best Of Fear (2017) [Japanese Ed.] 2CD


Disc One
01:13:30

01. Area 16 (New Song) (01:41)
02. Predator (New Song) (04:01)
03. If Looks Could Kill (New Song) (04:07)
04. Thrill Of Speed (New Song) (04:01)
05. The End Is Near (04:28)
06. Strike (04:40)
07. Sign Of Fear (04:47)
08. In Metal We Trust (03:33)
09. When Death Comes Knocking (06:58)
10. Six Times Dead (04:01)
11. Angels Of Mercy (03:36)
12. Unbreakable (06:06)
13. Riding The Eagle (04:59)
14. Rulebreaker (04:39)
15. King For A Day (03:45)
16. Bad Guys Wear Black (03:31)
17. Face The Emptiness (Bonus Track) (04:36)

Primal Fear - Best Of Fear (2017) [Japanese Ed.] 2CD


Disc Two
01:11:40

01. Everytime It Rains (Feat. Simone Simons) (03:53)
02. We Walk Without Fear (010:44)
03. Fighting The Darkness (Long Version) (08:44)
04. Hands Of Time (04:22)
05. One Night In December (09:19)
06. The Sky Is Burning (04:45)
07. Where Angels Die (08:10)
08. Black Rain (06:08)
09. Born With A Broken Heart (Feat. Liv Kristine Remix) (04:37)
10. Born Again (04:49)
11. The Man (That I Don't Know) (06:11)

Produced by Mat Sinner

The Band

• Ralf Scheepers (Blackwelder, Scheepers, ex-F.B.I., ex-Gamma Ray, ex-Tyran' Pace) - Lead Vocals
• Tom Naumann (Mat Sinner, Kastelruther Spatzen, ex-Sinner, ex-Godiva) - Guitars
• Alex Beyrodt (Level 10, Missa Mercuria, Silent Force, Sinner, Voodoo Circle, Mat Sinner, ex-The Sygnet, ex-Wild Axes) - Guitars
Magnus Karlsson (Primal Fear, Starbreaker, Allen/Lande, Kiske/Somerville, The Ferrymen, Bob Catley, Last Tribe, Midnight Sun) - Guitars
• Francesco Jovino (Edge of Forever, ex-U.D.O., ex-Hardline) - Drums
• Mat Sinner (Goddess Shiva, Kiske / Somerville, Level 10, Silent Force, Sinner, Voodoo Circle, Mat Sinner, ex-Rick Renstrom, ex-Scheepers (live), ex-Beast of Prey, ex-Cans) - Bass, Vocals

*****
• Randy Black - Drums
• Stefan Leibing, Henny Wolter - Guitars

Exact Audio Copy V1.3 from 2. September 2016

EAC extraction logfile from 21. November 2017, 12:59

Primal Fear / Best Of Fear (Japan CD1)

Used drive : ATAPI iHAS122 W Adapter: 2 ID: 0

Read mode : Secure
Utilize accurate stream : Yes
Defeat audio cache : Yes
Make use of C2 pointers : No

Read offset correction : 48
Overread into Lead-In and Lead-Out : No
Fill up missing offset samples with silence : Yes
Delete leading and trailing silent blocks : No
Null samples used in CRC calculations : Yes
Used interface : Installed external ASPI interface

Used output format : User Defined Encoder
Selected bitrate : 1024 kBit/s
Quality : High
Add ID3 tag : No
Command line compressor : C:\Program Files\FLAC\flac.exe
Additional command line options : -V -8 -T "Date=%year%" -T "Genre=%genre%" -T"COMMENT=Ripped by Ilijan" -8 -V %source%


TOC of the extracted CD

Track | Start | Length | Start sector | End sector
––––––––––––––––––––––––––––-
1 | 0:00.00 | 1:41.17 | 0 | 7591
2 | 1:41.17 | 4:01.14 | 7592 | 25680
3 | 5:42.31 | 4:06.65 | 25681 | 44195
4 | 9:49.21 | 4:01.24 | 44196 | 62294
5 | 13:50.45 | 4:28.19 | 62295 | 82413
6 | 18:18.64 | 4:39.40 | 82414 | 103378
7 | 22:58.29 | 4:47.18 | 103379 | 124921
8 | 27:45.47 | 3:33.20 | 124922 | 140916
9 | 31:18.67 | 6:58.31 | 140917 | 172297
10 | 38:17.23 | 4:00.34 | 172298 | 190331
11 | 42:17.57 | 3:35.48 | 190332 | 206504
12 | 45:53.30 | 6:05.46 | 206505 | 233925
13 | 51:59.01 | 4:58.67 | 233926 | 256342
14 | 56:57.68 | 4:38.43 | 256343 | 277235
15 | 61:36.36 | 3:44.52 | 277236 | 294087
16 | 65:21.13 | 3:31.28 | 294088 | 309940
17 | 68:52.41 | 4:35.52 | 309941 | 330617


Range status and errors

Selected range

Filename D:\Vknish + Devastator = Swolo4\Primal Fear - Best Of Fear (Japan CD1).wav

Peak level 98.8 %
Extraction speed 4.3 X
Range quality 100.0 %
Test CRC 5D1C9101
Copy CRC 5D1C9101
Copy OK

No errors occurred


AccurateRip summary

Track 1 not present in database
Track 2 not present in database
Track 3 not present in database
Track 4 not present in database
Track 5 not present in database
Track 6 not present in database
Track 7 not present in database
Track 8 not present in database
Track 9 not present in database
Track 10 not present in database
Track 11 not present in database
Track 12 not present in database
Track 13 not present in database
Track 14 not present in database
Track 15 not present in database
Track 16 not present in database
Track 17 not present in database

None of the tracks are present in the AccurateRip database

End of status report

–– CUETools DB Plugin V2.1.6

[CTDB TOCID: SPT5d0Z5xm9613Lq9zgQKYohMQ0-] disk not present in database
Submit result: SPT5d0Z5xm9613Lq9zgQKYohMQ0- has been uploaded


==== Log checksum AEA1A8DBFF15312AEDB56B296950B2061E1308FDFD118B33E20FC63985B3BD45 ====

Exact Audio Copy V1.3 from 2. September 2016

EAC extraction logfile from 21. November 2017, 13:36

Primal Fear / Best Of Fear (Japan CD2)

Used drive : ATAPI iHAS122 W Adapter: 2 ID: 0

Read mode : Secure
Utilize accurate stream : Yes
Defeat audio cache : Yes
Make use of C2 pointers : No

Read offset correction : 48
Overread into Lead-In and Lead-Out : No
Fill up missing offset samples with silence : Yes
Delete leading and trailing silent blocks : No
Null samples used in CRC calculations : Yes
Used interface : Installed external ASPI interface

Used output format : User Defined Encoder
Selected bitrate : 1024 kBit/s
Quality : High
Add ID3 tag : No
Command line compressor : C:\Program Files\FLAC\flac.exe
Additional command line options : -V -8 -T "Date=%year%" -T "Genre=%genre%" -T"COMMENT=Ripped by Ilijan" -8 -V %source%


TOC of the extracted CD

Track | Start | Length | Start sector | End sector
––––––––––––––––––––––––––––-
1 | 0:00.00 | 3:52.38 | 0 | 17437
2 | 3:52.38 | 10:44.27 | 17438 | 65764
3 | 14:36.65 | 8:43.66 | 65765 | 105055
4 | 23:20.56 | 4:21.34 | 105056 | 124664
5 | 27:42.15 | 9:18.53 | 124665 | 166567
6 | 37:00.68 | 4:45.11 | 166568 | 187953
7 | 41:46.04 | 8:09.46 | 187954 | 224674
8 | 49:55.50 | 6:07.41 | 224675 | 252240
9 | 56:03.16 | 4:36.41 | 252241 | 272981
10 | 60:39.57 | 4:48.43 | 272982 | 294624
11 | 65:28.25 | 6:10.59 | 294625 | 322433


Range status and errors

Selected range

Filename D:\Vknish + Devastator = Swolo4\Primal Fear - Best Of Fear (Japan CD2).wav

Peak level 98.8 %
Extraction speed 4.4 X
Range quality 100.0 %
Test CRC 77CFF6A6
Copy CRC 77CFF6A6
Copy OK

No errors occurred


AccurateRip summary

Track 1 not present in database
Track 2 not present in database
Track 3 not present in database
Track 4 not present in database
Track 5 not present in database
Track 6 not present in database
Track 7 not present in database
Track 8 not present in database
Track 9 not present in database
Track 10 not present in database
Track 11 not present in database

None of the tracks are present in the AccurateRip database

End of status report

–– CUETools DB Plugin V2.1.6

[CTDB TOCID: Fun42V24rfACP7gTPMGXON_gVsM-] found
Submit result: Fun42V24rfACP7gTPMGXON_gVsM- has been confirmed
Track | CTDB Status
1 | (1/1) Accurately ripped
2 | (1/1) Accurately ripped
3 | (1/1) Accurately ripped
4 | (1/1) Accurately ripped
5 | (1/1) Accurately ripped
6 | (1/1) Accurately ripped
7 | (1/1) Accurately ripped
8 | (1/1) Accurately ripped
9 | (1/1) Accurately ripped
10 | (1/1) Accurately ripped
11 | (1/1) Accurately ripped


==== Log checksum CFCDF3020741AB24A4174F31CD1F50F1BDC7A0BA70DA7E83A2C7321256231BDF ====


Many thanks to the original uploader: Ilijan





Password: pass