Subcategories
Tags
Language
Tags

Procol Harum - 9 Albums (1967-1977) [2009 Salvo Reissues] Re-up

Posted By: v3122
Procol Harum - 9 Albums (1967-1977) [2009 Salvo Reissues] Re-up

Procol Harum - 9 Albums (1967-1977) [2009 Salvo Reissues]
Progressive / Art-Rock | EAC Rip | Flac (Image) + Cue + Log | MP3 CBR 320Kbps
Scans -> 875 Mb | Salvo | Remastered | ~3257 + 1228 Mb

1967 - Procol Harum; 1969 - A Salty Dog; 1970 - Home; 1971 - Broken Barricades; 1972 - Live With The Edmonton Symphony Orchestra; 1973 - Grand Hotel; 1974 - Exotic Birds & Fruit; 1975 - Ninth; 1977 - Something Magic.

Procol Harum - 9 Albums (1967-1977) [2009 Salvo Reissues] Re-up

Procol Harum Biography:

Formed: 1967, London, England
Genres: Rock
Representative Albums: "Early Years", "30th Anniversary Anthology", "Exotic Birds and Fruit"
Representative Songs: "A Whiter Shade of Pale", "A Salty Dog", "Conquistador"

Procol Harum is arguably the most successful "accidental" group creation – that is, a band originally assembled to take advantage of the success of a record created in the studio – in the history of progressive rock. With "A Whiter Shade of Pale" a monster hit right out of the box, the band evolved from a studio ensemble into a successful live act, their music built around an eclectic mix of blues-based rock riffs and grand classical themes. With singer/pianist Gary Brooker and lyricist Keith Reid providing the band's entire repertory, their music evolved in decidedly linear fashion, the only major surprises coming from the periodic lineup changes that added a new instrumental voice to the proceedings. At their most accessible, as on "A Whiter Shade of Pale" and "Conquistador," they were one of the most popular of progressive rock bands, their singles outselling all rivals, and their most ambitious album tracks still have a strong following.

Procol Harum's roots and origins are as convoluted as its success – especially between 1967 and 1973 – was pronounced. Pianist Gary Brooker (b. May 29, 1945, Southend, Essex, England) had formed a group at school called the Paramounts at age 14, with guitarist Robin Trower (b. Mar. 9, 1945, Southend, Essex) and bassist Chris Copping (b. Aug. 29, 1945 Southend, Essex), with singer Bob Scott and drummer Mick Brownlee. After achieving a certain degree of success at local youth clubs and dances, covering established rock & roll hits, Brooker took over the vocalist spot from the departed Scott, and the group continued working after its members graduated – by 1962, they were doing formidable (by British standards) covers of American R&B, and got a residency at the Shades Club in Southend.

Brownlee exited the band in early 1963 and was replaced by Barry J. (B.J.) Wilson (b. Mar. 18, 1947, Southend, Essex), who auditioned after answering an ad in Melody Maker. Nine months later, in September of 1963, bassist Chris Copping opted out of the professional musicians' corps to attend Leicester University, and he was replaced by Diz Derrick. The following month, the Paramounts demo record, consisting of covers of the Coasters' "Poison Ivy" and Bobby Bland's "Farther on up the Road," got them an audition at EMI. This resulted in their being signed to the Parlophone label, with their producer, Ron Richards, the recording manager best-known for his many years of work with the Hollies.

The Paramounts' first single, "Poison Ivy," released in January of 1964, reached number 35 on the British charts. The group also got an important endorsement from the Rolling Stones, with whom they'd worked on the television show Thank Your Lucky Stars, who called the Paramounts their favorite British R&B band. Unfortunately, none of the group's subsequent Parlophone singles over the next 18 months found any chart success, and by mid-'66, the Paramounts had been reduced to serving as a backing band for popsters Sandy Shaw and Chris Andrews. In September of 1966, the Paramounts went their separate ways; Derrick out of the business, Trower and Wilson to gigs with other bands, and, most fortuitously, Gary Brooker decided to develop his career as a songwriter.

This led Brooker into a partnership with lyricist Keith Reid (b. Oct. 19, 1945), whom he met through a mutual acquaintance, R&B impresario Guy Stevens. By the spring of 1967, they had a considerable body of songs prepared and began looking for a band to play them. An advertisement in Melody Maker led to the formation of a band initially called the Pinewoods, with Brooker as pianist/singer, Matthew Fisher (b. Mar. 7, 1946, Croydon, Surrey) on organ, Ray Royer (b. Oct. 8, 1945) on guitar, Dave Knights (b. June 28, 1945, London) on bass, and Bobby Harrison (b. June 28, 1943, London) on drums. Their first recording, produced by Denny Cordell, was of a piece of surreal Reid poetry called "A Whiter Shade Of Pale," which Brooker set to music loosely derived from Johann Sebastian Bach's Air on a G String from the Suite No. 3 in D Major.

By the time this recording was ready for release, the Pinewoods had been rechristened Procol Harum, a name derived, as alternate stories tell it, either from Stevens' cat's birth certificate, Procol Harun, or the Latin "procul" for "far from these things" (hey, it was the mid-'60s, and either is possible). In early May of 1967, the group performed "A Whiter Shade of Pale" at the Speakeasy Club in London, while Cordell arranged for a release of the single on English Decca (London Records in America), on the companies' Deram label. Ironically, Cordell's one-time clients the Moody Blues were about to break out of a long commercial tail-spin on the very same label with a similar, classically-tinged pair of recordings, "Nights in White Satin" and "Days of Future Passed," and between the two groups and their breakthrough hits, Deram Records would be permanently characterized as a progressive rock imprint.

Cordell had also sent a copy of "A Whiter Shade of Pale" to Radio London, one of England's legendary off-shore pirate radio stations (they competed with the staid BBC, which had the official broadcast monopoly, and were infinitely more beloved by the teenagers and most bands), which played the record. Not only was Radio London deluged with listener requests for more plays, but Deram suddenly found itself with orders for a record not scheduled for release for another month – before May was half over, it was pushed up on the schedule and rushed into shops.

Meanwhile, the prototypal Procol Harum made its concert debut in London opening for Jimi Hendrix at the Saville Theater on June 4, 1967. Four days later, "A Whiter Shade of Pale" reached the top of the British charts for the first of a six-week run in the top spot, making Procol Harum only the sixth recording act in the history of British popular music to reach the number one spot on its first release (not even the Beatles did that). The following month, the record reached number five on the American charts, with sales in the United States rising to over a million copies (and six million copies worldwide).

All of this seemed to bode well for the band, except for the fact that it had only a single song in its repertory and no real stage act – literal one-hit wonders. The same month that the record peaked in the United States, Royer and Harrison were sacked and replaced by Brooker's former Paramounts bandmates Robin Trower and B.J. Wilson on guitar and drums, respectively.

The "real" Procol Harum band was now in place and a second single, "Homburg," was duly recorded. Reminiscent of "Whiter Shade of Pale" in its tone of dark grandeur, this single, released in October of 1967 on EMI's Regal Zonophone label, got to number six on the British charts. The group's debut album, entitled Procol Harum, managed to reach number 47 in America during October of 1967, based on "A Whiter Shade of Pale" being among its tracks (which included the first version of "Conquistador") – but a British version of the LP, issued over there without the hit, failed to attract any significant sales. The single "Homburg," however, got no higher than number 34 in America a month later.

On March 26, 1968, "A Whiter Shade of Pale" won the International Song of the Year award at the 13th Annual Ivor Novello Awards (sort of the British equivalent of the Grammys). The group's newest single, "Quite Rightly So," however, only reached the number 50 spot in England in April of that year. A new contract for the group was secured with A&M Records in America (they remained on Regal Zonophone in England), and by November, a second album, Shine on Brightly, highlighted by an 18-minute epic entitled "In Held 'Twas I," was finished and in the stores, and rose to number 24 in America but failed to chart in England. The next month, they were playing the Miami Pop Festival in front of 100,000 people, on a bill that included Chuck Berry, Canned Heat, the blues version of Fleetwood Mac, and the Turtles, among others.

In March of 1969, David Knights and Matthew Fisher exited the lineup shortly after finishing work on the group's new album, A Salty Dog, preferring management and production to the performing side of the music business. Knights' departure opened the way for bassist Chris Copping to join Procol Harum (thus re-creating the lineup of the Paramounts), playing bass and organ. Another American tour followed the next month, and in June of 1969 A Salty Dog was issued. This record, considered by many to be the original group's best work, combined high-energy blues and classical influences on a grand scale, and returned the band to the U.S. charts at number 32, while the title song ascended the British charts to number 44. The album subsequently reached number 27 in England, the group's first long-player to chart in their own country.

Despite the group's moderate sales in England and America, they remained among the more popular progressive rock bands, capable of reaching more middle-brow listeners who didn't have the patience for Emerson, Lake & Palmer or King Crimson. Robin Trower's flashy guitar quickly made him the star of the group, as much as singer/pianist Brooker, and he was considered in the same league with Alvin Lee and any number of late-'60s/early-'70s British blues axemen. Matthew Fisher's stately, cathedral-like organ had been a seminal part of the band's sound, juxtaposed with Trower's blues-based riffing and Reid's unusual, darkly witty lyrics as voiced by Brooker. Following Fisher's departure, the group took on a more straightforward rock sound, but Trower's playing remained a major attraction to the majority of fans.

"Whaling Stories" was an example of quintessential Procol Harum, a mix of 19th century oratorio that sounds like it came out of a Victorian-era cathedral, with fiery blues riffs blazing at its center. And being soaked in Reid's dark, eerie, regret-filled lyrics didn't stop "A Salty Dog" from becoming one of the group's most popular songs.

It was a year before their next album, Home, was released, in June of 1970, ascending to the American number 34 and the British 49 spot. This marked the end of the group's contract with Regal Zonophone/EMI, and on the release of their next LP in July of 1971, they were now on Chrysalis in England. Broken Barricades reached number 32 in America and 41 in England, but it also marked the departure of Robin Trower. The founding guitarist left that month and subsequently organized his own group, with a sound modeled along lines similar to Jimi Hendrix, which had great success in America throughout the 1970s.

Trower's replacement, Dave Ball (b. Mar. 30, 1950), joined the same month, and the lineup expanded by one with the addition of Alan Cartwright on bass, which freed Chris Copping to concentrate full-time on the organ. The group returned to something of the sound it had before Fisher's departure, although Trower was a tough act to follow. It was this version of the band that performed on August 6, 1971 in a concert with the Edmonton Symphony Orchestra and the DaCamera Singers in Edmonton, Alberta, Canada – the concert was a bold and expansive, richly orchestrated re-consideration of earlier material (though not "A Whiter Shade of Pale") from the group's repertory, and, released as an official live album in 1972, proved to be the group's most successful LP release, peaking at number five and drawing in thousands of new fans.

In England, Procol Harum Live: In Concert With the Edmonton Symphony Orchestra only rose to number 48 in May of 1972, but it was competing with a reissue of the group's debut album (retitled A Whiter Shade of Pale, with the single added) paired with A Salty Dog, which outperformed it considerably, reaching number 26. A single lifted from the live record, "Conquistador," redone in a rich and dramatic version, shot to number 16 in America and 22 in England that summer. Soon after, the U.S. distributor of the debut album, London Records, got further play from that record by re-releasing it with a sticker announcing the presence of "the original version of "Conquistador."

Amid all of this success, the group's lineup again was thrown into turmoil in September when Dave Ball left Procol Harum to join Long John Baldry's band. He was replaced by Mick Grabham, formerly of the bands Plastic Penny and Cochise. The band's next album, Grand Hotel, was a delightfully melodic and decadent collection (anticipating Bryan Ferry and Roxy Music in some respects) that featured guest backing vocals by Christianne Legrand of the a cappella singing group the Swingle Singers. That record, their first released on Chrysalis in America as well as England, peaked at number 21. Six months later, A&M released the first compilation of the band's material, Best of Procol Harum, which only made it to number 131 on the charts.

The group's next two albums, Exotic Birds and Fruit (May 1974) and Procol's Ninth (September 1975), the latter produced by rock & roll songsmiths Jerry Leiber and Mike Stoller, performed moderately well, and "Pandora's Box" from Procol's Ninth became one of their bigger hits in England, rising to number 16. July of 1976 saw a departure and a lateral shift in the group's lineup, as Alan Cartwright left the band and Chris Copping took over on bass, while Pete Solley joined as keyboard player.

By this time, the band's string had run out, as everyone seemed to know. A new album, Something Magic, barely scraped the U.S. charts in April of 1977, and the band split up following a final tour and a farewell concert at New York's Academy of Music on May 15, 1977. Only five months later, the band was back together for a one-off performance of "A Whiter Shade of Pale," which had taken on a life of its own separate from the group – the song was named joint winner (along with "Bohemian Rhapsody") of the Best British Pop Single 1952-1977, at the Britannia Awards to mark Queen Elizabeth II's Silver Jubilee, and the band performed it live at the awards ceremony.

Apart from Trower, Gary Brooker was the most successful and visible of all ex-Procol Harum members, releasing three solo albums between 1979 and 1985. Fear of Flying (1979) on Chrysalis, produced by George Martin, attracted the most attention, but Lead Me to the Water (1982) on Mercury had some notable guest artists, including Eric Clapton and Phil Collins, while Echoes in the Night (1985) was co-produced by Brooker's former bandmate Matthew Fisher. During the late '80s, however, Brooker had turned to writing orchestral music, principally ballet material, but this didn't stop him from turning up as a guest at one of the annual Fairport Convention reunions (Procol Harum and Fairport had played some important early gigs together) at Cropredy, Oxfordshire, in August of 1990 to sing "A Whiter Shade of Pale."

Still, Procol Harum had faded from the consciousness of the music world by the end of the 1980s. The death of B.J. Wilson in 1990 went largely unreported, to the chagrin of many fans, and it seemed as though the group was a closed book.

Then, in August of 1991, Brooker re-formed Procol Harum with Trower, Fisher, Reid, and drummer Mark Brzezicki. An album, Prodigal Stranger, was recorded and released, and an 11-city tour of North America took place in September of 1991. Although this lineup didn't last – Trower and company, after all, were pushing 50 at the time – Brooker has kept a new version of Procol Harum together, in the guise of himself, guitarist Geoffrey Whitehorn, keyboardman Don Snow, and Brzezicki on drums, which toured the United States in 1992.

~ Bruce Eder, Rovi

Procol Harum — британская прогрессивная рок-группа, сформированная в начале 1960-х. Всемирно популярным хитом этой группы стала композиция «A Whiter Shade of Pale», а сама группа остаётся культовым явлением рок-сцены на протяжении всей своей карьеры.

Изначально группа называлась «The Paramounts», но по настоянию своего пидораса-менеджера, приняли решение о смене названия. Вскоре было предложено латинское «Procul Harun», что означает «вдали от всего» (так звали кота менеджера). Из-за плохого качества связи (разговор о смене названия шел по телефону) группа плохо расслышала название, и оно было записано ошибочно: «Procol Harum».

Гэри Брукер (р. 29 мая 1945, Саутсэнд, Англия; фортепьяно, вокал), Мэтью Фишер (р. 7 марта 1946, Лондон, Англия; орган), Бобби Харрисон (р. 28 июня 1943, Лондон, Англия; ударные), Рэй Ройер (р. 8 октября 1945; гитара) и Дейв Найтс (р. 28 июня 1945, Лондон, Англия; бас) сделали свой дебют, выпустив в эфир композицию «A Whiter Shade Of Pale», ставшую хитом 1967 года. Сингл с этой песней теперь достиг классического статуса, продолжает продаваться во всем мире, а его тираж превысил многомиллионную отметку. Следующий сингл «Homburg» тоже имел неплохой успех, и даже попал в десятку лучших.

К тому времени, когда поспешно был издан лонгплей (записанный в моно-варианте), группа начала разваливаться. Из команды свалили Харрисон и Ройер, а им на смену пришли прежние коллеги Брукера Барри «B.J». Уилсон (р. 18 марта 1947, Саутсэнд, Англия) и Робин Трауэр (р. 9 марта 1945, Лондон, Англия), соответственно.

Еще одним, неофициальным членом группы был автор текстов Кейт Рейд (р. 10 октября 1946), чья склонность к морским побасенкам проявилась на многих альбомах. Особенно сильным стал диск «A salty dog», тепло встреченный критиками. Самыми прекрасными песнями с него были заглавный трек и вещица «The Devil Came From Kansas». Однако, в «Procol Harum» опять произошли замены: ушли Фишер и Найтс, а к группе примкнул еще один бывший член «Paramounts» Крис Коппинг (р. 29 августа 1945, Саутсэнд, Англия; орган, бас). На «Broken Barricades» Трауэр стал играть в манере Джимми Хендрикса, чем утяжелил саунд группы. Однако это было несовместимо с самосозерцательными фэнтэзийными сагами Рейда. Это вопрос разрешился с уходом Трауэра, присоединившегося к «Jude». Состав же «Procol Harum» пополнился Дейвом Боллом (р. 30 марта 1950) и Аланом Картрайтом (бас) и группа опять взяла более симфоническое направление.

Неожиданным стал успех концертника «Live In Concert With The Edmonton Symphony Orchestra». Это событие вызвало волну популярности группы, не виданную с ранних дней ее существования. Альбом, содержавший сильные версии «Conquistador» и «A Salty Dog», попал в американский Топ 5, а его тираж перевалил за миллион.

Дальнейшие изменения в группе последовали с уходом Болла и приходом Мика Грэбхэма (экс-«Cochise»), присоединившегося в 1972 году. Этот состав оказался наиболее устойчивым, в котором «Procol Harum» просуществовали четыре года, в течение которых они выпустили три альбома. Наиболее успешным был «Grand Hotel», хотя оба последующих диска тоже имели сильные моменты. Так, на альбоме «Exotic Birds And Fruit» классными вещами были «Nothing But The Truth» и «The Idol», а хитом с «Procol’s Ninth» стала композиция «Pandora’s Box». Ко времени выхода «Something Magic» в 1977-м музыкальный климат драматично изменился, и «Procol Harum» были погребены под нашествием панка и «новой волны». Собравший к тому времени неплохой урожай Гэри Брукер устроил прощальный тур, и «Procol Harum» спокойно исчез.

Однако в 1991 году группа возвратилась на музыкальную сцену и, в отличие от многих преобразованных «динозавров», результатом стал хороший альбом «The Prodigal Stranger». Группа с тех пор иногда совершает гастроли, а в ее состав входят Брукер, Фишер, Матт Пегг (бас), Джеф Вайтхорн (гитара) и Грэм Брод (ударные).

–––––––––––––––––––––––––––––––––-

Procol Harum - 9 Albums (1967-1977) [2009 Salvo Reissues] Re-up

CD01: Procol Harum - Procol Harum (1967) [2009, Salvo]
Progressive / Art-Rock | EAC Rip | Flac (Image) + Cue + Log | MP3 CBR 320Kbps
Scans -> 111 Mb | Salvo, SALVOCD016 | ~358 + 170 Mb

Procol Harum's self-titled, debut album bombed in England, appearing six months after "A Whiter Shade of Pale" and "Homburg" with neither hit song on it. The LP was successful in America, where albums sold more easily, but especially since it did include "A Whiter Shade of Pale" and was reissued with a sticker emphasizing the presence of the original "Conquistador," a re-recording which became a hit in 1972. The music is an engaging meld of psychedelic rock, blues, and classical influences, filled with phantasmagorical lyrics, bold (but not flashy) organ by Matthew Fisher, and Robin Trower's most tasteful and restrained guitar. "Conquistador," "Kaleidoscope," "A Christmas Camel," and the Bach-influenced "Repent Walpurgis" are superb tracks, and "Good Captain Clack" is great, almost Kinks-like fun. Not everything here works, but it holds up better than most psychedelic or progressive rock.

by Bruce Eder, AMG
Tracklist:

1. Conquistador (2:34)
2. She Wandered Through The Garden Fence (3:22)
3. Something Following Me (3:34)
4. Mabel (1:51)
5. Cerdes (Outside The Gates Of) (5:00)
6. A Christmas Camel (4:43)
7. Kaleidoscope (2:49)
8. Salad Days (Are Here Again) (3:34)
9. Good Captain Clack (1:26)
10. Repent Walpurgis (4:55)
11. A Whiter Shade Of Pale (4:06)
12. Lime Street Blues (2:51)
13. Homburg (single version) (3:53)
14. Good Captain Clack (single version) (1:29)
15. Il Tuo Diamante (Italian single; promo version) (3:23)
16. Understandably Blue (3:30)
17. PPandora's Box (version 1; backing track) (3:43)
18. Alpha (3:48)
19. Conquistador (stereo) (2:38)
20. She Wandered Through The Garden Fence (stereo) (3:24)
21. Homburg (album version; stereo) (3:54)

Exact Audio Copy V0.99 prebeta 5 from 4. May 2009

EAC extraction logfile from 9. August 2010, 16:50

Procol Harum / Procol Harum

Used drive : ASUS DRW-2014L1T Adapter: 4 ID: 2

Read mode : Secure
Utilize accurate stream : Yes
Defeat audio cache : Yes
Make use of C2 pointers : No

Read offset correction : 6
Overread into Lead-In and Lead-Out : No
Fill up missing offset samples with silence : Yes
Delete leading and trailing silent blocks : No
Null samples used in CRC calculations : Yes
Used interface : Native Win32 interface for Win NT & 2000

Used output format : User Defined Encoder
Selected bitrate : 768 kBit/s
Quality : High
Add ID3 tag : No
Command line compressor : F:\Program Files\Exact Audio Copy\FLAC\FLAC.EXE
Additional command line options : -T "DATE=%y" -T "GENRE=%m" -8 -V %s


TOC of the extracted CD

Track | Start | Length | Start sector | End sector
––––––––––––––––––––––––––––-
1 | 0:00.00 | 2:38.11 | 0 | 11860
2 | 2:38.11 | 3:26.16 | 11861 | 27326
3 | 6:04.27 | 3:37.16 | 27327 | 43617
4 | 9:41.43 | 1:56.20 | 43618 | 52337
5 | 11:37.63 | 5:08.53 | 52338 | 75490
6 | 16:46.41 | 4:48.09 | 75491 | 97099
7 | 21:34.50 | 2:53.40 | 97100 | 110114
8 | 24:28.15 | 3:38.52 | 110115 | 126516
9 | 28:06.67 | 1:30.35 | 126517 | 133301
10 | 29:37.27 | 5:05.43 | 133302 | 156219
11 | 34:42.70 | 4:07.65 | 156220 | 174809
12 | 38:50.60 | 2:53.67 | 174810 | 187851
13 | 41:44.52 | 3:57.30 | 187852 | 205656
14 | 45:42.07 | 1:36.72 | 205657 | 212928
15 | 47:19.04 | 3:32.24 | 212929 | 228852
16 | 50:51.28 | 3:33.00 | 228853 | 244827
17 | 54:24.28 | 3:46.44 | 244828 | 261821
18 | 58:10.72 | 3:50.52 | 261822 | 279123
19 | 62:01.49 | 2:40.55 | 279124 | 291178
20 | 64:42.29 | 3:27.40 | 291179 | 306743
21 | 68:09.69 | 3:54.11 | 306744 | 324304


Range status and errors

Selected range

Filename W:\EAC\Procol Harum\Procol Harum - Procol Harum.wav

Peak level 98.8 %
Range quality 100.0 %
Copy CRC 71346AA5
Copy OK

No errors occurred


AccurateRip summary

Track 1 accurately ripped (confidence 21) [33662691]
Track 2 accurately ripped (confidence 22) [4D9C5ECD]
Track 3 accurately ripped (confidence 22) [EBEFB1FF]
Track 4 accurately ripped (confidence 21) [C58DA992]
Track 5 accurately ripped (confidence 21) [D060A848]
Track 6 accurately ripped (confidence 20) [C64110B0]
Track 7 accurately ripped (confidence 22) [02EC0BFF]
Track 8 accurately ripped (confidence 21) [5C3A5DAF]
Track 9 accurately ripped (confidence 21) [4963D0A4]
Track 10 accurately ripped (confidence 22) [D5DFDE7F]
Track 11 accurately ripped (confidence 23) [4932868D]
Track 12 accurately ripped (confidence 21) [AF0289F8]
Track 13 accurately ripped (confidence 21) [0E01079E]
Track 14 accurately ripped (confidence 21) [177EC12D]
Track 15 accurately ripped (confidence 21) [5F8AD0A3]
Track 16 accurately ripped (confidence 21) [804882F2]
Track 17 accurately ripped (confidence 22) [04B1746D]
Track 18 accurately ripped (confidence 21) [7B33188C]
Track 19 accurately ripped (confidence 22) [B8B24ED6]
Track 20 accurately ripped (confidence 20) [D0E48B0F]
Track 21 accurately ripped (confidence 17) [8BDA9524]

All tracks accurately ripped

End of status report

foobar2000 1.2.9 / Dynamic Range Meter 1.1.1
log date: 2014-11-04 21:17:05

––––––––––––––––––––––––––––––––––––––––
Analyzed: Procol Harum / Procol Harum
––––––––––––––––––––––––––––––––––––––––

DR Peak RMS Duration Track
––––––––––––––––––––––––––––––––––––––––
DR9 -0.10 dB -10.83 dB 2:38 01-Conquistador
DR9 -0.45 dB -10.87 dB 3:26 02-She Wandered Through The Garden Fence
DR10 -0.10 dB -11.12 dB 3:37 03-Something Following Me
DR10 -0.10 dB -11.43 dB 1:56 04-Mabel
DR9 -0.10 dB -11.21 dB 5:09 05-Cerdes (Outside The Gates Of)
DR10 -0.10 dB -11.41 dB 4:48 06-A Christmas Camel
DR9 -0.10 dB -10.61 dB 2:54 07-Kaleidoscope
DR9 -0.10 dB -10.78 dB 3:39 08-Salad Days (Are Here Again)
DR9 -0.67 dB -11.86 dB 1:30 09-Good Captain Clack
DR9 -0.10 dB -12.13 dB 5:06 10-Repent Walpurgis
DR9 -0.10 dB -10.85 dB 4:08 11-A Whiter Shade Of Pale
DR8 -0.34 dB -9.75 dB 2:54 12-Lime Street Blues
DR9 -0.10 dB -10.40 dB 3:57 13-Homburg (single version)
DR9 -0.82 dB -11.45 dB 1:37 14-Good Captain Clack (single version)
DR7 -1.39 dB -10.15 dB 3:32 15-Il Tuo Diamante (Italian single; promo version)
DR9 -0.33 dB -13.69 dB 3:33 16-Understandably Blue
DR11 -0.10 dB -12.97 dB 3:47 17-Pandora's Box (version 1; backing track)
DR10 -0.10 dB -10.84 dB 3:51 18-Alpha
DR10 -0.10 dB -11.61 dB 2:41 19-Conquistador (stereo)
DR10 -0.10 dB -11.28 dB 3:28 20-She Wandered Through The Garden Fence (stereo)
DR9 -0.10 dB -10.94 dB 3:54 21-Homburg (album version; stereo)
––––––––––––––––––––––––––––––––––––––––

Number of tracks: 21
Official DR value: DR9

Samplerate: 44100 Hz
Channels: 2
Bits per sample: 16
Bitrate: 673 kbps
Codec: FLAC

[CUETools log; Date: 04.11.2014 2:28:14; Version: 2.1.4]
[CTDB TOCID: wXGhDNbkI7_YtrcsVjXcL4psqBc-] found.
Track | CTDB Status
1 | (40/40) Accurately ripped
2 | (40/40) Accurately ripped
3 | (40/40) Accurately ripped
4 | (40/40) Accurately ripped
5 | (40/40) Accurately ripped
6 | (40/40) Accurately ripped
7 | (40/40) Accurately ripped
8 | (40/40) Accurately ripped
9 | (40/40) Accurately ripped
10 | (40/40) Accurately ripped
11 | (40/40) Accurately ripped
12 | (40/40) Accurately ripped
13 | (40/40) Accurately ripped
14 | (40/40) Accurately ripped
15 | (40/40) Accurately ripped
16 | (40/40) Accurately ripped
17 | (40/40) Accurately ripped
18 | (39/40) Accurately ripped
19 | (40/40) Accurately ripped
20 | (39/40) Accurately ripped
21 | (37/40) Accurately ripped
[AccurateRip ID: 003632f8-03411a64-3e10e415] found.
Track [ CRC | V2 ] Status
01 [33662691|b8c5551d] (028+011/113) Accurately ripped
02 [4d9c5ecd|bce9e284] (029+011/113) Accurately ripped
03 [ebefb1ff|71d4ae04] (029+011/114) Accurately ripped
04 [c58da992|176f201b] (028+011/113) Accurately ripped
05 [d060a848|6baaa86a] (028+011/112) Accurately ripped
06 [c64110b0|93bfb762] (027+010/111) Accurately ripped
07 [02ec0bff|c2fd94b0] (029+010/113) Accurately ripped
08 [5c3a5daf|08491273] (028+010/111) Accurately ripped
09 [4963d0a4|f3690b78] (028+010/112) Accurately ripped
10 [d5dfde7f|93438d3c] (029+010/113) Accurately ripped
11 [4932868d|4104ba9c] (030+010/115) Accurately ripped
12 [af0289f8|97ddee17] (028+010/113) Accurately ripped
13 [0e01079e|9d967294] (028+010/111) Accurately ripped
14 [177ec12d|7db67e4d] (028+010/112) Accurately ripped
15 [5f8ad0a3|af812e95] (028+010/112) Accurately ripped
16 [804882f2|73c7e9ce] (028+010/112) Accurately ripped
17 [04b1746d|04861af6] (029+010/112) Accurately ripped
18 [7b33188c|1aad5e10] (028+010/112) Accurately ripped
19 [b8b24ed6|a0b532e1] (029+010/114) Accurately ripped
20 [d0e48b0f|23d9a2f3] (027+011/114) Accurately ripped
21 [8bda9524|a1ca4d26] (023+012/108) Accurately ripped
Offsetted by -18:
01 [ffc8e127] (018/113) Accurately ripped
02 [bba88080] (019/113) Accurately ripped
03 [e0243d66] (019/114) Accurately ripped
04 [1a9e9b47] (019/113) Accurately ripped
05 [bbf1330e] (019/112) Accurately ripped
06 [852b02bb] (019/111) Accurately ripped
07 [c42bf5f0] (019/113) Accurately ripped
08 [d71d00f6] (019/111) Accurately ripped
09 [8cf197f8] (019/112) Accurately ripped
10 [dff342dc] (019/113) Accurately ripped
11 [9d258d5c] (019/115) Accurately ripped
12 [a72e66c0] (019/113) Accurately ripped
13 [a4928735] (018/111) Accurately ripped
14 [f3e7b392] (018/112) Accurately ripped
15 [c416349e] (018/112) Accurately ripped
16 [e08c5fd2] (018/112) Accurately ripped
17 [c0b78294] (017/112) Accurately ripped
18 [f756f840] (017/112) Accurately ripped
19 [6b5df186] (018/114) Accurately ripped
20 [2cf57195] (019/114) Accurately ripped
21 [349fbdb6] (018/108) Accurately ripped
Offsetted by -676:
01 [1396a536] (000/113) No match (V2 was not tested)
02 [1f440ca3] (000/113) No match (V2 was not tested)
03 [ed0493db] (000/114) No match (V2 was not tested)
04 [4039b51c] (000/113) No match (V2 was not tested)
05 [87f1d346] (000/112) No match (V2 was not tested)
06 [d5b90373] (000/111) No match (V2 was not tested)
07 [1d5f4430] (000/113) No match (V2 was not tested)
08 [352576b3] (000/111) No match (V2 was not tested)
09 [935377dc] (000/112) No match (V2 was not tested)
10 [562e3945] (000/113) No match (V2 was not tested)
11 [701fb26a] (000/115) No match (V2 was not tested)
12 [85103a6c] (000/113) No match (V2 was not tested)
13 [a2a284a1] (000/111) No match (V2 was not tested)
14 [4a1fec3c] (000/112) No match (V2 was not tested)
15 [8ff1dbdd] (000/112) No match (V2 was not tested)
16 [6486590c] (000/112) No match (V2 was not tested)
17 [3f47a0d8] (000/112) No match (V2 was not tested)
18 [e11bd51e] (000/112) No match (V2 was not tested)
19 [1a780183] (000/114) No match (V2 was not tested)
20 [dcb590be] (000/114) No match (V2 was not tested)
21 [4544a168] (000/108) No match (V2 was not tested)
Offsetted by -664:
01 [cdbcd97b] (000/113) No match (V2 was not tested)
02 [1c7a0f1a] (000/113) No match (V2 was not tested)
03 [59721ab0] (000/114) No match (V2 was not tested)
04 [7f0b17ee] (000/113) No match (V2 was not tested)
05 [419b76af] (000/112) No match (V2 was not tested)
06 [29030cf8] (000/111) No match (V2 was not tested)
07 [c082c303] (000/113) No match (V2 was not tested)
08 [abc5e088] (000/111) No match (V2 was not tested)
09 [272f5d8f] (000/112) No match (V2 was not tested)
10 [a4ba6be2] (000/113) No match (V2 was not tested)
11 [0f385899] (000/115) No match (V2 was not tested)
12 [37835bef] (000/113) No match (V2 was not tested)
13 [3c2b851c] (000/111) No match (V2 was not tested)
14 [6550dc45] (000/112) No match (V2 was not tested)
15 [4234a8f0] (000/112) No match (V2 was not tested)
16 [95aefd1b] (000/112) No match (V2 was not tested)
17 [f370a0a4] (000/112) No match (V2 was not tested)
18 [797c1292] (000/112) No match (V2 was not tested)
19 [c45ad96d] (000/114) No match (V2 was not tested)
20 [69a3a566] (000/114) No match (V2 was not tested)
21 [4a6d0fd0] (000/108) No match (V2 was not tested)

Track Peak [ CRC32 ] [W/O NULL] [ LOG ]
– 98,8 [71346AA5] [3E530AD4] CRC32
01 98,8 [D4B4D812] [274C714D]
02 94,9 [C293FA58] [77CB8CF2]
03 98,8 [91893612] [768E284F]
04 98,8 [3C246F8D] [961B7B86]
05 98,8 [9514CA99] [0979D43A]
06 98,8 [82F18277] [A4CB83B1]
07 98,8 [64158F60] [655C4DF2]
08 98,8 [70B46908] [CA2FCAEC]
09 92,5 [01EEBDCE] [F19377D2]
10 98,8 [979E1665] [E9A3D76A]
11 98,8 [6AB67914] [B7F4AD28]
12 96,2 [A3E9F6A0] [BC093020]
13 98,8 [C5062E1B] [854C185F]
14 91,0 [3A2E6D6E] [F5ADD6FA]
15 85,2 [87906207] [111D500A]
16 96,2 [F028FF42] [1D42B60F]
17 98,8 [D47E25EA] [EEE49E16]
18 98,8 [E25AE87F] [9BDB464D]
19 98,8 [39F6527F] [81110D4C]
20 98,8 [58D0A5FB] [D278D1D0]
21 98,8 [F97F35F5] [0F17CD2B]

Procol Harum - 9 Albums (1967-1977) [2009 Salvo Reissues] Re-up

–––––––––––––––––––––––––––––––––-

Procol Harum - 9 Albums (1967-1977) [2009 Salvo Reissues] Re-up

CD02: Procol Harum - A Salty Dog (1969) [2009, Salvo]
Progressive / Art-Rock | EAC Rip | Flac (Image) + Cue + Log | MP3 CBR 320Kbps
Scans -> 70 Mb | Salvo, SALVOCD020 | ~398 + 160 Mb

Review by Bruce Eder [-]

This album, the group's third, was where they showed just how far their talents extended across the musical landscape, from blues to R&B to classical rock. In contrast to their hastily recorded debut, or its successor, done to stretch their performance and composition range, A Salty Dog was recorded in a reasonable amount of time, giving the band a chance to fully develop their ideas. The title track is one of the finest songs ever to come from Procol Harum and one of the best pieces of progressive rock ever heard, and a very succinct example at that at under five minutes running time – the lyric and the music combine to form a perfect mood piece, and the performance is bold and subtle at once, in the playing and the singing, respectively. The range of sounds on the rest includes "Juicy John Pink," a superb piece of pre-World War II-style country blues, while "Crucifiction Lane" is a killer Otis Redding-style soul piece, and "Pilgrim's Progress" is a virtuoso keyboard workout.

by Bruce Eder, AMG
Tracklist:

1. A Salty Dog (4:34)
2. The Milk Of Human Kindness (3:40)
3. Too Much Between Us (3:39)
4. The Devil Came From Kansas (4:30)
5. Boredom (4:28)
6. Juicy John Pink (2:01)
7. Wreck Of The Hesperus (3:41)
8. All This And More (3:45)
9. Crucifiction Lane (4:53)
10. Pilgrim's Progress (4:23)
11. Long Gone Geek (3:15)
12. Goin' Down Slow (live in the USA, Easter 1969) (7:48)
13. Juicy John Pink (live in the USA, Easter 1969) (2:38)
14. Crucification Lane (live in the USA, Easter 1969) (4:34)
15. Skip Softly (My Moonbeams) \ Also Sprach Zarathustra (live in the USA, Easter 1969) (05:26)
16. The Milk Of Human Kindness (take 1; raw track) (3:46)

Exact Audio Copy V0.99 prebeta 5 from 4. May 2009

EAC extraction logfile from 9. August 2010, 17:30

Procol Harum / A Salty Dog

Used drive : ASUS DRW-2014L1T Adapter: 4 ID: 2

Read mode : Secure
Utilize accurate stream : Yes
Defeat audio cache : Yes
Make use of C2 pointers : No

Read offset correction : 6
Overread into Lead-In and Lead-Out : No
Fill up missing offset samples with silence : Yes
Delete leading and trailing silent blocks : No
Null samples used in CRC calculations : Yes
Used interface : Native Win32 interface for Win NT & 2000

Used output format : User Defined Encoder
Selected bitrate : 768 kBit/s
Quality : High
Add ID3 tag : No
Command line compressor : F:\Program Files\Exact Audio Copy\FLAC\FLAC.EXE
Additional command line options : -T "DATE=%y" -T "GENRE=%m" -8 -V %s


TOC of the extracted CD

Track | Start | Length | Start sector | End sector
––––––––––––––––––––––––––––-
1 | 0:00.00 | 4:38.57 | 0 | 20906
2 | 4:38.57 | 3:44.08 | 20907 | 37714
3 | 8:22.65 | 3:40.30 | 37715 | 54244
4 | 12:03.20 | 4:32.65 | 54245 | 74709
5 | 16:36.10 | 4:36.38 | 74710 | 95447
6 | 21:12.48 | 2:04.27 | 95448 | 104774
7 | 23:17.00 | 3:44.29 | 104775 | 121603
8 | 27:01.29 | 3:47.35 | 121604 | 138663
9 | 30:48.64 | 4:56.11 | 138664 | 160874
10 | 35:45.00 | 4:33.22 | 160875 | 181371
11 | 40:18.22 | 3:17.68 | 181372 | 196214
12 | 43:36.15 | 7:48.05 | 196215 | 231319
13 | 51:24.20 | 2:38.57 | 231320 | 243226
14 | 54:03.02 | 4:34.55 | 243227 | 263831
15 | 58:37.57 | 5:28.41 | 263832 | 288472
16 | 64:06.23 | 3:46.47 | 288473 | 305469


Range status and errors

Selected range

Filename W:\EAC\Procol Harum\Procol Harum - A Salty Dog\Procol Harum - A Salty Dog.wav

Peak level 98.8 %
Range quality 100.0 %
Copy CRC 9E5D5FB5
Copy OK

No errors occurred


AccurateRip summary

Track 1 accurately ripped (confidence 17) [5DC724F6]
Track 2 accurately ripped (confidence 16) [51EED648]
Track 3 accurately ripped (confidence 16) [09980BFB]
Track 4 accurately ripped (confidence 16) [1378E284]
Track 5 accurately ripped (confidence 16) [2F708780]
Track 6 accurately ripped (confidence 16) [A142AB33]
Track 7 accurately ripped (confidence 16) [9FF0CEC3]
Track 8 accurately ripped (confidence 17) [D7E82324]
Track 9 accurately ripped (confidence 16) [1D292386]
Track 10 accurately ripped (confidence 17) [371BD85F]
Track 11 accurately ripped (confidence 15) [664AEC76]
Track 12 accurately ripped (confidence 16) [C3B02A81]
Track 13 accurately ripped (confidence 16) [8C0E07CC]
Track 14 accurately ripped (confidence 14) [57BD9D3C]
Track 15 accurately ripped (confidence 15) [CF64585D]
Track 16 accurately ripped (confidence 14) [ECC71A68]

All tracks accurately ripped

End of status report

foobar2000 1.2.9 / Dynamic Range Meter 1.1.1
log date: 2014-11-04 21:18:45

––––––––––––––––––––––––––––––––––––––––
Analyzed: Procol Harum / A Salty Dog
––––––––––––––––––––––––––––––––––––––––

DR Peak RMS Duration Track
––––––––––––––––––––––––––––––––––––––––
DR8 -0.10 dB -11.95 dB 4:39 01-A Salty Dog
DR10 -0.10 dB -11.71 dB 3:44 02-The Milk Of Human Kindness
DR9 -0.10 dB -12.48 dB 3:40 03-Too Much Between Us
DR9 -0.10 dB -10.94 dB 4:33 04-The Devil Came From Kansas
DR9 -0.10 dB -12.19 dB 4:37 05-Boredom
DR10 -0.10 dB -11.82 dB 2:04 06-Juicy John Pink
DR9 -0.10 dB -10.80 dB 3:44 07-Wreck Of The Hesperus
DR9 -0.10 dB -11.54 dB 3:47 08-All This And More
DR10 -0.10 dB -11.75 dB 4:56 09-Crucifiction Lane
DR10 -0.10 dB -12.08 dB 4:33 10-Pilgrim's Progress
DR10 -0.10 dB -11.39 dB 3:18 11-Long Gone Geek
DR10 -0.10 dB -12.14 dB 7:48 12-Goin' Down Slow (live in the USA, Easter 1969)
DR8 -0.10 dB -10.14 dB 2:39 13-Juicy John Pink (live in the USA, Easter 1969)
DR8 -0.10 dB -10.47 dB 4:35 14-Crucification Lane (live in the USA, Easter 1969)
DR9 -0.10 dB -10.82 dB 5:29 15-Skip Softly (My Moonbeams) \ Also Sprach Zarathustra (live)
DR10 -0.10 dB -11.40 dB 3:47 16-The Milk Of Human Kindness (take 1; raw track)
––––––––––––––––––––––––––––––––––––––––

Number of tracks: 16
Official DR value: DR9

Samplerate: 44100 Hz
Channels: 2
Bits per sample: 16
Bitrate: 794 kbps
Codec: FLAC

[CUETools log; Date: 04.11.2014 2:29:03; Version: 2.1.4]
[CTDB TOCID: hvRag4f.wjmS52dWpxXHvM3OsjI-] found.
Track | CTDB Status
1 | (25/25) Accurately ripped
2 | (25/25) Accurately ripped
3 | (25/25) Accurately ripped
4 | (25/25) Accurately ripped
5 | (25/25) Accurately ripped
6 | (25/25) Accurately ripped
7 | (25/25) Accurately ripped
8 | (25/25) Accurately ripped
9 | (25/25) Accurately ripped
10 | (25/25) Accurately ripped
11 | (25/25) Accurately ripped
12 | (25/25) Accurately ripped
13 | (25/25) Accurately ripped
14 | (25/25) Accurately ripped
15 | (23/25) Accurately ripped
16 | (22/25) Accurately ripped
[AccurateRip ID: 00266f44-01d001f9-ea0fe810] found.
Track [ CRC | V2 ] Status
01 [5dc724f6|1e5f919e] (021+010/104) Accurately ripped
02 [51eed648|ffcdb9e7] (020+010/103) Accurately ripped
03 [09980bfb|4fe6e1d2] (020+010/103) Accurately ripped
04 [1378e284|bb7bd19b] (020+010/103) Accurately ripped
05 [2f708780|234f9cfc] (020+010/103) Accurately ripped
06 [a142ab33|053c79a0] (020+010/103) Accurately ripped
07 [9ff0cec3|8fd96b49] (020+010/103) Accurately ripped
08 [d7e82324|ffec8482] (021+010/104) Accurately ripped
09 [1d292386|bdddf2e8] (020+010/103) Accurately ripped
10 [371bd85f|69ce5999] (021+010/104) Accurately ripped
11 [664aec76|71241df5] (019+011/101) Accurately ripped
12 [c3b02a81|ffd3dd03] (020+013/103) Accurately ripped
13 [8c0e07cc|d2bd912c] (020+012/103) Accurately ripped
14 [57bd9d3c|4e2266dc] (018+012/101) Accurately ripped
15 [cf64585d|d8e1313d] (019+012/091) Accurately ripped
16 [ecc71a68|ee1dbd5e] (018+012/095) Accurately ripped
Offsetted by -664:
01 [afaa86c6] (009/104) Accurately ripped
02 [fba67014] (009/103) Accurately ripped
03 [6dd0f780] (009/103) Accurately ripped
04 [df29bd8b] (009/103) Accurately ripped
05 [105eaeec] (009/103) Accurately ripped
06 [1d41afb9] (009/103) Accurately ripped
07 [7f9e1581] (009/103) Accurately ripped
08 [2e5c28b4] (009/104) Accurately ripped
09 [103dad4f] (009/103) Accurately ripped
10 [9cf1a32e] (009/104) Accurately ripped
11 [89654927] (007/101) Accurately ripped
12 [5455fba6] (007/103) Accurately ripped
13 [64940bcc] (007/103) Accurately ripped
14 [d9943ef9] (007/101) Accurately ripped
15 [e47bbc33] (002/091) Accurately ripped
16 [d52f7ca0] (006/095) Accurately ripped
Offsetted by -18:
01 [65798398] (014/104) Accurately ripped
02 [21744c73] (014/103) Accurately ripped
03 [4ca9e34c] (014/103) Accurately ripped
04 [e61c5df1] (014/103) Accurately ripped
05 [f95e9fc4] (014/103) Accurately ripped
06 [06b190e7] (014/103) Accurately ripped
07 [561129e5] (014/103) Accurately ripped
08 [94ddca4c] (014/104) Accurately ripped
09 [e881b99a] (014/103) Accurately ripped
10 [9a1c5f90] (014/104) Accurately ripped
11 [1a0ac8c8] (014/101) Accurately ripped
12 [5f7cf94d] (014/103) Accurately ripped
13 [34fb06c8] (014/103) Accurately ripped
14 [5688271e] (014/101) Accurately ripped
15 [f5e8bc10] (014/091) Accurately ripped
16 [769b7431] (014/095) Accurately ripped

Track Peak [ CRC32 ] [W/O NULL] [ LOG ]
– 98,8 [9E5D5FB5] [23E93131] CRC32
01 98,8 [ACD8D7A2] [5E795BCD]
02 98,8 [12923B03] [BE70AC85]
03 98,8 [7EE48002] [6C462A4F]
04 98,8 [96ED01DD] [B9BE8E49]
05 98,8 [87C056F0] [0FF355F5]
06 98,8 [6694BFAA] [6E6F57B5]
07 98,8 [5CB764DA] [C20479BD]
08 98,8 [E3B20899] [99053908]
09 98,8 [523D0CCF] [236FB5FA]
10 98,8 [C25E3AB7] [AFEB75A5]
11 98,8 [FA0423CF] [0DD4117F]
12 98,8 [433C739A] [609856A8]
13 98,8 [48854E29] [98B36ED7]
14 98,8 [874935F4] [8E2DFEA8]
15 98,8 [C7A0E0C6] [6B71FA26]
16 98,8 [572CBBA9] [98EE347F]

Procol Harum - 9 Albums (1967-1977) [2009 Salvo Reissues] Re-up

–––––––––––––––––––––––––––––––––-

Procol Harum - 9 Albums (1967-1977) [2009 Salvo Reissues] Re-up

CD03: Procol Harum - Home (1970) [2009, Salvo]
Progressive / Art-Rock | EAC Rip | Flac (Image) + Cue + Log | MP3 CBR 320Kbps
Scans -> 69 Mb | Salvo, SALVOCD021 | ~324 + 121 Mb

The group's hardest-rocking classic album is, beyond some superb vocalizing by Gary Brooker, principally a showcase for Robin Trower's high-powered guitar and a rock-hard rhythm section, with B.J. Wilson only a little less animated than Ginger Baker on some of the music. Procol Harum had a split personality by this time, the band juxtaposing straight-ahead rock & roll numbers like "Still There'll Be More" and the Elvis Presley-influenced "Whisky Train" with darker, more dramatic pieces like "Nothing That I Didn't Know" and "Barnyard Story." Chris Copping doubles on organ, replacing Matthew Fisher, but the overall sound is that of a leaner Procol Harum, all except for the ambitious "Whaling Stories" – even it was a compromise that nearly worked, showcasing Trower's larger-than-life guitar sound (coming off here like King Crimson's Robert Fripp in one of his heavier moments) within a somewhat pretentious art rock concept. It shows the strains within their lineup that the producers chose the lighter, more obviously accessible "Your Own Choice" – on which Gary Brooker's piano is the lead instrument – to end the album after "Whaling Stories"' pyrotechnic finish.

by Bruce Eder, AMG
Tracklist:

1. Whisky Train (4:26)
2. The Dead Man's Dream (4:40)
3. Still There'll Be More (4:53)
4. Nothing That I Didn't Know (3:34)
5. About To Die (3:35)
6. Barnyard Story (2:43)
7. Piggy Pig Pig (4:43)
8. Whaling Stories (7:01)
9. Your Own Choice (3:06)
10. Still There'll Be More (take 3; raw track) (4:57)
11. Whaling Stories (raw track) (7:05)

Exact Audio Copy V0.99 prebeta 5 from 4. May 2009

EAC extraction logfile from 9. August 2010, 17:55

Procol Harum / Home

Used drive : ASUS DRW-2014L1T Adapter: 4 ID: 2

Read mode : Secure
Utilize accurate stream : Yes
Defeat audio cache : Yes
Make use of C2 pointers : No

Read offset correction : 6
Overread into Lead-In and Lead-Out : No
Fill up missing offset samples with silence : Yes
Delete leading and trailing silent blocks : No
Null samples used in CRC calculations : Yes
Used interface : Native Win32 interface for Win NT & 2000

Used output format : User Defined Encoder
Selected bitrate : 768 kBit/s
Quality : High
Add ID3 tag : No
Command line compressor : F:\Program Files\Exact Audio Copy\FLAC\FLAC.EXE
Additional command line options : -T "DATE=%y" -T "GENRE=%m" -8 -V %s


TOC of the extracted CD

Track | Start | Length | Start sector | End sector
––––––––––––––––––––––––––––-
1 | 0:00.00 | 4:26.34 | 0 | 19983
2 | 4:26.34 | 4:40.08 | 19984 | 40991
3 | 9:06.42 | 4:54.03 | 40992 | 63044
4 | 14:00.45 | 3:34.42 | 63045 | 79136
5 | 17:35.12 | 3:43.00 | 79137 | 95861
6 | 21:18.12 | 2:43.32 | 95862 | 108118
7 | 24:01.44 | 4:43.00 | 108119 | 129343
8 | 28:44.44 | 7:01.53 | 129344 | 160971
9 | 35:46.22 | 3:16.55 | 160972 | 175726
10 | 39:03.02 | 4:59.06 | 175727 | 198157
11 | 44:02.08 | 7:05.69 | 198158 | 230101


Range status and errors

Selected range

Filename W:\EAC\Procol Harum\Procol Harum - Home\Procol Harum - Home.wav

Peak level 98.8 %
Range quality 100.0 %
Copy CRC 49F598B5
Copy OK

No errors occurred


AccurateRip summary

Track 1 accurately ripped (confidence 9) [068ECFCA]
Track 2 accurately ripped (confidence 9) [EE408B59]
Track 3 accurately ripped (confidence 9) [7CBDA66C]
Track 4 accurately ripped (confidence 9) [C019E462]
Track 5 accurately ripped (confidence 9) [E3383EDB]
Track 6 accurately ripped (confidence 9) [F1158FF2]
Track 7 accurately ripped (confidence 8) [328E272B]
Track 8 accurately ripped (confidence 9) [9C0FA6CE]
Track 9 accurately ripped (confidence 9) [1DB29675]
Track 10 accurately ripped (confidence 9) [9EB1D239]
Track 11 accurately ripped (confidence 9) [2B03AB81]

All tracks accurately ripped

End of status report

foobar2000 1.2.9 / Dynamic Range Meter 1.1.1
log date: 2014-11-04 21:19:04

––––––––––––––––––––––––––––––––––––––––
Analyzed: Procol Harum / Home
––––––––––––––––––––––––––––––––––––––––

DR Peak RMS Duration Track
––––––––––––––––––––––––––––––––––––––––
DR10 -0.10 dB -11.86 dB 4:26 01-Whisky Train
DR10 -0.10 dB -13.57 dB 4:40 02-The Dead Man's Dream
DR9 -0.10 dB -11.16 dB 4:54 03-Still There'll Be More
DR11 -0.10 dB -14.14 dB 3:35 04-Nothing That I Didn't Know
DR10 -0.10 dB -11.90 dB 3:43 05-About To Die
DR10 -0.10 dB -14.17 dB 2:43 06-Barnyard Story
DR9 -0.10 dB -11.27 dB 4:43 07-Piggy Pig Pig
DR9 -0.10 dB -12.37 dB 7:02 08-Whaling Stories
DR10 -0.10 dB -12.07 dB 3:17 09-Your Own Choice
DR9 -0.10 dB -10.90 dB 4:59 10-Still There'll Be More (take 3; raw track)
DR9 -0.10 dB -13.16 dB 7:06 11-Whaling Stories (raw track)
––––––––––––––––––––––––––––––––––––––––

Number of tracks: 11
Official DR value: DR10

Samplerate: 44100 Hz
Channels: 2
Bits per sample: 16
Bitrate: 859 kbps
Codec: FLAC

[CUETools log; Date: 04.11.2014 2:29:20; Version: 2.1.4]
[CTDB TOCID: kism_tSeR8oag9elKI58SocIcEA-] found.
Track | CTDB Status
1 | (14/14) Accurately ripped
2 | (14/14) Accurately ripped
3 | (14/14) Accurately ripped
4 | (14/14) Accurately ripped
5 | (14/14) Accurately ripped
6 | (14/14) Accurately ripped
7 | (14/14) Accurately ripped
8 | (14/14) Accurately ripped
9 | (14/14) Accurately ripped
10 | (14/14) Accurately ripped
11 | (14/14) Accurately ripped
[AccurateRip ID: 0013dbc2-00accc83-920bfc0b] found.
Track [ CRC | V2 ] Status
01 [068ecfca|82086786] (15+08/44) Accurately ripped
02 [ee408b59|028f504f] (15+08/44) Accurately ripped
03 [7cbda66c|62820098] (15+07/43) Accurately ripped
04 [c019e462|ed5def7b] (15+08/44) Accurately ripped
05 [e3383edb|29778b39] (15+07/43) Accurately ripped
06 [f1158ff2|cdc385fd] (15+07/43) Accurately ripped
07 [328e272b|234f7181] (14+08/43) Accurately ripped
08 [9c0fa6ce|343102c7] (15+07/43) Accurately ripped
09 [1db29675|0278bc4f] (15+07/43) Accurately ripped
10 [9eb1d239|b035bb53] (15+07/43) Accurately ripped
11 [2b03ab81|71f556ba] (15+08/43) Accurately ripped
Offsetted by -664:
01 [0854f9e6] (02/44) Accurately ripped
02 [31b19b65] (02/44) Accurately ripped
03 [2bbbbe2d] (02/43) Accurately ripped
04 [d4a4b732] (02/44) Accurately ripped
05 [bd310d11] (02/43) Accurately ripped
06 [45cede29] (02/43) Accurately ripped
07 [e1b4ceb3] (02/43) Accurately ripped
08 [add371d5] (02/43) Accurately ripped
09 [fbf43248] (02/43) Accurately ripped
10 [8e613965] (02/43) Accurately ripped
11 [cd7ef718] (02/43) Accurately ripped

Track Peak [ CRC32 ] [W/O NULL] [ LOG ]
– 98,8 [49F598B5] [1678E4D6] CRC32
01 98,8 [93B694AA] [95D8A53A]
02 98,8 [90D78B1B] [2C8C6F27]
03 98,8 [612DBA4B] [9794D6D0]
04 98,8 [5724DAB6] [6768DFD0]
05 98,8 [004AD961] [886E4198]
06 98,8 [D7644B98] [DBFF10ED]
07 98,8 [D3D26630] [268C6C24]
08 98,8 [D71756C0] [1DFAE403]
09 98,8 [4C73FBB7] [AC13FA81]
10 98,8 [27D23212] [BCD17691]
11 98,8 [28D4D76A] [8124EBB8]

Procol Harum - 9 Albums (1967-1977) [2009 Salvo Reissues] Re-up

–––––––––––––––––––––––––––––––––-

Procol Harum - 9 Albums (1967-1977) [2009 Salvo Reissues] Re-up

CD04: Procol Harum - Broken Barricades (1971) [2009, Salvo]
Progressive / Art-Rock | EAC Rip | Flac (Image) + Cue + Log | MP3 CBR 320Kbps
Scans -> 117 Mb | Salvo, SALVOCD022 | ~359 + 125 Mb

Despite the departure of organist Matthew Fisher, Procol Harum survived, and this album is ample proof. Fisher was one of the prime architects of the Harum sound, and his work on such classics as "Shine on Brightly" and, of course, "Whiter Shade of Pale" underline that. Procol continued as a four-piece, and it was indeed a good thing that they decided not to replace Fisher. The sound of the band on this album is a bit sparser, but definitely not without dimension and dynamics. "Simple Sister," one of the finest Gary Brooker/Keith Reid compositions, is truly glorious, with Robin Trower's frightening lead guitar work juxtaposed nicely against a wonderful string arrangement. Several other tracks are first rate, including "Power Failure" and "Playmate of the Mouth." Along with Little Feat, Procol Harum was a great survivor among rock bands that have lost a key member. The proof is in these grooves.

by Matthew Greenwald, AMG
Tracklist:

1. Simple Sister (5:48)
2. Broken Barricades (3:09)
3. Memorial Drive (3:43)
4. Luskus Delph (3:44)
5. Power Failure (4:29)
6. Song For A Dreamer (5:36)
7. Playmate Of The Mouth (5:02)
8. Poor Mohammed (3:06)
9. Broken Barricades (long fade) (raw track) (3:57)
10. Simple Sister (raw track) (5:49)
11. Poor Mohammed (backing track) (2:43)
12. Song For A Dreamer (King Jimi) (backing track) (4:56)

Exact Audio Copy V0.99 prebeta 5 from 4. May 2009

EAC extraction logfile from 9. August 2010, 18:12

Procol Harum / Broken Barricades

Used drive : ASUS DRW-2014L1T Adapter: 4 ID: 2

Read mode : Secure
Utilize accurate stream : Yes
Defeat audio cache : Yes
Make use of C2 pointers : No

Read offset correction : 6
Overread into Lead-In and Lead-Out : No
Fill up missing offset samples with silence : Yes
Delete leading and trailing silent blocks : No
Null samples used in CRC calculations : Yes
Used interface : Native Win32 interface for Win NT & 2000

Used output format : User Defined Encoder
Selected bitrate : 768 kBit/s
Quality : High
Add ID3 tag : No
Command line compressor : F:\Program Files\Exact Audio Copy\FLAC\FLAC.EXE
Additional command line options : -T "DATE=%y" -T "GENRE=%m" -8 -V %s


TOC of the extracted CD

Track | Start | Length | Start sector | End sector
––––––––––––––––––––––––––––-
1 | 0:00.00 | 5:51.55 | 0 | 26379
2 | 5:51.55 | 3:12.15 | 26380 | 40794
3 | 9:03.70 | 3:48.15 | 40795 | 57909
4 | 12:52.10 | 3:51.59 | 57910 | 75293
5 | 16:43.69 | 4:33.35 | 75294 | 95803
6 | 21:17.29 | 5:40.58 | 95804 | 121361
7 | 26:58.12 | 5:05.15 | 121362 | 144251
8 | 32:03.27 | 3:15.49 | 144252 | 158925
9 | 35:19.01 | 3:58.20 | 158926 | 176795
10 | 39:17.21 | 5:50.28 | 176796 | 203073
11 | 45:07.49 | 2:44.55 | 203074 | 215428
12 | 47:52.29 | 4:56.33 | 215429 | 237661


Range status and errors

Selected range

Filename W:\EAC\Procol Harum\Procol Harum - Broken Barricades\Procol Harum - Broken Barricades.wav

Peak level 98.8 %
Range quality 100.0 %
Copy CRC 1AA95CA2
Copy OK

No errors occurred


AccurateRip summary

Track 1 accurately ripped (confidence 8) [5E6A6127]
Track 2 accurately ripped (confidence 8) [E04FD49E]
Track 3 accurately ripped (confidence 8) [1D76D5C3]
Track 4 accurately ripped (confidence 8) [BD4D0F65]
Track 5 accurately ripped (confidence 8) [2098C33C]
Track 6 accurately ripped (confidence 8) [CE0CE002]
Track 7 accurately ripped (confidence 8) [0281C6E3]
Track 8 accurately ripped (confidence 8) [A29B460B]
Track 9 accurately ripped (confidence 8) [326C3951]
Track 10 accurately ripped (confidence 8) [2EA8EEF2]
Track 11 accurately ripped (confidence 8) [A9C0A520]
Track 12 accurately ripped (confidence 8) [893E244D]

All tracks accurately ripped

End of status report

foobar2000 1.2.9 / Dynamic Range Meter 1.1.1
log date: 2014-11-04 21:19:23

––––––––––––––––––––––––––––––––––––––––
Analyzed: Procol Harum / Broken Barricades
––––––––––––––––––––––––––––––––––––––––

DR Peak RMS Duration Track
––––––––––––––––––––––––––––––––––––––––
DR9 -0.10 dB -10.09 dB 5:52 01-Simple Sister
DR9 -0.10 dB -11.06 dB 3:12 02-Broken Barricades
DR9 -0.10 dB -9.57 dB 3:48 03-Memorial Drive
DR8 -0.10 dB -10.59 dB 3:52 04-Luskus Delph
DR9 -0.10 dB -10.98 dB 4:33 05-Power Failure
DR8 -0.10 dB -9.83 dB 5:41 06-Song For A Dreamer
DR9 -0.10 dB -10.49 dB 5:05 07-Playmate Of The Mouth
DR9 -0.10 dB -10.52 dB 3:16 08-Poor Mohammed
DR10 -0.10 dB -11.95 dB 3:58 09-Broken Barricades (long fade) (raw track)
DR10 -0.10 dB -11.27 dB 5:50 10-Simple Sister (raw track)
DR10 -0.10 dB -11.24 dB 2:45 11-Poor Mohammed (backing track)
DR10 -0.10 dB -12.16 dB 4:56 12-Song For A Dreamer (King Jimi) (backing track)
––––––––––––––––––––––––––––––––––––––––

Number of tracks: 12
Official DR value: DR9

Samplerate: 44100 Hz
Channels: 2
Bits per sample: 16
Bitrate: 903 kbps
Codec: FLAC

[CUETools log; Date: 04.11.2014 2:29:33; Version: 2.1.4]
[CTDB TOCID: raPIrFUuU5uqFwLfAhMWarksdAQ-] found.
Track | CTDB Status
1 | (20/20) Accurately ripped
2 | (20/20) Accurately ripped
3 | (20/20) Accurately ripped
4 | (20/20) Accurately ripped
5 | (20/20) Accurately ripped
6 | (20/20) Accurately ripped
7 | (20/20) Accurately ripped
8 | (20/20) Accurately ripped
9 | (20/20) Accurately ripped
10 | (20/20) Accurately ripped
11 | (20/20) Accurately ripped
12 | (20/20) Accurately ripped
[AccurateRip ID: 0017b514-00dcc58c-a00c600c] found.
Track [ CRC | V2 ] Status
01 [5e6a6127|d7531050] (12+11/55) Accurately ripped
02 [e04fd49e|4fb788ec] (12+11/56) Accurately ripped
03 [1d76d5c3|9b7365ed] (12+11/56) Accurately ripped
04 [bd4d0f65|27258f9d] (12+11/56) Accurately ripped
05 [2098c33c|ef6d5474] (12+11/56) Accurately ripped
06 [ce0ce002|4c60b261] (12+11/56) Accurately ripped
07 [0281c6e3|294a54e0] (12+11/56) Accurately ripped
08 [a29b460b|75af323d] (11+11/54) Accurately ripped
09 [326c3951|866d1750] (13+11/57) Accurately ripped
10 [2ea8eef2|211907da] (13+11/56) Accurately ripped
11 [a9c0a520|2403d1cc] (13+11/56) Accurately ripped
12 [893e244d|91c1fded] (13+12/57) Accurately ripped
Offsetted by -676:
01 [861f73e2] (02/55) Accurately ripped
02 [16c2d3aa] (02/56) Accurately ripped
03 [13e586ff] (02/56) Accurately ripped
04 [ce9cf5d8] (02/56) Accurately ripped
05 [e3039a7d] (02/56) Accurately ripped
06 [c38ca19d] (02/56) Accurately ripped
07 [24c1982a] (02/56) Accurately ripped
08 [d24212bd] (02/54) Accurately ripped
09 [6642c3ba] (02/57) Accurately ripped
10 [c4c9c3a3] (02/56) Accurately ripped
11 [b1101484] (02/56) Accurately ripped
12 [900b0913] (02/57) Accurately ripped
Offsetted by -18:
01 [3d7f9307] (05/55) Accurately ripped
02 [e769aebf] (05/56) Accurately ripped
03 [785f0048] (05/56) Accurately ripped
04 [c257640d] (05/56) Accurately ripped
05 [71c7f41b] (05/56) Accurately ripped
06 [1f9d130c] (05/56) Accurately ripped
07 [b0a0e1b7] (05/56) Accurately ripped
08 [8cd2e735] (05/54) Accurately ripped
09 [48260bf1] (05/57) Accurately ripped
10 [78e5c7e5] (05/56) Accurately ripped
11 [5de6b252] (05/56) Accurately ripped
12 [66a67f59] (05/57) Accurately ripped

Track Peak [ CRC32 ] [W/O NULL] [ LOG ]
– 98,8 [1AA95CA2] [FAE85597] CRC32
01 98,8 [494C178F] [9AEBC50D]
02 98,8 [835ADCCE] [C1CEC31D]
03 98,8 [7BBCD337] [67C0C9B7]
04 98,8 [E419184C] [475BBA45]
05 98,8 [861DD999] [284C6859]
06 98,8 [1572A425] [33CBB34D]
07 98,8 [9B89AE43] [71900E6A]
08 98,8 [005A362E] [8130610B]
09 98,8 [C5B7A48F] [7D4F3717]
10 98,8 [D022E6CD] [70E33782]
11 98,8 [E9F0EF06] [3ED59DE3]
12 98,8 [AB79D07C] [8D3B7405]

Procol Harum - 9 Albums (1967-1977) [2009 Salvo Reissues] Re-up

–––––––––––––––––––––––––––––––––-

Procol Harum - 9 Albums (1967-1977) [2009 Salvo Reissues] Re-up

CD05: Procol Harum - Live With The Edmonton Symphony Orchestra (1972) [2009, Salvo]
Progressive / Art-Rock | EAC Rip | Flac (Image) + Cue + Log | MP3 CBR 320Kbps
Scans -> 75 Mb | Salvo, SALVOCD023 | ~359 + 125 Mb

This whole album was an afterthought – Procol Harum had been invited to play a concert with the Edmonton Symphony Orchestra and the Da Camera Singers in Edmonton, Alberta, Canada, in August of 1971, at the tail-end of their last tour with Robin Trower in the lineup. Amid all of the preparation – including the writing of new orchestral arrangements by Gary Brooker and with a new lead guitarist, Dave Ball, just joining the lineup – Brooker decided that it might be a good idea to preserve a professionally made tape of the show and suggested that A&M Records, to which they were signed, might want to record the performance; the label agreed with just a week to go until the concert. Even "Conquistador," the song on which the resulting album's commercial success was built, was added at the last minute, with no time for the orchestra to rehearse the arrangement that Brooker wrote on the flight from England. They did it cold, opening the concert, and the eventual album featured a performance – highlighted by the orchestra's brass in a Spanish mode, running scales on the strings, and B.J. Wilson's powerful drumming – helped loft the single to number 16 in America. The group's second-biggest hit record (after "A Whiter Shade of Pale"), in turn, helped lift the album into the American Top Five. Ironically, the success of the LP also left Procol Harum's image slightly askew, with the presence of the orchestra and choir and the selection of songs, from the most ambitious part of the band's repertory, all combining to present the group as more of a progressive rock act than they actually were. "Conquistador" was the most accessible song on the album, and nothing else here matches it for sheer, bracing excitement, but the rest – especially "Whaling Stories" and "A Salty Dog" and the multi-part "In Held 'Twas I" – were all opened up by the vast canvas provided by the orchestra, and the group didn't wimp out in their own performance; Wilson, Ball, Brooker, and company all played hard and heavy where the songs required it.

by Bruce Eder, AMG
Tracklist:

1. Conquistador (5:01)
2. Whaling Stories (7:41)
3. A Salty Dog (5:34)
4. All This And More (4:21)
5. In Held Twas I (18:58)
6. Luskus Delph (live version) (3:36)
7. Simple Sister (rehearsal) (3:20)
8. Shine On Brightly (rehearsal) (4:04)

Exact Audio Copy V0.99 prebeta 5 from 4. May 2009

EAC extraction logfile from 9. August 2010, 18:31

Procol Harum / Live With The Edmonton Symphony Orchestra

Used drive : ASUS DRW-2014L1T Adapter: 4 ID: 2

Read mode : Secure
Utilize accurate stream : Yes
Defeat audio cache : Yes
Make use of C2 pointers : No

Read offset correction : 6
Overread into Lead-In and Lead-Out : No
Fill up missing offset samples with silence : Yes
Delete leading and trailing silent blocks : No
Null samples used in CRC calculations : Yes
Used interface : Native Win32 interface for Win NT & 2000

Used output format : User Defined Encoder
Selected bitrate : 768 kBit/s
Quality : High
Add ID3 tag : No
Command line compressor : F:\Program Files\Exact Audio Copy\FLAC\FLAC.EXE
Additional command line options : -T "DATE=%y" -T "GENRE=%m" -8 -V %s


TOC of the extracted CD

Track | Start | Length | Start sector | End sector
––––––––––––––––––––––––––––-
1 | 0:00.00 | 5:01.15 | 0 | 22589
2 | 5:01.15 | 7:41.51 | 22590 | 57215
3 | 12:42.66 | 5:34.30 | 57216 | 82295
4 | 18:17.21 | 4:29.18 | 82296 | 102488
5 | 22:46.39 | 19:07.46 | 102489 | 188559
6 | 41:54.10 | 3:38.14 | 188560 | 204923
7 | 45:32.24 | 3:20.55 | 204924 | 219978
8 | 48:53.04 | 4:04.65 | 219979 | 238343


Range status and errors

Selected range

Filename W:\EAC\Procol Harum\Procol Harum - Live With The Edmonton Symphony Orchestra\Procol Harum - Live With The Edmonton Symphony Orchestra.wav

Peak level 98.8 %
Range quality 100.0 %
Copy CRC 6C5E84FD
Copy OK

No errors occurred


AccurateRip summary

Track 1 accurately ripped (confidence 9) [6EE47643]
Track 2 accurately ripped (confidence 9) [7187C482]
Track 3 accurately ripped (confidence 9) [4B14B0ED]
Track 4 accurately ripped (confidence 9) [81BFEF61]
Track 5 accurately ripped (confidence 9) [AB7E2270]
Track 6 accurately ripped (confidence 9) [D585C9E7]
Track 7 accurately ripped (confidence 9) [25A49C6E]
Track 8 accurately ripped (confidence 9) [AF0E159D]

All tracks accurately ripped

End of status report

foobar2000 1.2.9 / Dynamic Range Meter 1.1.1
log date: 2014-11-04 21:19:44

––––––––––––––––––––––––––––––––––––––––
Analyzed: Procol Harum / Live With The Edmonton Symphony Orchestra
––––––––––––––––––––––––––––––––––––––––

DR Peak RMS Duration Track
––––––––––––––––––––––––––––––––––––––––
DR8 -0.10 dB -10.75 dB 5:01 01-Conquistador
DR8 -0.10 dB -11.02 dB 7:42 02-Whaling Stories
DR7 -0.10 dB -10.91 dB 5:34 03-A Salty Dog
DR8 -0.10 dB -10.54 dB 4:29 04-All This And More
DR7 -0.10 dB -10.47 dB 19:08 05-In Held Twas I
DR8 -0.10 dB -10.44 dB 3:38 06-Luskus Delph (live version)
DR9 -0.10 dB -10.91 dB 3:21 07-Simple Sister (rehearsal)
DR9 -0.10 dB -11.39 dB 4:05 08-Shine On Brightly (rehearsal)
––––––––––––––––––––––––––––––––––––––––

Number of tracks: 8
Official DR value: DR8

Samplerate: 44100 Hz
Channels: 2
Bits per sample: 16
Bitrate: 919 kbps
Codec: FLAC

[CUETools log; Date: 04.11.2014 2:29:45; Version: 2.1.4]
[CTDB TOCID: H5QF1Rh_6goFf6l3Qz.0tvzRVis-] found.
Track | CTDB Status
1 | (17/17) Accurately ripped
2 | (17/17) Accurately ripped
3 | (17/17) Accurately ripped
4 | (17/17) Accurately ripped
5 | (17/17) Accurately ripped
6 | (17/17) Accurately ripped
7 | (17/17) Accurately ripped
8 | (17/17) Accurately ripped
[AccurateRip ID: 001108ee-0072e2fe-6f0c6908] found.
Track [ CRC | V2 ] Status
01 [6ee47643|ad3167a5] (13+04/59) Accurately ripped
02 [7187c482|405103f8] (13+04/57) Accurately ripped
03 [4b14b0ed|c43e6040] (13+04/57) Accurately ripped
04 [81bfef61|91604366] (13+02/54) Accurately ripped
05 [ab7e2270|dd4c99c8] (13+02/54) Accurately ripped
06 [d585c9e7|abafc993] (13+03/55) Accurately ripped
07 [25a49c6e|15ed5702] (13+04/57) Accurately ripped
08 [af0e159d|94e0aa19] (13+04/56) Accurately ripped
Offsetted by -664:
01 [484c92de] (02/59) Accurately ripped
02 [01af421f] (02/57) Accurately ripped
03 [3c5697fe] (02/57) Accurately ripped
04 [ad397052] (02/54) Accurately ripped
05 [30745dcc] (02/54) Accurately ripped
06 [5b82cfc8] (02/55) Accurately ripped
07 [89c69887] (02/57) Accurately ripped
08 [791f0b22] (02/56) Accurately ripped
Offsetted by -18:
01 [9d7c07bb] (05/59) Accurately ripped
02 [e7089960] (05/57) Accurately ripped
03 [2406acad] (05/57) Accurately ripped
04 [4ec42178] (05/54) Accurately ripped
05 [2fbac767] (05/54) Accurately ripped
06 [be103187] (05/55) Accurately ripped
07 [ede85524] (05/57) Accurately ripped
08 [3651de94] (05/56) Accurately ripped
Offsetted by -30:
01 [4a825cd8] (02/59) Accurately ripped
02 [724413b4] (00/57) No match (V2 was not tested)
03 [19b176b6] (00/57) No match (V2 was not tested)
04 [48f71eb2] (00/54) No match (V2 was not tested)
05 [8aaef296] (00/54) No match (V2 was not tested)
06 [1ae31883] (00/55) No match (V2 was not tested)
07 [3e8325a4] (00/57) No match (V2 was not tested)
08 [3cd56d2b] (00/56) No match (V2 was not tested)

Track Peak [ CRC32 ] [W/O NULL] [ LOG ]
– 98,8 [6C5E84FD] [4B54479F] CRC32
01 98,8 [1ECA3BD2] [4ACD47B8]
02 98,8 [681C23DE] [951277D4]
03 98,8 [102F6363] [3B9B20C1]
04 98,8 [C0871470] [A6110A3C]
05 98,8 [FD4B389E] [B87144A9]
06 98,8 [8B690CF6] [7D98AD5A]
07 98,8 [0AE92768] [E54FB0F1]
08 98,8 [11DDBE8C] [510FCAC8]

Procol Harum - 9 Albums (1967-1977) [2009 Salvo Reissues] Re-up

–––––––––––––––––––––––––––––––––-

Procol Harum - 9 Albums (1967-1977) [2009 Salvo Reissues] Re-up

CD06: Procol Harum - Grand Hotel (1973) [2009, Salvo]
Progressive / Art-Rock | EAC Rip | Flac (Image) + Cue + Log | MP3 CBR 320Kbps
Scans -> 115 Mb | Salvo, SALVOCD024 | ~359 + 126 Mb

Procol Harum's first album for Chrysalis, Grand Hotel, found the band returning to the grandeur of earlier works such as Shine on Brightly and Salty Dog. Robin Trower's replacement Mick Grabham is capable, even powerful, but not nearly as distinctive as his predecessor; consequently, the material tends to rely more on ornate arrangements than guitar riffs, making this somewhat more dignified than either of their previous studio albums, Home and Broken Barricades. Brooker and lyricist Keith Reid step up with strong material, notably the title track, "Toujours L'Amour," and "Fires (Which Burnt Brightly)." While the keyboard and orchestra-based arrangements harken back to earlier triumphs, the lyrics deal less with whaling stories than with social commentary; "A Souvenir of London" is about social diseases, with "T.V. Caesar" about the pervasive influence of television.

by James A. Gardner, AMG
Tracklist:

1. Grand Hotel (6:05)
2. Toujours L'Amour (3:28)
3. A Rum Tale (3:17)
4. T.V. Ceasar (5:47)
5. A Souvenir Of London (3:18)
6. Bringing Home The Bacon (4:14)
7. For Liquorice John (4:20)
8. Fires (Which Burn Brightly) (5:05)
9. Robert's Box (4:40)
10. Grand Hotel (raw track without orchestra) (6:07)
11. Bringing Home The Bacon (raw track featuring Dave Ball) (6:06)

Exact Audio Copy V0.99 prebeta 5 from 4. May 2009

EAC extraction logfile from 9. August 2010, 18:54

Procol Harum / Grand Hotel

Used drive : ASUS DRW-2014L1T Adapter: 4 ID: 2

Read mode : Secure
Utilize accurate stream : Yes
Defeat audio cache : Yes
Make use of C2 pointers : No

Read offset correction : 6
Overread into Lead-In and Lead-Out : No
Fill up missing offset samples with silence : Yes
Delete leading and trailing silent blocks : No
Null samples used in CRC calculations : Yes
Used interface : Native Win32 interface for Win NT & 2000

Used output format : User Defined Encoder
Selected bitrate : 768 kBit/s
Quality : High
Add ID3 tag : No
Command line compressor : F:\Program Files\Exact Audio Copy\FLAC\FLAC.EXE
Additional command line options : -T "DATE=%y" -T "GENRE=%m" -8 -V %s


TOC of the extracted CD

Track | Start | Length | Start sector | End sector
––––––––––––––––––––––––––––-
1 | 0:00.00 | 6:08.42 | 0 | 27641
2 | 6:08.42 | 3:32.34 | 27642 | 43575
3 | 9:41.01 | 3:21.11 | 43576 | 58661
4 | 13:02.12 | 5:54.30 | 58662 | 85241
5 | 18:56.42 | 3:21.31 | 85242 | 100347
6 | 22:17.73 | 4:18.61 | 100348 | 119758
7 | 26:36.59 | 4:26.53 | 119759 | 139761
8 | 31:03.37 | 5:08.66 | 139762 | 162927
9 | 36:12.28 | 4:49.44 | 162928 | 184646
10 | 41:01.72 | 6:09.12 | 184647 | 212333
11 | 47:11.09 | 6:06.11 | 212334 | 239794


Range status and errors

Selected range

Filename W:\EAC\Procol Harum\Procol Harum - Grand Hotel\Procol Harum - Grand Hotel.wav

Peak level 98.8 %
Range quality 100.0 %
Copy CRC 16B6D02A
Copy OK

No errors occurred


AccurateRip summary

Track 1 accurately ripped (confidence 8) [7C87EC02]
Track 2 accurately ripped (confidence 8) [9C99F0D5]
Track 3 accurately ripped (confidence 8) [EA1D6541]
Track 4 accurately ripped (confidence 8) [98956049]
Track 5 accurately ripped (confidence 8) [F3F53399]
Track 6 accurately ripped (confidence 8) [6BF349A6]
Track 7 accurately ripped (confidence 8) [4E6A8473]
Track 8 accurately ripped (confidence 8) [AC3ECA40]
Track 9 accurately ripped (confidence 8) [B4D56E01]
Track 10 accurately ripped (confidence 8) [5C2695D4]
Track 11 accurately ripped (confidence 8) [1E783761]

All tracks accurately ripped

End of status report

foobar2000 1.2.9 / Dynamic Range Meter 1.1.1
log date: 2014-11-04 21:20:03

––––––––––––––––––––––––––––––––––––––––
Analyzed: Procol Harum / Grand Hotel
––––––––––––––––––––––––––––––––––––––––

DR Peak RMS Duration Track
––––––––––––––––––––––––––––––––––––––––
DR8 -0.10 dB -11.09 dB 6:09 01-Grand Hotel
DR10 -0.10 dB -11.31 dB 3:32 02-Toujours L'Amour
DR10 -0.10 dB -11.79 dB 3:21 03-A Rum Tale
DR10 -0.10 dB -10.91 dB 5:54 04-T.V. Ceasar
DR11 -0.10 dB -12.78 dB 3:21 05-A Souvenir Of London
DR9 -0.10 dB -11.12 dB 4:19 06-Bringing Home The Bacon
DR9 -0.10 dB -11.08 dB 4:27 07-For Liquorice John
DR10 -0.10 dB -11.56 dB 5:09 08-Fires (Which Burn Brightly)
DR10 -0.10 dB -11.52 dB 4:50 09-Robert's Box
DR10 -0.10 dB -13.36 dB 6:09 10-Grand Hotel (raw track without orchestra)
DR9 -0.10 dB -11.80 dB 6:06 11-Bringing Home The Bacon (raw track featuring Dave Ball)
––––––––––––––––––––––––––––––––––––––––

Number of tracks: 11
Official DR value: DR10

Samplerate: 44100 Hz
Channels: 2
Bits per sample: 16
Bitrate: 895 kbps
Codec: FLAC

[CUETools log; Date: 04.11.2014 2:29:57; Version: 2.1.4]
[CTDB TOCID: aHxfxBAShE0eKbepf2oQwUkuyOE-] found.
Track | CTDB Status
1 | (18/18) Accurately ripped
2 | (18/18) Accurately ripped
3 | (18/18) Accurately ripped
4 | (18/18) Accurately ripped
5 | (18/18) Accurately ripped
6 | (18/18) Accurately ripped
7 | (18/18) Accurately ripped
8 | (18/18) Accurately ripped
9 | (18/18) Accurately ripped
10 | (18/18) Accurately ripped
11 | (18/18) Accurately ripped
[AccurateRip ID: 0014f9e7-00b60f0c-a40c7d0b] found.
Track [ CRC | V2 ] Status
01 [7c87ec02|5faa0ce0] (17+06/64) Accurately ripped
02 [9c99f0d5|e993cc67] (17+06/64) Accurately ripped
03 [ea1d6541|5faaa481] (17+06/64) Accurately ripped
04 [98956049|f34aaed4] (17+05/63) Accurately ripped
05 [f3f53399|e640ea3e] (17+05/63) Accurately ripped
06 [6bf349a6|55197bcf] (17+06/64) Accurately ripped
07 [4e6a8473|6ba434e8] (17+05/63) Accurately ripped
08 [ac3eca40|05693fb3] (17+06/64) Accurately ripped
09 [b4d56e01|546bddd0] (17+06/64) Accurately ripped
10 [5c2695d4|c91e3aa8] (17+06/63) Accurately ripped
11 [1e783761|a8404a8c] (17+07/63) Accurately ripped
Offsetted by -676:
01 [e32f364b] (02/64) Accurately ripped
02 [bc873af7] (02/64) Accurately ripped
03 [f822c6e7] (02/64) Accurately ripped
04 [3bff563b] (02/63) Accurately ripped
05 [c4eb8663] (02/63) Accurately ripped
06 [b2c0f498] (02/64) Accurately ripped
07 [3947814e] (02/63) Accurately ripped
08 [55a84bd3] (02/64) Accurately ripped
09 [728f907e] (02/64) Accurately ripped
10 [198da592] (02/63) Accurately ripped
11 [d615be85] (02/63) Accurately ripped
Offsetted by -664:
01 [40a7a698] (09/64) Accurately ripped
02 [ec044448] (09/64) Accurately ripped
03 [e3e122ac] (09/64) Accurately ripped
04 [099a0c9f] (09/63) Accurately ripped
05 [a941a9c2] (09/63) Accurately ripped
06 [c7c0f6e4] (09/64) Accurately ripped
07 [dd7c8ddf] (09/63) Accurately ripped
08 [2a4dd976] (09/64) Accurately ripped
09 [637fbd0b] (09/64) Accurately ripped
10 [2f002312] (09/63) Accurately ripped
11 [bd06e096] (09/63) Accurately ripped

Track Peak [ CRC32 ] [W/O NULL] [ LOG ]
– 98,8 [16B6D02A] [A1A45E45] CRC32
01 98,8 [95F46700] [281C8810]
02 98,8 [CE0D3AF6] [D331B692]
03 98,8 [6409528A] [40C602CE]
04 98,8 [2D7D1B22] [6A5AA3B2]
05 98,8 [8A47EEE8] [0E650ACF]
06 98,8 [6C912B8D] [350B54D4]
07 98,8 [5483BA52] [AB2E5824]
08 98,8 [C61F3CBF] [DD9801AE]
09 98,8 [BFE4360B] [2EE0FB95]
10 98,8 [DD7559BE] [3294AB77]
11 98,8 [AC530595] [D83A4308]

Procol Harum - 9 Albums (1967-1977) [2009 Salvo Reissues] Re-up

–––––––––––––––––––––––––––––––––-

Procol Harum - 9 Albums (1967-1977) [2009 Salvo Reissues] Re-up

CD07: Procol Harum - Exotic Birds & Fruit (1974) [2009, Salvo]
Progressive / Art-Rock | EAC Rip | Flac (Image) + Cue + Log | MP3 CBR 320Kbps
Scans -> 143 Mb | Salvo, SALVOCD027 | ~330 + 111 Mb

In the old days of LPs, it used to be easy to set an automatic record player such that, when the needle came to the end of one side of a record, the tone arm would pick up, glide back to the outer rim of the disc, drop down, and start all over again. Thus, one could listen to the same 20 minutes of music repeatedly, and some people never bothered to turn the records over and listen to the other sides. If any LP might have been designed for this procedure, it was Procol Harum's seventh studio album, Exotic Birds and Fruit, initially released in April 1974. The four songs making up side one – "Nothing But the Truth," "Beyond the Pale," "As Strong as Samson," and "The Idol" – featured some of the band's best later work. They had retreated somewhat from the orchestral hybrid of their previous album, Grand Hotel, although "Nothing But the Truth" still boasted a string arrangement. They replaced the sweetening with extra muscle in the remaining instruments, making this one of the group's harder rocking sets. And lyricist Keith Reid, having explored elegant decay in Grand Hotel, was unusually straightforward in his social prescriptions here. True, the words still dripped with literary references to everything from Shakespeare to ancient mythology, but, as Reid declared up front, this time he was interested in "Nothing But the Truth." He expressed that truth most eloquently in "As Strong as Samson," an outright political statement, if one spoken in general terms. The song was also downcast, and composer/singer/pianist Gary Brooker gave it a lovely, wistful melody. The disillusionment was completed with the final song on the first side and its tagline, "Just another idol turned to clay." In contrast to the masterpiece that was side one, side two of the LP was uneven, containing second-echelon songs, the best of them perhaps being the most lighthearted, "Fresh Fruit," a tune that gave Brooker a chance to exercise his barrelhouse piano talents. In this CD reissue, annotator Patrick Humphries suggests that the rocker "Butterfly Boys" might have been directed at the executives at the band's label, Chrysalis Records. If so, they must have been unhappy, as Brooker cried, "Give us a break! We got the crumbs…you got the cake." The reissue adds two bonus tracks, the first being the non-LP B-side "Drunk Again" (Reid writes so much about drinking, it makes you worry about his liver), a rocker that allows Brooker to bring out his inner Jerry Lee Lewis. The second is an alternate mix of "As Strong as Samson" that is in a lower key than the master take. Since it seems to be the same take, just a bit slower (and 17 seconds longer), that may account for its being in D flat.

by William Ruhlmann, AMG
Tracklist:

1. Nothing But The Truth (3:10)
2. Beyond The Pale (3:01)
3. As Strong As Samson (5:04)
4. The Idol (6:36)
5. The Thin End Of The Wedge (3:42)
6. Monsieur R Monde (3:39)
7. Fresh Fruit (3:03)
8. Butterfly Boys (4:23)
9. New Lamps For Old (4:05)
10. Drunk Again (4:29)
11. As Strong As Samson (alt mix in D flat) (5:20)

Exact Audio Copy V0.99 prebeta 5 from 4. May 2009

EAC extraction logfile from 9. August 2010, 19:09

Procol Harum / Exotic Birds & Fruit

Used drive : ASUS DRW-2014L1T Adapter: 4 ID: 2

Read mode : Secure
Utilize accurate stream : Yes
Defeat audio cache : Yes
Make use of C2 pointers : No

Read offset correction : 6
Overread into Lead-In and Lead-Out : No
Fill up missing offset samples with silence : Yes
Delete leading and trailing silent blocks : No
Null samples used in CRC calculations : Yes
Used interface : Native Win32 interface for Win NT & 2000

Used output format : User Defined Encoder
Selected bitrate : 768 kBit/s
Quality : High
Add ID3 tag : No
Command line compressor : F:\Program Files\Exact Audio Copy\FLAC\FLAC.EXE
Additional command line options : -T "DATE=%y" -T "GENRE=%m" -8 -V %s


TOC of the extracted CD

Track | Start | Length | Start sector | End sector
––––––––––––––––––––––––––––-
1 | 0:00.00 | 3:13.18 | 0 | 14492
2 | 3:13.18 | 3:06.26 | 14493 | 28468
3 | 6:19.44 | 5:08.66 | 28469 | 51634
4 | 11:28.35 | 6:40.48 | 51635 | 81682
5 | 18:09.08 | 3:42.50 | 81683 | 98382
6 | 21:51.58 | 3:41.45 | 98383 | 115002
7 | 25:33.28 | 3:04.74 | 115003 | 128876
8 | 28:38.27 | 4:26.11 | 128877 | 148837
9 | 33:04.38 | 4:14.33 | 148838 | 167920
10 | 37:18.71 | 4:31.17 | 167921 | 188262
11 | 41:50.13 | 5:20.41 | 188263 | 212303


Range status and errors

Selected range

Filename W:\EAC\Procol Harum\Procol Harum - Exotic Birds & Fruit\Procol Harum - Exotic Birds & Fruit.wav

Peak level 98.8 %
Range quality 100.0 %
Copy CRC D362F748
Copy OK

No errors occurred


AccurateRip summary

Track 1 accurately ripped (confidence 3) [A7692ED4]
Track 2 accurately ripped (confidence 3) [717930D1]
Track 3 accurately ripped (confidence 3) [3958D9A3]
Track 4 accurately ripped (confidence 3) [6FA560F5]
Track 5 accurately ripped (confidence 3) [60C5C746]
Track 6 accurately ripped (confidence 3) [6C5AA644]
Track 7 accurately ripped (confidence 3) [41295559]
Track 8 accurately ripped (confidence 3) [1C7BBD99]
Track 9 accurately ripped (confidence 3) [B2AA1C85]
Track 10 accurately ripped (confidence 3) [5793C6FD]
Track 11 accurately ripped (confidence 3) [6AE1EE49]

All tracks accurately ripped

End of status report

foobar2000 1.2.9 / Dynamic Range Meter 1.1.1
log date: 2014-11-04 21:20:23

––––––––––––––––––––––––––––––––––––––––
Analyzed: Procol Harum / Exotic Birds & Fruit
––––––––––––––––––––––––––––––––––––––––

DR Peak RMS Duration Track
––––––––––––––––––––––––––––––––––––––––
DR9 -0.10 dB -10.01 dB 3:13 01-Nothing But The Truth
DR10 -0.10 dB -10.99 dB 3:06 02-Beyond The Pale
DR10 -0.10 dB -10.70 dB 5:09 03-As Strong As Samson
DR9 -0.10 dB -11.37 dB 6:41 04-The Idol
DR9 -0.10 dB -10.23 dB 3:43 05-The Thin End Of The Wedge
DR10 -0.10 dB -10.13 dB 3:42 06-Monsieur R Monde
DR10 -0.10 dB -10.36 dB 3:05 07-Fresh Fruit
DR9 -0.10 dB -11.06 dB 4:26 08-Butterfly Boys
DR9 -0.10 dB -11.33 dB 4:14 09-New Lamps For Old
DR9 -0.10 dB -10.12 dB 4:31 10-Drunk Again
DR9 -0.10 dB -10.25 dB 5:21 11-As Strong As Samson (alt mix in D flat)
––––––––––––––––––––––––––––––––––––––––

Number of tracks: 11
Official DR value: DR9

Samplerate: 44100 Hz
Channels: 2
Bits per sample: 16
Bitrate: 949 kbps
Codec: FLAC

[CUETools log; Date: 04.11.2014 2:30:08; Version: 2.1.4]
[CTDB TOCID: Yr5pB_boRbXNIKyzi0ghJLF_fC0-] found.
Track | CTDB Status
1 | (17/17) Accurately ripped
2 | (17/17) Accurately ripped
3 | (15/17) Accurately ripped
4 | (17/17) Accurately ripped
5 | (17/17) Accurately ripped
6 | (17/17) Accurately ripped
7 | (17/17) Accurately ripped
8 | (17/17) Accurately ripped
9 | (17/17) Accurately ripped
10 | (17/17) Accurately ripped
11 | (16/17) Accurately ripped
[AccurateRip ID: 0012db9d-00a4b011-810b0e0b] found.
Track [ CRC | V2 ] Status
01 [a7692ed4|43d826b0] (10+28/38) Accurately ripped
02 [717930d1|e45acff0] (10+28/38) Accurately ripped
03 [3958d9a3|08d22a1b] (09+25/34) Accurately ripped
04 [6fa560f5|45929f92] (10+29/39) Accurately ripped
05 [60c5c746|f81a2814] (10+29/39) Accurately ripped
06 [6c5aa644|f7368110] (10+28/38) Accurately ripped
07 [41295559|a2ad3eb8] (10+28/38) Accurately ripped
08 [1c7bbd99|e2820c16] (10+28/38) Accurately ripped
09 [b2aa1c85|8442425f] (10+29/39) Accurately ripped
10 [5793c6fd|4d9db5ec] (10+29/39) Accurately ripped
11 [6ae1ee49|08b699e9] (10+27/37) Accurately ripped

Track Peak [ CRC32 ] [W/O NULL] [ LOG ]
– 98,8 [D362F748] [291882C7] CRC32
01 98,8 [1D1D2411] [58F24D37]
02 98,8 [0B244EC4] [AC0F20CC]
03 98,8 [AAAB0EDA] [46522FEA]
04 98,8 [9AB38A5D] [72326A6E]
05 98,8 [8BFD787A] [60A04BE6]
06 98,8 [8727C8C2] [C27F219A]
07 98,8 [76715C45] [DE24F064]
08 98,8 [F3B92071] [1D2003D8]
09 98,8 [8B4CA509] [959D3721]
10 98,8 [5D95ADB0] [341CA7D9]
11 98,8 [872C8B5D] [B808FB21]

Procol Harum - 9 Albums (1967-1977) [2009 Salvo Reissues] Re-up

–––––––––––––––––––––––––––––––––-

Procol Harum - 9 Albums (1967-1977) [2009 Salvo Reissues] Re-up

CD08: Procol Harum - Procol`s Ninth (1975) [2009, Salvo]
Progressive / Art-Rock | EAC Rip | Flac (Image) + Cue + Log | MP3 CBR 320Kbps
Scans -> 132 Mb | Salvo, SALVOCD028 | ~359 + 124 Mb

For their ninth album, Procol Harum turned to production by the veteran songwriting team of Leiber and Stoller, who had written the first single ("Poison Ivy") by Procol predecessor band, the Paramounts. Though the band is in top form (especially drummer B.J. Wilson) and despite a strong start (with the exquisite "Pandora's Box," a U.K. hit), the album largely runs out of steam by side two. Too much of the Brooker and Reid material is competent rather than exciting. Likewise, Procol fails to render memorable versions of two cover songs, Leiber and Stoller's "I Keep Forgetting" or the Beatles' "Eight Days A Week." Most of this album's best material can be found on the Chrysalis Years collection.

by James A. Gardner, AMG
Tracklist:

1. Pandora's Box (3:34)
2. Fool's Gold (3:57)
3. Taking The Time (3:36)
4. The Unquiet Zone (3:37)
5. The Final Thrust (4:34)
6. I Keep Forgetting (3:25)
7. Withour A Doubt (4:28)
8. The Piper's Tune (4:25)
9. Typewriter Torment (4:27)
10. Eight Days A Week (2:55)
11. Unquiet Zone (raw track) (4:23)
12. Taking The Time (raw track) (4:34)
13. Fools Gold (raw track with guide vocal) (3:53)

Exact Audio Copy V0.99 prebeta 5 from 4. May 2009

EAC extraction logfile from 9. August 2010, 19:29

Procol Harum / Procol`s Ninth

Used drive : ASUS DRW-2014L1T Adapter: 4 ID: 2

Read mode : Secure
Utilize accurate stream : Yes
Defeat audio cache : Yes
Make use of C2 pointers : No

Read offset correction : 6
Overread into Lead-In and Lead-Out : No
Fill up missing offset samples with silence : Yes
Delete leading and trailing silent blocks : No
Null samples used in CRC calculations : Yes
Used interface : Native Win32 interface for Win NT & 2000

Used output format : User Defined Encoder
Selected bitrate : 768 kBit/s
Quality : High
Add ID3 tag : No
Command line compressor : F:\Program Files\Exact Audio Copy\FLAC\FLAC.EXE
Additional command line options : -T "DATE=%y" -T "GENRE=%m" -8 -V %s


TOC of the extracted CD

Track | Start | Length | Start sector | End sector
––––––––––––––––––––––––––––-
1 | 0:00.00 | 3:38.34 | 0 | 16383
2 | 3:38.34 | 3:59.30 | 16384 | 34338
3 | 7:37.64 | 3:39.32 | 34339 | 50795
4 | 11:17.21 | 3:39.01 | 50796 | 67221
5 | 14:56.22 | 4:41.03 | 67222 | 88299
6 | 19:37.25 | 3:27.15 | 88300 | 103839
7 | 23:04.40 | 4:30.58 | 103840 | 124147
8 | 27:35.23 | 4:26.43 | 124148 | 144140
9 | 32:01.66 | 4:29.19 | 144141 | 164334
10 | 36:31.10 | 3:05.17 | 164335 | 178226
11 | 39:36.27 | 4:25.08 | 178227 | 198109
12 | 44:01.35 | 4:36.28 | 198110 | 218837
13 | 48:37.63 | 3:53.69 | 218838 | 236381


Range status and errors

Selected range

Filename W:\EAC\Procol Harum\Procol Harum - Procol`s Ninth\Procol Harum - Procol`s Ninth.wav

Peak level 98.8 %
Range quality 100.0 %
Copy CRC 3B026D77
Copy OK

No errors occurred


AccurateRip summary

Track 1 accurately ripped (confidence 2) [0600FC7C]
Track 2 accurately ripped (confidence 2) [0539A9CA]
Track 3 accurately ripped (confidence 2) [2346C4FC]
Track 4 accurately ripped (confidence 2) [F8E30CD2]
Track 5 accurately ripped (confidence 2) [71F033E6]
Track 6 accurately ripped (confidence 2) [54E8E004]
Track 7 accurately ripped (confidence 2) [3FEE0C9C]
Track 8 accurately ripped (confidence 2) [9E9B554A]
Track 9 accurately ripped (confidence 2) [E0432C39]
Track 10 accurately ripped (confidence 2) [F7265462]
Track 11 accurately ripped (confidence 2) [4C226CD5]
Track 12 accurately ripped (confidence 2) [D0AF7E2E]
Track 13 accurately ripped (confidence 2) [1D6F6826]

All tracks accurately ripped

End of status report

foobar2000 1.2.9 / Dynamic Range Meter 1.1.1
log date: 2014-11-04 21:20:42

––––––––––––––––––––––––––––––––––––––––
Analyzed: Procol Harum / Ninth
––––––––––––––––––––––––––––––––––––––––

DR Peak RMS Duration Track
––––––––––––––––––––––––––––––––––––––––
DR9 -0.10 dB -11.61 dB 3:38 01-Pandora's Box
DR10 -0.10 dB -11.75 dB 3:59 02-Fool's Gold
DR9 -0.10 dB -11.79 dB 3:39 03-Taking The Time
DR10 -0.10 dB -11.89 dB 3:39 04-The Unquiet Zone
DR10 -0.10 dB -11.39 dB 4:41 05-The Final Thrust
DR10 -0.10 dB -11.96 dB 3:27 06-I Keep Forgetting
DR10 -0.10 dB -11.26 dB 4:31 07-Withour A Doubt
DR9 -0.10 dB -10.92 dB 4:27 08-The Piper's Tune
DR10 -0.10 dB -11.22 dB 4:29 09-Typewriter Torment
DR10 -0.10 dB -11.69 dB 3:05 10-Eight Days A Week
DR10 -0.10 dB -12.05 dB 4:25 11-Unquiet Zone (raw track)
DR10 -0.10 dB -13.02 dB 4:36 12-Taking The Time (raw track)
DR9 -0.10 dB -11.14 dB 3:54 13-Fools Gold (raw track with guide vocal)
––––––––––––––––––––––––––––––––––––––––

Number of tracks: 13
Official DR value: DR10

Samplerate: 44100 Hz
Channels: 2
Bits per sample: 16
Bitrate: 907 kbps
Codec: FLAC

[CUETools log; Date: 04.11.2014 2:30:23; Version: 2.1.4]
[CTDB TOCID: FxbYpVaAXTyZro0Axclpoouwr.I-] found.
Track | CTDB Status
1 | (14/14) Accurately ripped
2 | (14/14) Accurately ripped
3 | (14/14) Accurately ripped
4 | (14/14) Accurately ripped
5 | (14/14) Accurately ripped
6 | (14/14) Accurately ripped
7 | (14/14) Accurately ripped
8 | (14/14) Accurately ripped
9 | (14/14) Accurately ripped
10 | (14/14) Accurately ripped
11 | (14/14) Accurately ripped
12 | (14/14) Accurately ripped
13 | (14/14) Accurately ripped
[AccurateRip ID: 0018cbe6-00f998f6-d40c4f0d] found.
Track [ CRC | V2 ] Status
01 [0600fc7c|2c861128] (08+24/35) Accurately ripped
02 [0539a9ca|2a82a7ef] (08+24/35) Accurately ripped
03 [2346c4fc|664a8b32] (08+24/35) Accurately ripped
04 [f8e30cd2|84213f2f] (08+24/35) Accurately ripped
05 [71f033e6|1f1cb9d9] (08+24/35) Accurately ripped
06 [54e8e004|28f762ab] (08+24/35) Accurately ripped
07 [3fee0c9c|46cf1776] (08+24/35) Accurately ripped
08 [9e9b554a|53c396b5] (08+24/35) Accurately ripped
09 [e0432c39|788f8d7e] (08+24/35) Accurately ripped
10 [f7265462|b5eb9dd9] (08+24/35) Accurately ripped
11 [4c226cd5|64468288] (08+24/35) Accurately ripped
12 [d0af7e2e|6b347501] (08+24/35) Accurately ripped
13 [1d6f6826|c0daced5] (08+25/36) Accurately ripped
Offsetted by -48:
01 [750973cc] (03/35) Accurately ripped
02 [6ca8a1aa] (03/35) Accurately ripped
03 [6d43fcdc] (03/35) Accurately ripped
04 [b3efcf32] (03/35) Accurately ripped
05 [d8a06d56] (03/35) Accurately ripped
06 [29c325f4] (03/35) Accurately ripped
07 [be558fec] (03/35) Accurately ripped
08 [84a866ea] (03/35) Accurately ripped
09 [8bc433a9] (03/35) Accurately ripped
10 [40dd8652] (03/35) Accurately ripped
11 [8032ee2d] (03/35) Accurately ripped
12 [cc900389] (03/35) Accurately ripped
13 [e48ad3a7] (03/36) Accurately ripped

Track Peak [ CRC32 ] [W/O NULL] [ LOG ]
– 98,8 [3B026D77] [3A138C72] CRC32
01 98,8 [2FE7AE96] [D28B6CC1]
02 98,8 [A61896F1] [EDA30A40]
03 98,8 [219DA4DF] [479C8BBA]
04 98,8 [5BD1D41E] [A1AC9413]
05 98,8 [613EDB58] [AC883319]
06 98,8 [53A10D94] [2A65CC4F]
07 98,8 [2DDBC95E] [467061E9]
08 98,8 [9B9BEB9D] [3945BE09]
09 98,8 [47048253] [12D7876B]
10 98,8 [5823758A] [21A5F1FD]
11 98,8 [75E063EF] [23BB80E2]
12 98,8 [885ADBFA] [08154519]
13 98,8 [3783BD3F] [06BCA7C9]

Procol Harum - 9 Albums (1967-1977) [2009 Salvo Reissues] Re-up

–––––––––––––––––––––––––––––––––-

Procol Harum - 9 Albums (1967-1977) [2009 Salvo Reissues] Re-up

CD09: Procol Harum - Something Magic (1977) [2009, Salvo]
Progressive / Art-Rock | EAC Rip | Flac (Image) + Cue + Log | MP3 CBR 320Kbps
Scans -> 180 Mb | Salvo, SALVOCD029 | ~337 + 124 Mb

Tracklist:

01. Something Magic 3:37
02. Skating On Thin Ice 4:49
03. Wizard Man 2:42
04. The Marks Of The Claw 4:40
05. Strangers In Space 6:08
06. The Worm & The Tree (Part One) 7:50
07. The Worm & The Tree (Part Two) 5:29
08. The Worm & The Tree (Part Three) 5:28
09. Backgammon (Bonus Track) 3:25
10. Youd Better Wait (Live) (Bonus Track) 4:47
11. This Old Dog (Live) (Bonus Track) 3:42

Exact Audio Copy V1.1 from 23. June 2015

EAC extraction logfile from 12. June 2016, 14:40

Procol Harum / Something Magic (SALVOCD029)

Used drive : PLEXTOR DVDR PX-891SA Adapter: 1 ID: 0

Read mode : Secure
Utilize accurate stream : Yes
Defeat audio cache : Yes
Make use of C2 pointers : No

Read offset correction : 6
Overread into Lead-In and Lead-Out : No
Fill up missing offset samples with silence : Yes
Delete leading and trailing silent blocks : No
Null samples used in CRC calculations : Yes
Used interface : Native Win32 interface for Win NT & 2000

Used output format : User Defined Encoder
Selected bitrate : 128 kBit/s
Quality : High
Add ID3 tag : No
Command line compressor : C:\Program Files (x86)\Exact Audio Copy\Flac\flac.exe
Additional command line options : -V -8 -T "Genre=%genre%" -T "Artist=%artist%" -T "Title=%title%" -T "Album=%albumtitle%" -T "Date=%year%" -T "Tracknumber=%tracknr%" -T "Comment=%comment%" %source%


TOC of the extracted CD

Track | Start | Length | Start sector | End sector
––––––––––––––––––––––––––––-
1 | 0:00.00 | 3:37.11 | 0 | 16285
2 | 3:37.11 | 4:49.34 | 16286 | 37994
3 | 8:26.45 | 2:41.46 | 37995 | 50115
4 | 11:08.16 | 4:40.22 | 50116 | 71137
5 | 15:48.38 | 6:07.39 | 71138 | 98701
6 | 21:56.02 | 7:50.22 | 98702 | 133973
7 | 29:46.24 | 5:29.22 | 133974 | 158670
8 | 35:15.46 | 5:28.12 | 158671 | 183282
9 | 40:43.58 | 3:25.19 | 183283 | 198676
10 | 44:09.02 | 4:46.61 | 198677 | 220187
11 | 48:55.63 | 3:41.65 | 220188 | 236827


Range status and errors

Selected range

Filename H:\dafnaplus\Procol Harum - Something Magic\Procol Harum - Something Magic (SALVOCD029).wav

Peak level 98.8 %
Extraction speed 7.6 X
Range quality 100.0 %
Test CRC F4DE0B62
Copy CRC F4DE0B62
Copy OK

No errors occurred


AccurateRip summary

Track 1 cannot be verified as accurate (confidence 10) [0D4EE667], AccurateRip returned [0B820B8B] (AR v2)
Track 2 cannot be verified as accurate (confidence 10) [52A82247], AccurateRip returned [D7993C6B] (AR v2)
Track 3 cannot be verified as accurate (confidence 10) [2C931B68], AccurateRip returned [5543EDD0] (AR v2)
Track 4 cannot be verified as accurate (confidence 10) [D768E893], AccurateRip returned [BCE6D0B7] (AR v2)
Track 5 cannot be verified as accurate (confidence 10) [EEF5A462], AccurateRip returned [D1403F78] (AR v2)
Track 6 cannot be verified as accurate (confidence 10) [F018742C], AccurateRip returned [E5F966C3] (AR v2)
Track 7 cannot be verified as accurate (confidence 10) [81600EC5], AccurateRip returned [7749A122] (AR v2)
Track 8 cannot be verified as accurate (confidence 10) [967E1091], AccurateRip returned [C9E4A0D4] (AR v2)
Track 9 cannot be verified as accurate (confidence 10) [A99527E9], AccurateRip returned [CA14EB12] (AR v2)
Track 10 cannot be verified as accurate (confidence 10) [044F6767], AccurateRip returned [22A5F5DF] (AR v2)
Track 11 cannot be verified as accurate (confidence 10) [CF285414], AccurateRip returned [A89FCBA6] (AR v2)

No tracks could be verified as accurate
You may have a different pressing from the one(s) in the database

End of status report

–– CUETools DB Plugin V2.1.6

[CTDB TOCID: .DKkuPiIpR_JHPPV8Idsh9zOKrY-] found
Submit result: already submitted
Track | CTDB Status
1 | (15/15) Accurately ripped
2 | (15/15) Accurately ripped
3 | (15/15) Accurately ripped
4 | (15/15) Accurately ripped
5 | (15/15) Accurately ripped
6 | (15/15) Accurately ripped
7 | (15/15) Accurately ripped
8 | (15/15) Accurately ripped
9 | (15/15) Accurately ripped
10 | (15/15) Accurately ripped
11 | (15/15) Accurately ripped


==== Log checksum 2B72F3EF554BB917AA5426F0E5BA4D26B38059445332CEFB5D4628E6A24EAD80 ====


[CUETools log; Date: 08.05.2021 13:56:19; Version: 2.1.4]
[AccurateRip ID: 001573a2-00bd3eff-980c550b] found.
Track [ CRC | V2 ] Status
01 [322214bb|0d4ee667] (00+03/20) Accurately ripped
02 [e4bada23|52a82247] (00+03/20) Accurately ripped
03 [f4c3b715|2c931b68] (00+03/20) Accurately ripped
04 [2bbd5247|d768e893] (00+03/20) Accurately ripped
05 [6d37ac06|eef5a462] (00+03/20) Accurately ripped
06 [3ca90827|f018742c] (00+03/20) Accurately ripped
07 [fa1f9904|81600ec5] (00+03/20) Accurately ripped
08 [d2242984|967e1091] (00+03/20) Accurately ripped
09 [364e4156|a99527e9] (00+03/20) Accurately ripped
10 [35e9cfb5|044f6767] (00+03/20) Accurately ripped
11 [a7cf4f54|cf285414] (00+03/20) Accurately ripped
Offsetted by -628:
01 [6ad5c87b] (00/20) No match (V2 was not tested)
02 [d9335c2b] (00/20) No match (V2 was not tested)
03 [ae31ff51] (00/20) No match (V2 was not tested)
04 [8f0a7d4f] (00/20) No match (V2 was not tested)
05 [f97bd0b6] (00/20) No match (V2 was not tested)
06 [8b2c9f6b] (00/20) No match (V2 was not tested)
07 [bd57b14c] (00/20) No match (V2 was not tested)
08 [cca654e8] (00/20) No match (V2 was not tested)
09 [cb40c252] (00/20) No match (V2 was not tested)
10 [f0b5e029] (00/20) No match (V2 was not tested)
11 [f77e96b0] (00/20) No match (V2 was not tested)
Offsetted by 18:
01 [35664e5b] (00/20) No match (V2 was not tested)
02 [70796faf] (00/20) No match (V2 was not tested)
03 [212e9e2f] (00/20) No match (V2 was not tested)
04 [17c5b553] (00/20) No match (V2 was not tested)
05 [58137a0e] (00/20) No match (V2 was not tested)
06 [3dabc84d] (00/20) No match (V2 was not tested)
07 [f7ca03f0] (00/20) No match (V2 was not tested)
08 [0cffd1da] (00/20) No match (V2 was not tested)
09 [5b9db990] (00/20) No match (V2 was not tested)
10 [5af444a3] (00/20) No match (V2 was not tested)
11 [82495cf2] (00/20) No match (V2 was not tested)

Track Peak [ CRC32 ] [W/O NULL] [ LOG ]
– 98,8 [F4DE0B62] [11C4BA43] CRC32
01 98,8 [1D3320F5] [858BF81E]
02 98,8 [EA9F80AC] [55C91AB3]
03 98,8 [094AC34F] [50057F27]
04 98,8 [9C28D79F] [08B42BBD]
05 98,8 [04A9563F] [308CC283]
06 98,8 [3637C23D] [22D7CB9F]
07 98,8 [0FC40E6B] [E4830DDE]
08 98,8 [759D9751] [17DF4311]
09 98,8 [FD6D3631] [491BC957]
10 98,8 [82A99912] [BBE873D0]
11 98,8 [07137BD7] [204B1FE4]


All thanks go to the original releasers