Subcategories

Promenade - Noi Al Dir Di Noi (2016)

Posted By: popsakov
Promenade - Noi Al Dir Di Noi (2016)

Promenade - Noi Al Dir Di Noi (2016)
EAC Rip | FLAC (Img) + Cue + Log ~ 313 Mb | MP3 CBR320 ~ 111 Mb
Scans (JPG, 600 dpi) ~ 307 Mb | RAR 5% Recovery
Progressive Rock, RPI | Fading Records #FAD-023 | Italy

The long awaited first album by Promenade from Genova. Skilled performances, melodies, a various palette of colors(acoustic and electric elements), all the right moves are included in their mix , everything spread by an Italian flavour and the characteristic voice of Matteo Barisone. A new discover…a future classic.
Promenade - Noi Al Dir Di Noi (2016)

***************

Promenade - Noi Al Dir Di Noi (2016)

Track List:

01. Athletics [10:36]
02. Il Secondo Passo [6:43]
03. L’Albero Magico [4:33]
04. Roccocò [5:47]
05. Kernel [4:18]
06. Pantera [6:48]
07. Crisantemo [7:40]

Personnel:

Matteo Barisone - vocals, keyboards, piano, harpsichord, orchestral arrangements, sound effects
Gianluca Barisone - guitars, Tibetan bell, chorus, sound effects
Stefano Scarella - bass, saxophone, chorus
Simone Scala - drums, percussion, glockenspiel, flute, whistle

With:
Damiano Baroni - violin
Francesco Bagnasco - violin
Gigi Magnozzi - viola
Giacomo Biagi - cello
Giovanni Aquilino - flute
Jacopo Bagutti - bassoon

Exact Audio Copy V1.1 from 23. June 2015

Отчёт EAC об извлечении, выполненном 26. ноября 2016, 10:48

PROMENADE / Noi al dir di Noi

Дисковод: TSSTcorpCDDVDW SH-224DB Adapter: 1 ID: 1

Режим чтения : Достоверность
Использование точного потока : Да
Отключение кэша аудио : Да
Использование указателей C2 : Нет

Коррекция смещения при чтении : 6
Способность читать области Lead-in и Lead-out : Нет
Заполнение пропущенных сэмплов тишиной : Да
Удаление блоков с тишиной в начале и конце : Нет
При вычислениях CRC использовались нулевые сэмплы : Да
Интерфейс : Встроенный Win32-интерфейс для Win NT/2000

Выходной формат : Внутренние WAV-операции
Формат сэмплов : 44.100 Гц; 16 бит; стерео


TOC извлечённого CD

Трек | Старт | Длительность | Начальный сектор | Конечный сектор
––––––––––––––––––––––––––––––––––-
1 | 0:00.00 | 10:36.22 | 0 | 47721
2 | 10:36.22 | 6:43.12 | 47722 | 77958
3 | 17:19.34 | 4:33.12 | 77959 | 98445
4 | 21:52.46 | 5:47.08 | 98446 | 124478
5 | 27:39.54 | 4:18.23 | 124479 | 143851
6 | 31:58.02 | 6:47.45 | 143852 | 174421
7 | 38:45.47 | 7:39.63 | 174422 | 208909


Характеристики диапазона извлечения и сообщения об ошибках

Выбранный диапазон

Имя файла D:\TEMP\PROMENADE - 2016 - Noi al dir di Noi [Fading Records, FAD-023].wav

Пиковый уровень 95.7 %
Скорость извлечения 5.0 X
Качество диапазона 99.9 %
CRC теста F938D60C
CRC копии F938D60C
Копирование… OK

Ошибок не произошло


AccurateRip: сводка

Трек 1 отсутствует в базе данных
Трек 2 отсутствует в базе данных
Трек 3 отсутствует в базе данных
Трек 4 отсутствует в базе данных
Трек 5 отсутствует в базе данных
Трек 6 отсутствует в базе данных
Трек 7 отсутствует в базе данных

Ни одного трека нет в базе AccurateRip

Конец отчёта

==== Контрольная сумма отчёта 2382BC77A9031CF38025E2EA90BC80976224110247A7A9138FC3817D5BEC5B93 ====

foobar2000 1.2.6 / Dynamic Range Meter 1.1.1
log date: 2016-11-27 11:52:27

––––––––––––––––––––––––––––––––––––––––
Analyzed: PROMENADE / Noi al dir di Noi
––––––––––––––––––––––––––––––––––––––––

DR Peak RMS Duration Track
––––––––––––––––––––––––––––––––––––––––
DR8 -0.37 dB -9.32 dB 10:36 01-Athletics
DR8 -0.37 dB -10.51 dB 6:43 02-Il Secondo Passo
DR8 -0.37 dB -9.56 dB 4:33 03-L’Albero Magico
DR7 -0.37 dB -9.20 dB 5:47 04-Roccocò
DR8 -0.37 dB -9.37 dB 4:18 05-Kernel
DR8 -0.37 dB -9.45 dB 6:48 06-Pantera
DR6 -0.57 dB -9.43 dB 7:40 07-Crisantemo
––––––––––––––––––––––––––––––––––––––––

Number of tracks: 7
Official DR value: DR7

Samplerate: 44100 Hz
Channels: 2
Bits per sample: 16
Bitrate: 898 kbps
Codec: FLAC
================================================================================

[CUETools log; Date: 27.11.2016 11:52:25; Version: 2.1.5]
[CTDB TOCID: DtN4oipVRgQrWLJrtcRPYJT8vbQ-] found.
Track | CTDB Status
1 | (3/3) Accurately ripped
2 | (3/3) Accurately ripped
3 | (3/3) Accurately ripped
4 | (3/3) Accurately ripped
5 | (3/3) Accurately ripped
6 | (3/3) Accurately ripped
7 | (3/3) Accurately ripped
[AccurateRip ID: 000d5d0e-004dd52f-4a0ae107] disk not present in database.

Track Peak [ CRC32 ] [W/O NULL] [ LOG ]
– 95,7 [F938D60C] [0C9220B7] CRC32
01 95,7 [2E76110C] [94AFBCD4]
02 95,7 [E29AA5B2] [B67EBC75]
03 95,7 [4DF567F4] [7A4A0963]
04 95,7 [B85A4B5C] [405FBB39]
05 95,7 [CC0A1D3F] [A6B0C7ED]
06 95,7 [DDF4E1A5] [22FB7E94]
07 93,6 [62C04E3A] [99AB3278]

Promenade - Noi Al Dir Di Noi (2016)

Promenade - Noi Al Dir Di Noi (2016)

All thanks go to spAceLover

> Visit my blog <

Download: