Subcategories

Pseudo Echo - Love An Adventure (1987) Japanese Press

Posted By: Designol
Pseudo Echo - Love An Adventure (1987) Japanese Press

Pseudo Echo - Love An Adventure (1987) Japanese Press
EAC | FLAC | Image (Cue&Log) ~ 287 Mb | Mp3 (CBR320) ~ 98 Mb | Scans ~ 208 Mb
New Wave, SynthPop, Dance Rock | Label: RCA | # R32P-1119 | Time: 00:42:33

Before Depeche Mode inherited the techno-pop crown, Ultravox reigned over the electronic landscape. Pseudo Echo were one of Ultravox's most loyal fans, and their affection for the pioneering new romantics gushes from every synthethic groove on Love an Adventure. Thankfully, being a facsimile wasn't enough for Pseudo Echo. The cover of Lipps Inc.'s disco classic "Funkytown" was their only U.S. hit from Love an Adventure, and it was sadly misrepresentative of the album's stylish, hook-loaded dance rock. On "A Beat for You," driving hard rock riffs puncture Pierre Gigliotti and James Leigh's wall of synthesizers. Vocalist Brian Canham has a darkly erotic voice that only new wave groups seem to breed – imagine a cross between Jim Kerr of Simple Minds and Midge Ure of, no surprise, Ultravox. Pseudo Echo want people to move their feet, and this album is stocked with dancefloor scorchers such as "Living in a Dream", "Listening", and the funky "Try". "Funkytown" may have given Pseudo Echo a glimpse of commercial success, but the rest of Love an Adventure proved that they were capable of more.

Review by Michael Sutton, Allmusic.com

Pseudo Echo at Allmusic
Pseudo Echo at Wiki

Tracklist:

01. A Beat For You (3:37)
02. Living In A Dream (3:27)
03. Try (4:20)
04. Listening (3:02)
05. I Will Be You (5:26)
06. Love An Adventure (4:17)
07. Destination Unknown (4:54)
08. Funkytown (4:51)
09. Lonely Without You (4:34)
10. Lies Are Nothing (3:58)


Exact Audio Copy V1.0 beta 4 from 7. December 2014

Отчёт EAC об извлечении, выполненном 22. марта 2015, 13:25

Pseudo Echo / Love An Adventure (RCA-R32P-1119)

Дисковод: PIONEER BD-RW BDR-206 Adapter: 1 ID: 1

Режим чтения : Достоверность
Использование точного потока : Да
Отключение кэша аудио : Да
Использование указателей C2 : Нет

Коррекция смещения при чтении : 667
Способность читать области Lead-in и Lead-out : Нет
Заполнение пропущенных сэмплов тишиной : Да
Удаление блоков с тишиной в начале и конце : Нет
При вычислениях CRC использовались нулевые сэмплы : Да
Интерфейс : Встроенный Win32-интерфейс для Win NT/2000

Выходной формат : Пользовательский кодировщик
Выбранный битрейт : 1024 kBit/s
Качество : Высокий
Добавление ID3-тега : Нет
Утилита сжатия : C:\Program Files (x86)\Exact Audio Copy\FLAC\FLAC.EXE
Дополнительные параметры : -T "COMMENT=Ripped by SergeyJD"-8 -V -T "ARTIST=%artist%" -T "TITLE=%title%" -T "ALBUM=%albumtitle%" -T "DATE=%year%" -T "TRACKNUMBER=%tracknr%" -T "GENRE=%genre%" -T "COMMENT=%comment%" -T "BAND=%albuminterpret%" -T "ALBUMARTIST=%albuminterpret%" -T "COMPOSER=%composer%" %haslyrics%–tag-from-file=LYRICS="%lyricsfile%"%haslyrics% -T "DISCNUMBER=%cdnumber%" -T "TOTALDISCS=%totalcds%" -T "TOTALTRACKS=%numtracks%" %hascover%–picture="%coverfile%"%hascover% %source% -o %dest%


TOC извлечённого CD

Трек | Старт | Длительность | Начальный сектор | Конечный сектор
––––––––––––––––––––––––––––––––––-
1 | 0:00.37 | 3:40.33 | 37 | 16569
2 | 3:40.70 | 3:28.72 | 16570 | 32241
3 | 7:09.67 | 4:18.70 | 32242 | 51661
4 | 11:28.62 | 3:05.13 | 51662 | 65549
5 | 14:34.00 | 5:20.00 | 65550 | 89549
6 | 19:54.00 | 4:17.52 | 89550 | 108876
7 | 24:11.52 | 4:58.15 | 108877 | 131241
8 | 29:09.67 | 4:52.33 | 131242 | 153174
9 | 34:02.25 | 4:34.12 | 153175 | 173736
10 | 38:36.37 | 3:57.00 | 173737 | 191511


Характеристики диапазона извлечения и сообщения об ошибках

Выбранный диапазон

Имя файла D:\РАЗДАЧИ!!!!\Pseudo Echo - Love An Adventure (RCA-R32P-1119) - 1987\Pseudo Echo - Love An Adventure (RCA-R32P-1119).wav

Пиковый уровень 100.0 %
Скорость извлечения 7.3 X
Качество диапазона 100.0 %
CRC теста B331D9DA
CRC копии B331D9DA
Копирование… OK

Ошибок не произошло


AccurateRip: сводка

Трек 1 : извлечено точно (доверие 1) [AB134CD9] (AR v2)
Трек 2 : извлечено точно (доверие 1) [3485DDC9] (AR v2)
Трек 3 : извлечено точно (доверие 1) [1A12A0F0] (AR v2)
Трек 4 : извлечено точно (доверие 1) [855AA968] (AR v2)
Трек 5 : извлечено точно (доверие 1) [2ADAEB25] (AR v2)
Трек 6 : извлечено точно (доверие 1) [DC94469E] (AR v2)
Трек 7 : извлечено точно (доверие 1) [C00BFA5E] (AR v2)
Трек 8 : извлечено точно (доверие 1) [BAEED21F] (AR v2)
Трек 9 : извлечено точно (доверие 1) [66484AA0] (AR v2)
Трек 10 : извлечено точно (доверие 1) [AED906C8] (AR v2)

Все треки извлечены точно

Конец отчёта

–– CUETools DB Plugin V2.1.4

[CTDB TOCID: HMbpKUZ.GoE5a9yiA6ch9osO9bo-] disk not present in database
Submit result: HMbpKUZ.GoE5a9yiA6ch9osO9bo- has been uploaded


==== Контрольная сумма отчёта 7E801CFDC730DCE71BC29D9769B1B0F9B06D7917CDDEDBDD00150D0E255F1671 ====

foobar2000 1.2 / Dynamic Range Meter 1.1.1
log date: 2015-03-25 16:48:52

––––––––––––––––––––––––––––––––––––––––
Analyzed: Pseudo Echo / Love An Adventure (RCA-R32P-1119)
––––––––––––––––––––––––––––––––––––––––

DR Peak RMS Duration Track
––––––––––––––––––––––––––––––––––––––––
DR12 -1.93 dB -15.22 dB 3:40 01-A Beat For You
DR13 0.00 dB -14.66 dB 3:29 02-Living In A Dream
DR13 -0.86 dB -15.80 dB 4:19 03-Try
DR12 -1.20 dB -15.28 dB 3:05 04-Listening
DR13 -1.68 dB -17.24 dB 5:20 05-I Will Be You
DR13 -0.57 dB -16.54 dB 4:18 06-Love An Adventure
DR12 -2.71 dB -16.98 dB 4:58 07-Destination Unknown
DR12 -2.91 dB -16.57 dB 4:52 08-Funkytown
DR14 -2.18 dB -17.61 dB 4:34 09-Lonely Without You
DR13 -0.11 dB -16.33 dB 3:57 10-Lies Are Nothing
––––––––––––––––––––––––––––––––––––––––

Number of tracks: 10
Official DR value: DR13

Samplerate: 44100 Hz
Channels: 2
Bits per sample: 16
Bitrate: 942 kbps
Codec: FLAC
================================================================================

Pseudo Echo - Love An Adventure (1987) Japanese Press

Pseudo Echo - Love An Adventure (1987) Japanese Press

All thanks to original releaser - SergeyJD

More interesting music in My Blog