Subcategories

Public Enemy - Yo! Bum Rush The Show (1987) {Def Jam}

Posted By: tiburon
Public Enemy - Yo! Bum Rush The Show (1987) {Def Jam}

Public Enemy - Yo! Bum Rush The Show (1987) {Def Jam}
EAC 0.99pb5 | FLAC tracks level 8 | Cue+Log+M3U | Scans 300dpi | 300MB + 5% Recovery
MP3 CBR 320 Kbps | 108MB + 5% Recovery
Genre: East Coast Rap, Hardcore Rap, Conscious
Public Enemy - Yo! Bum Rush The Show (1987) {Def Jam}

With Yo! Bum Rush the Show, Public Enemy introduce a new kind of bravado that's not just directed at other players and sucker MCs but is an out-and-out middle-finger challenge to the whole world, as these serious brothers roll right over you in a slow-moving convoy of 98 Oldsmobiles ("You're Gonna Get Yours"). PE crowd these tracks with disparate sounds that move your butt while they buzz from every channel. Despite their serious posturing, you'll be grateful for the sloppy bass line in "Timebomb" and Terminator X's brilliant tone experiment, "Public Enemy No. 1." Yo! isn't PE's masterpiece, but it's a truly standout album, a warning shot for the full-scale assault they would later initiate on It Takes a Nation of Millions to Hold Us Back.
Track List
01. You're Gonna Get Yours (4:05)
02. Sophisticated Bitch (4:30)
03. Miuzi Weighs A Ton (5:45)
04. Timebomb (2:55)
05. Too Much Posse (2:25)
06. Rightstarter (Message To The Black Man) (3:49)
07. Public Enemy No. 1 (4:41)
08. M.P.E. (3:44)
09. Yo! Bum Rush The Show (4:25)
10. Raise The Roof (5:19)
11. Megablast (3:00)
12. Terminator X Speaks With His Hands (2:05)


Exact Audio Copy V0.99 prebeta 5 from 4. May 2009

EAC extraction logfile from 12. June 2009, 20:28

Public Enemy / Yo! Bum Rush The Show

Used drive : ATAPI iHAS220 6 Adapter: 1 ID: 1

Read mode : Secure
Utilize accurate stream : Yes
Defeat audio cache : Yes
Make use of C2 pointers : No

Read offset correction : 6
Overread into Lead-In and Lead-Out : No
Fill up missing offset samples with silence : Yes
Delete leading and trailing silent blocks : No
Null samples used in CRC calculations : Yes
Used interface : Native Win32 interface for Win NT & 2000
Gap handling : Appended to previous track

Used output format : User Defined Encoder
Selected bitrate : 320 kBit/s
Quality : High
Add ID3 tag : No
Command line compressor : C:\Program Files\FLAC\flac.exe
Additional command line options : -V -8 -T "artist=%a" -T "title=%t" -T "album=%g" -T "date=%y" -T "tracknumber=%n" -T "genre=%m" %s


TOC of the extracted CD

Track | Start | Length | Start sector | End sector
––––––––––––––––––––––––––––-
1 | 0:00.00 | 4:04.62 | 0 | 18361
2 | 4:04.62 | 4:30.15 | 18362 | 38626
3 | 8:35.02 | 5:44.38 | 38627 | 64464
4 | 14:19.40 | 2:54.45 | 64465 | 77559
5 | 17:14.10 | 2:25.10 | 77560 | 88444
6 | 19:39.20 | 3:49.07 | 88445 | 105626
7 | 23:28.27 | 4:40.68 | 105627 | 126694
8 | 28:09.20 | 3:44.25 | 126695 | 143519
9 | 31:53.45 | 4:25.37 | 143520 | 163431
10 | 36:19.07 | 5:18.53 | 163432 | 187334
11 | 41:37.60 | 3:00.00 | 187335 | 200834
12 | 44:37.60 | 2:04.60 | 200835 | 210194


Track 1

Filename C:\EACrips\Public Enemy - Yo! Bum Rush The Show [flac]\01 - You're Gonna Get Yours.wav

Pre-gap length 0:00:02.00

Peak level 94.9 %
Track quality 100.0 %
Test CRC 689CEAC5
Copy CRC 689CEAC5
Accurately ripped (confidence 15) [815486BE]
Copy OK

Track 2

Filename C:\EACrips\Public Enemy - Yo! Bum Rush The Show [flac]\02 - Sophisticated Bitch.wav

Pre-gap length 0:00:00.69

Peak level 100.0 %
Track quality 100.0 %
Test CRC 1334A891
Copy CRC 1334A891
Accurately ripped (confidence 15) [7CE7F333]
Copy OK

Track 3

Filename C:\EACrips\Public Enemy - Yo! Bum Rush The Show [flac]\03 - Miuzi Weighs A Ton.wav

Peak level 97.9 %
Track quality 100.0 %
Test CRC CE7E3C38
Copy CRC CE7E3C38
Accurately ripped (confidence 15) [074870F7]
Copy OK

Track 4

Filename C:\EACrips\Public Enemy - Yo! Bum Rush The Show [flac]\04 - Timebomb.wav

Peak level 87.7 %
Track quality 100.0 %
Test CRC E9FD02CC
Copy CRC E9FD02CC
Accurately ripped (confidence 14) [DBECB467]
Copy OK

Track 5

Filename C:\EACrips\Public Enemy - Yo! Bum Rush The Show [flac]\05 - Too Much Posse.wav

Peak level 93.1 %
Track quality 99.9 %
Test CRC A93D814B
Copy CRC A93D814B
Accurately ripped (confidence 14) [F129CCDD]
Copy OK

Track 6

Filename C:\EACrips\Public Enemy - Yo! Bum Rush The Show [flac]\06 - Rightstarter (Message To The Black Man).wav

Peak level 100.0 %
Track quality 100.0 %
Test CRC 1DC275E0
Copy CRC 1DC275E0
Accurately ripped (confidence 15) [5B5F1DC1]
Copy OK

Track 7

Filename C:\EACrips\Public Enemy - Yo! Bum Rush The Show [flac]\07 - Public Enemy No. 1.wav

Pre-gap length 0:00:00.46

Peak level 86.0 %
Track quality 99.9 %
Test CRC 51BCB599
Copy CRC 51BCB599
Accurately ripped (confidence 15) [E947D6BA]
Copy OK

Track 8

Filename C:\EACrips\Public Enemy - Yo! Bum Rush The Show [flac]\08 - M.P.E..wav

Peak level 87.4 %
Track quality 100.0 %
Test CRC 7B69D821
Copy CRC 7B69D821
Accurately ripped (confidence 14) [21828700]
Copy OK

Track 9

Filename C:\EACrips\Public Enemy - Yo! Bum Rush The Show [flac]\09 - Yo! Bum Rush The Show.wav

Peak level 95.5 %
Track quality 100.0 %
Test CRC 7C4B13DA
Copy CRC 7C4B13DA
Accurately ripped (confidence 15) [6569703C]
Copy OK

Track 10

Filename C:\EACrips\Public Enemy - Yo! Bum Rush The Show [flac]\10 - Raise The Roof.wav

Peak level 95.5 %
Track quality 100.0 %
Test CRC 84D408E8
Copy CRC 84D408E8
Accurately ripped (confidence 14) [38171C72]
Copy OK

Track 11

Filename C:\EACrips\Public Enemy - Yo! Bum Rush The Show [flac]\11 - Megablast.wav

Peak level 70.1 %
Track quality 99.9 %
Test CRC 3791B51B
Copy CRC 3791B51B
Accurately ripped (confidence 14) [06A4142B]
Copy OK

Track 12

Filename C:\EACrips\Public Enemy - Yo! Bum Rush The Show [flac]\12 - Terminator X Speaks With His Hands.wav

Peak level 66.2 %
Track quality 100.0 %
Test CRC EB43BC24
Copy CRC EB43BC24
Accurately ripped (confidence 14) [29286A9D]
Copy OK


All tracks accurately ripped

No errors occurred

End of status report

Public Enemy - Yo! Bum Rush The Show (1987) {Def Jam}
Public Enemy - Yo! Bum Rush The Show (1987) {Def Jam}


Thanks to the original ripper