Subcategories

Quartetto Italiano - Mozart: Complete String Quartets (2013)

Posted By: tirexiss
Quartetto Italiano - Mozart: Complete String Quartets (2013)

Quartetto Italiano - Mozart: Complete String Quartets (2013)
EAC | FLAC (tracks+.cue, log) | Covers Included | 07:54:36 | 2,71 Gb
Genre: Classical | Label: Decca | Catalog: 478 5555

This series of performances dates from between 1966 (when the six quartets Nos. 14-19 dedicated to Haydn were recorded) to 1973 and was rightly saluted on its completion as a fine achievement. The playing of the Quartetto Italiano has a freshness, range and subtlety that vividly realizes the music in all its variety, while technical problems seem to have been solved so that the music-making can be both spontaneous-sounding and thoughtful throughout.
As the son of a violinist and violin teacher, Mozart was himself a fine player of the violin and viola. Yet even so one is surprised by the assurance of his First Quartet, the G major, K80 (1770). I must confess that it was new to me and that I had expected a work showing clear immaturity: but I was wrong. This quartet opens with quite a songful and extended Adagio, twice the length of any of the following movements; these are an Allegro, Minuet and Rondo, and only in the last did I detect a hint of student-like manufactured passagework as opposed to a real flow of ideas. Oddly enough, this finale was a later addition, as the accompanying booklet reminds us: it is a little dismissive of the work, finding it dominated by the first violin, but this does not especially strike me.
The Quartetto Italiano give the listener much to enjoy (and Mozart much to marvel at) in the 13 quartets up to K173, written over four teenage years. One could differ with this or that detail—for example the opening Presto of K156 is a bit leisurely and its E minor Adagio perhaps invested with a profundity more suited to the later quartets, while the Andante un poco allegretto of K158 could flow more—but it is more sensible to enjoy these performances on their own terms, which remain consistently within good Mozart style.
The players have still greater interpretative challenges and opportunities in the quartets of the 'second period', by which I mean the ten quartets of 1782-90. These followed a gap of nine years (1773-82) which roughly parallels a similar hiatus in Haydn's quartet series between his Opp. 20 and 33; and as is widely known, Mozart's own six quartets from K387 to K465 were dedicated to the older composer and described by their creator as ''the fruit of long and arduous work''. Here, certainly, the individuality of the four instruments is fully realized, while the interplay of motif and melody between them is of a compositional order that makes the dull word 'counterpoint' seem inadequate and inappropriate. Sonata form still serves for the opening movements, but its most remarkable feature is its flexibility; similarly the fugal style of the finale of the G major Quartet that opens the series has sonata elements. Harmonically the language is daring too: one thinks of the stark modulations following the florid writing in the Andante cantabile of this quartet, of the tense chromaticism of K421 in D minor and, of course, of the famous Adagio introduction to the finale of the Dissonanace Quartet in which the tonic chord is not heard till bar 14, and then only for half a crotchet beat.
There is no doubt that the chief musical glories of this release, in music and playing alike, lie in this celebrated ''Haydn'' set together with the D major, K499 and the three ''Prussian'' Quartets K575, K589 and K590. But a longer discussion is impracticable here: suffice it to say that they are admirable (despite an occasional slowish tempo) and that the recording is fresh and faithful.'

Quartetto Italiano - Mozart: Complete String Quartets (2013)

Track List:

CD 1:
Quartet No.1 in G major, K80/73f
sol majeur G-Dur
[1] I. Adagio 6.42
[2] II. Allegro 3.11
[3] III. Minuetto 3.05
[4] IV. Rondeau 2.13

Quartet No.2 in D major, K155/134a
ré majeur D-Dur
[5] I. Allegro 3.34
[6] II. Andante 4.40
[7] III. Molto allegro 1.25

Quartet No.3 in G major, K156/134b
sol majeur G-Dur
[8] I. Presto 3.03
[9] II. Adagio 6.43
[10] III. Tempo di menuetto 3.51
[11] II. Adagio (original version version originale Erstfassung) 2.44

Quartet No.4 in C major, K157
ut majeur C-Dur
[12] I. Allegro 5.22
[13] II. Andante 5.01
[14] III. Presto 1.55

Quartet No.5 in F major, K158
fa majeur F-Dur
[15] I. Allegro 3.28
[16] II. Andante un poco allegretto 5.45
[17] III. Tempo di minuetto 6.19

Exact Audio Copy V1.0 beta 3 from 29. August 2011

Отчёт EAC об извлечении, выполненном 1. апреля 2015, 19:06

Wolfgang Amadeus Mozart / Quartetto Italiano / Complete String Quartets - Disk 1 of 8

Дисковод: MATSHITABD-MLT UJ240ES Adapter: 2 ID: 0

Режим чтения : Достоверность
Использование точного потока : Да
Отключение кэша аудио : Да
Использование указателей C2 : Нет

Коррекция смещения при чтении : 103
Способность читать области Lead-in и Lead-out : Нет
Заполнение пропущенных сэмплов тишиной : Да
Удаление блоков с тишиной в начале и конце : Нет
При вычислениях CRC использовались нулевые сэмплы : Да
Интерфейс : Встроенный Win32-интерфейс для Win NT/2000
Обработка зазоров : Добавлено к предыдущему треку

Выходной формат : Пользовательский кодировщик
Выбранный битрейт : 1024 kBit/s
Качество : Высокий
Добавление ID3-тега : Нет
Утилита сжатия : C:\Program Files (x86)\Exact Audio Copy\Flac\flac.exe
Дополнительные параметры : -V -8 -T "Genre=%genre%" -T "Artist=%artist%" -T "Title=%title%" -T "Album=%albumtitle%" -T "Date=%year%" -T "Tracknumber=%tracknr%" -T "Comment=%comment%" %source%


TOC извлечённого CD

Трек | Старт | Длительность | Начальный сектор | Конечный сектор
––––––––––––––––––––––––––––––––––-
1 | 0:00.33 | 6:46.00 | 33 | 30482
2 | 6:46.33 | 3:14.00 | 30483 | 45032
3 | 10:00.33 | 3:07.00 | 45033 | 59057
4 | 13:07.33 | 2:22.00 | 59058 | 69707
5 | 15:29.33 | 3:36.00 | 69708 | 85907
6 | 19:05.33 | 4:42.25 | 85908 | 107082
7 | 23:47.58 | 1:35.50 | 107083 | 114257
8 | 25:23.33 | 3:05.00 | 114258 | 128132
9 | 28:28.33 | 6:45.00 | 128133 | 158507
10 | 35:13.33 | 3:55.00 | 158508 | 176132
11 | 39:08.33 | 2:54.00 | 176133 | 189182
12 | 42:02.33 | 5:24.00 | 189183 | 213482
13 | 47:26.33 | 5:04.00 | 213483 | 236282
14 | 52:30.33 | 2:05.00 | 236283 | 245657
15 | 54:35.33 | 3:30.00 | 245658 | 261407
16 | 58:05.33 | 5:48.00 | 261408 | 287507
17 | 63:53.33 | 6:19.00 | 287508 | 315932


Трек 1

Имя файла C:\EAC rips\Mozart - Complete String Quartets\01\01. Quartet No.1 in G, K.80-73f - 1. Adagio.wav

Длина предзазора 0:00:02.33

Пиковый уровень 36.8 %
Скорость извлечения 2.6 X
Качество трека 99.9 %
CRC теста 91F6899D
CRC копии 91F6899D
Точное извлечение (достоверность 9) [E799B795] (AR v2)
Копирование… OK

Трек 2

Имя файла C:\EAC rips\Mozart - Complete String Quartets\01\02. Quartet No.1 in G, K.80-73f - 2. Allegro.wav

Длина предзазора 0:00:03.38

Пиковый уровень 93.6 %
Скорость извлечения 2.9 X
Качество трека 100.0 %
CRC теста FBBA4026
CRC копии FBBA4026
Точное извлечение (достоверность 8) [858ECB82] (AR v2)
Копирование… OK

Трек 3

Имя файла C:\EAC rips\Mozart - Complete String Quartets\01\03. Quartet No.1 in G, K.80-73f - 3. Minuetto.wav

Длина предзазора 0:00:03.00

Пиковый уровень 74.0 %
Скорость извлечения 3.0 X
Качество трека 100.0 %
CRC теста 2E2FA8C3
CRC копии 2E2FA8C3
Точное извлечение (достоверность 9) [8C1DC965] (AR v2)
Копирование… OK

Трек 4

Имя файла C:\EAC rips\Mozart - Complete String Quartets\01\04. Quartet No.1 in G, K.80-73f - 4. Rondeau.wav

Длина предзазора 0:00:02.00

Пиковый уровень 90.6 %
Скорость извлечения 3.0 X
Качество трека 100.0 %
CRC теста 8051441C
CRC копии 8051441C
Точное извлечение (достоверность 9) [F563A044] (AR v2)
Копирование… OK

Трек 5

Имя файла C:\EAC rips\Mozart - Complete String Quartets\01\05. Quartet No.2 in D, K.155-134a - 1. Allegro.wav

Длина предзазора 0:00:09.00

Пиковый уровень 91.2 %
Скорость извлечения 3.3 X
Качество трека 100.0 %
CRC теста DE66C262
CRC копии DE66C262
Точное извлечение (достоверность 9) [CCC514D7] (AR v2)
Копирование… OK

Трек 6

Имя файла C:\EAC rips\Mozart - Complete String Quartets\01\06. Quartet No.2 in D, K.155-134a - 2. Andante.wav

Длина предзазора 0:00:02.00

Пиковый уровень 74.5 %
Скорость извлечения 3.7 X
Качество трека 100.0 %
CRC теста E9A24EB5
CRC копии E9A24EB5
Точное извлечение (достоверность 9) [E1D6B16B] (AR v2)
Копирование… OK

Трек 7

Имя файла C:\EAC rips\Mozart - Complete String Quartets\01\07. Quartet No.2 in D, K.155-134a - 3. Molto allegro.wav

Длина предзазора 0:00:02.00

Пиковый уровень 81.3 %
Скорость извлечения 3.1 X
Качество трека 100.0 %
CRC теста 25E65B58
CRC копии 25E65B58
Точное извлечение (достоверность 9) [5FBF73A5] (AR v2)
Копирование… OK

Трек 8

Имя файла C:\EAC rips\Mozart - Complete String Quartets\01\08. Quartet No.3 in G, K.156-134b - 1. Presto.wav

Длина предзазора 0:00:11.00

Пиковый уровень 77.6 %
Скорость извлечения 3.6 X
Качество трека 100.0 %
CRC теста 632FFFFE
CRC копии 632FFFFE
Точное извлечение (достоверность 9) [128986CB] (AR v2)
Копирование… OK

Трек 9

Имя файла C:\EAC rips\Mozart - Complete String Quartets\01\09. Quartet No.3 in G, K.156-134b - 2. Adagio.wav

Длина предзазора 0:00:02.00

Пиковый уровень 80.5 %
Скорость извлечения 4.2 X
Качество трека 100.0 %
CRC теста FF519814
CRC копии FF519814
Точное извлечение (достоверность 9) [6C4D2FD9] (AR v2)
Копирование… OK

Трек 10

Имя файла C:\EAC rips\Mozart - Complete String Quartets\01\10. Quartet No.3 in G, K.156-134b - 3. Tempo di menuetto.wav

Длина предзазора 0:00:02.00

Пиковый уровень 74.3 %
Скорость извлечения 4.1 X
Качество трека 100.0 %
CRC теста 391BE52D
CRC копии 391BE52D
Точное извлечение (достоверность 9) [9E847549] (AR v2)
Копирование… OK

Трек 11

Имя файла C:\EAC rips\Mozart - Complete String Quartets\01\11. Quartet No.3 in G, K.156-134b - 4. Adagio (version originale).wav

Длина предзазора 0:00:04.00

Пиковый уровень 53.7 %
Скорость извлечения 4.1 X
Качество трека 100.0 %
CRC теста E935D8B8
CRC копии E935D8B8
Точное извлечение (достоверность 9) [58EB6BC0] (AR v2)
Копирование… OK

Трек 12

Имя файла C:\EAC rips\Mozart - Complete String Quartets\01\12. Quartet No.4 in C, K.157 - 1. Allegro.wav

Длина предзазора 0:00:10.00

Пиковый уровень 92.1 %
Скорость извлечения 4.2 X
Качество трека 99.9 %
CRC теста 0F9AB560
CRC копии 0F9AB560
Точное извлечение (достоверность 8) [205A44C5] (AR v2)
Копирование… OK

Трек 13

Имя файла C:\EAC rips\Mozart - Complete String Quartets\01\13. Quartet No.4 in C, K.157 - 2. Andante.wav

Длина предзазора 0:00:02.00

Пиковый уровень 65.2 %
Скорость извлечения 4.8 X
Качество трека 100.0 %
CRC теста 3823C7A8
CRC копии 3823C7A8
Точное извлечение (достоверность 9) [4416C115] (AR v2)
Копирование… OK

Трек 14

Имя файла C:\EAC rips\Mozart - Complete String Quartets\01\14. Quartet No.4 in C, K.157 - 3. Presto.wav

Длина предзазора 0:00:03.00

Пиковый уровень 95.5 %
Скорость извлечения 4.3 X
Качество трека 100.0 %
CRC теста 1989BEFA
CRC копии 1989BEFA
Точное извлечение (достоверность 9) [1F427CA7] (AR v2)
Копирование… OK

Трек 15

Имя файла C:\EAC rips\Mozart - Complete String Quartets\01\15. Quartet No.5 in F, K.158 - 1. Allegro.wav

Длина предзазора 0:00:10.00

Пиковый уровень 88.5 %
Скорость извлечения 4.8 X
Качество трека 100.0 %
CRC теста 93A32372
CRC копии 93A32372
Точное извлечение (достоверность 9) [A45DE4E7] (AR v2)
Копирование… OK

Трек 16

Имя файла C:\EAC rips\Mozart - Complete String Quartets\01\16. Quartet No.5 in F, K.158 - 2. Andante un poco allegretto.wav

Длина предзазора 0:00:02.00

Пиковый уровень 96.8 %
Скорость извлечения 5.2 X
Качество трека 100.0 %
CRC теста 8FD916CF
CRC копии 8FD916CF
Точное извлечение (достоверность 9) [273CDAF0] (AR v2)
Копирование… OK

Трек 17

Имя файла C:\EAC rips\Mozart - Complete String Quartets\01\17. Quartet No.5 in F, K.158 - 3. Tempo di minuetto.wav

Длина предзазора 0:00:03.00

Пиковый уровень 80.3 %
Скорость извлечения 5.4 X
Качество трека 100.0 %
CRC теста 5AF84C21
CRC копии 5AF84C21
Точное извлечение (достоверность 9) [946987D0] (AR v2)
Копирование… OK


Все треки извлечены точно

Ошибок не произошло

Конец отчёта

==== Контрольная сумма отчёта 0FEBCB0E41AD04964F3379B36833C04EDAC0207284799529D5F3923CADD1059E ====

[CUETools log; Date: 10.04.2018 18:28:07; Version: 2.1.5]
Pregap length 00:00:33.
[CTDB TOCID: P7W6ZAM53EkJwWhCmAzii4oAAl8-] found.
Track | CTDB Status
1 | (114/114) Accurately ripped
2 | (114/114) Accurately ripped
3 | (114/114) Accurately ripped
4 | ( 95/114) Accurately ripped, or (8/114) differs in 168 samples @00:32:32-00:32:41,00:35:65-00:35:68,00:36:65-00:36:68,00:39:23-00:39:29,00:40:22-00:40:26, or (6/114) differs in 6 samples @00:36:72, or (3/114) differs in 6 samples @00:36:72, or (1/114) differs in 168 samples @00:32:32-00:32:41,00:35:65-00:35:68,00:36:65-00:36:68,00:39:23-00:39:29,00:40:22-00:40:26
5 | (104/114) Accurately ripped, or (6/114) differs in 6 samples @00:10:72, or (3/114) differs in 6 samples @00:10:72
6 | (114/114) Accurately ripped
7 | (113/114) Accurately ripped
8 | (114/114) Accurately ripped
9 | (114/114) Accurately ripped
10 | (114/114) Accurately ripped
11 | (114/114) Accurately ripped
12 | (114/114) Accurately ripped
13 | (114/114) Accurately ripped
14 | (114/114) Accurately ripped
15 | (114/114) Accurately ripped
16 | (113/114) Accurately ripped
17 | ( 70/114) Accurately ripped, or (8/114) differs in 3 samples @06:12:64, or (1/114) differs in 3 samples @06:12:64
[AccurateRip ID: 00298fd2-020d5ff8-eb107411] found.
Track [ CRC | V2 ] Status
01 [de4050d5|e799b795] (003+019/112) Accurately ripped
02 [fdb95718|858ecb82] (003+017/111) Accurately ripped
03 [becbeeb5|8c1dc965] (003+018/112) Accurately ripped
04 [ebfe762e|f563a044] (003+019/114) Accurately ripped
05 [d27c2f3f|ccc514d7] (003+019/114) Accurately ripped
06 [8bdd117a|e1d6b16b] (003+019/113) Accurately ripped
07 [cbdeca41|5fbf73a5] (003+019/114) Accurately ripped
08 [67761acf|128986cb] (003+018/113) Accurately ripped
09 [364d44e6|6c4d2fd9] (003+019/113) Accurately ripped
10 [c7e6c688|9e847549] (003+019/113) Accurately ripped
11 [3d88ba64|58eb6bc0] (003+019/113) Accurately ripped
12 [7eb3d242|205a44c5] (003+018/113) Accurately ripped
13 [e11a6806|4416c115] (003+019/114) Accurately ripped
14 [54e729d0|1f427ca7] (003+019/114) Accurately ripped
15 [4906214b|a45de4e7] (003+019/113) Accurately ripped
16 [f1abd058|273cdaf0] (003+019/113) Accurately ripped
17 [b9c64e5e|946987d0] (003+019/111) Accurately ripped
Offsetted by 664:
01 [53fb9f77] (004/112) Accurately ripped
02 [d2a165e7] (004/111) Accurately ripped
03 [d660ff19] (004/112) Accurately ripped
04 [8b87f8b2] (004/114) Accurately ripped
05 [5c35e416] (004/114) Accurately ripped
06 [709063ce] (004/113) Accurately ripped
07 [454db618] (004/114) Accurately ripped
08 [1f031067] (004/113) Accurately ripped
09 [6952a9ad] (004/113) Accurately ripped
10 [0a425675] (004/113) Accurately ripped
11 [99e47937] (004/113) Accurately ripped
12 [829dc105] (004/113) Accurately ripped
13 [410e0b55] (004/114) Accurately ripped
14 [9a97e2dd] (004/114) Accurately ripped
15 [10c848d2] (004/113) Accurately ripped
16 [fd6b9062] (004/113) Accurately ripped
17 [f2f9a53f] (004/111) Accurately ripped
Offsetted by -972:
01 [47c99646] (008/112) Accurately ripped
02 [95c8e7ae] (008/111) Accurately ripped
03 [3ec832a2] (008/112) Accurately ripped
04 [5cb2dec6] (000/114) No match (V2 was not tested)
05 [012696a1] (000/114) No match (V2 was not tested)
06 [5bce9bd9] (007/113) Accurately ripped
07 [8a8ada1d] (008/114) Accurately ripped
08 [680eebdb] (008/113) Accurately ripped
09 [9f2ff11a] (008/113) Accurately ripped
10 [97408a78] (008/113) Accurately ripped
11 [308b0bca] (008/113) Accurately ripped
12 [da1441fe] (008/113) Accurately ripped
13 [8a3a0574] (008/114) Accurately ripped
14 [5b85e806] (008/114) Accurately ripped
15 [573125ae] (008/113) Accurately ripped
16 [af027c42] (008/113) Accurately ripped
17 [8336ad3f] (006/111) Accurately ripped
Offsetted by -12:
01 [fc7b7844] (000/112) No match (V2 was not tested)
02 [8b0e7d3f] (000/111) No match (V2 was not tested)
03 [3fb8fedb] (000/112) No match (V2 was not tested)
04 [d8018ae5] (000/114) No match (V2 was not tested)
05 [ceedf142] (000/114) No match (V2 was not tested)
06 [dab035ab] (000/113) No match (V2 was not tested)
07 [209fbff0] (000/114) No match (V2 was not tested)
08 [5da72bcb] (000/113) No match (V2 was not tested)
09 [b1cc2b46] (000/113) No match (V2 was not tested)
10 [2a7f75eb] (000/113) No match (V2 was not tested)
11 [3c060ed0] (000/113) No match (V2 was not tested)
12 [2d40d69a] (000/113) No match (V2 was not tested)
13 [2b7d259d] (000/114) No match (V2 was not tested)
14 [5afb13ec] (000/114) No match (V2 was not tested)
15 [cfd15973] (000/113) No match (V2 was not tested)
16 [313f35cc] (000/113) No match (V2 was not tested)
17 [f29eaf9b] (000/111) No match (V2 was not tested)
Offsetted by 448:
01 [a66ab08a] (013/112) Accurately ripped
02 [50b22126] (014/111) Accurately ripped
03 [6eccf3e8] (014/112) Accurately ripped
04 [89e79eb9] (014/114) Accurately ripped
05 [e16c06d0] (014/114) Accurately ripped
06 [b25e7965] (014/113) Accurately ripped
07 [0722c0d4] (014/114) Accurately ripped
08 [b4fd3ed5] (014/113) Accurately ripped
09 [7a1d527c] (014/113) Accurately ripped
10 [6af760f4] (014/113) Accurately ripped
11 [11ed8f2d] (014/113) Accurately ripped
12 [4085e424] (014/113) Accurately ripped
13 [fa98905c] (014/114) Accurately ripped
14 [3a398d8c] (014/114) Accurately ripped
15 [f181db46] (014/113) Accurately ripped
16 [89269777] (014/113) Accurately ripped
17 [7f41a728] (000/111) No match (V2 was not tested)

Track Peak [ CRC32 ] [W/O NULL] [ LOG ]
– 96,8 [7D3DF5D7] [1C6288FF]
01 36,8 [91F6899D] [4EE119A7] CRC32
02 93,5 [FBBA4026] [4FC7D4E0] CRC32
03 74,0 [2E2FA8C3] [2FA2D6B6] CRC32
04 90,6 [8051441C] [1F8C906F] CRC32
05 91,2 [DE66C262] [51B79577] CRC32
06 74,5 [E9A24EB5] [34C43C48] CRC32
07 81,3 [25E65B58] [136009FD] CRC32
08 77,6 [632FFFFE] [F15511A4] CRC32
09 80,5 [FF519814] [5905A0A7] CRC32
10 74,3 [391BE52D] [6169AF59] CRC32
11 53,7 [E935D8B8] [CD6F08B8] CRC32
12 92,1 [0F9AB560] [D6E50E65] CRC32
13 65,2 [3823C7A8] [05188DAB] CRC32
14 95,5 [1989BEFA] [107DECB8] CRC32
15 88,5 [93A32372] [A240F7A3] CRC32
16 96,8 [8FD916CF] [BD041184] CRC32
17 80,3 [5AF84C21] [C94C2699] CRC32

CD 2:
Quartet No.6 in B flat major, K159
si bémol majeur B-Dur
[1] I. Andante 5.27
[2] II. Allegro 5.14
[3] III. Rondo. Allegro grazioso 2.32

Quartet No.7 in E flat major, K160/159a
mi bémol majeur Es-Dur
[4] I. Allegro 3.11
[5] II. Un poco adagio 5.13
[6] III. Presto . 2.40

Quartet No.8 in F major, K168
fa majeur F-Dur
[7] I. Allegro 4.21
[8] II. Andante 5.34
[9] III. Menuetto 2.34
[10] IV. Allegro 2.06

Quartet No.9 in A major, K169
la majeur A-Dur
[11] I. Molto allegro 3.22
[12] II. Andante 7.16
[13] III. Menuetto 3.06
[14] IV. Rondeaux: Allegro 1.36

Exact Audio Copy V1.0 beta 3 from 29. August 2011

Отчёт EAC об извлечении, выполненном 1. апреля 2015, 20:45

Wolfgang Amadeus Mozart / Quartetto Italiano / Complete String Quartets - Disk 2 of 8

Дисковод: MATSHITABD-MLT UJ240ES Adapter: 2 ID: 0

Режим чтения : Достоверность
Использование точного потока : Да
Отключение кэша аудио : Да
Использование указателей C2 : Нет

Коррекция смещения при чтении : 103
Способность читать области Lead-in и Lead-out : Нет
Заполнение пропущенных сэмплов тишиной : Да
Удаление блоков с тишиной в начале и конце : Нет
При вычислениях CRC использовались нулевые сэмплы : Да
Интерфейс : Встроенный Win32-интерфейс для Win NT/2000
Обработка зазоров : Добавлено к предыдущему треку

Выходной формат : Пользовательский кодировщик
Выбранный битрейт : 1024 kBit/s
Качество : Высокий
Добавление ID3-тега : Нет
Утилита сжатия : C:\Program Files (x86)\Exact Audio Copy\Flac\flac.exe
Дополнительные параметры : -V -8 -T "Genre=%genre%" -T "Artist=%artist%" -T "Title=%title%" -T "Album=%albumtitle%" -T "Date=%year%" -T "Tracknumber=%tracknr%" -T "Comment=%comment%" %source%


TOC извлечённого CD

Трек | Старт | Длительность | Начальный сектор | Конечный сектор
––––––––––––––––––––––––––––––––––-
1 | 0:00.33 | 5:28.50 | 33 | 24682
2 | 5:29.08 | 5:17.50 | 24683 | 48507
3 | 10:46.58 | 2:40.25 | 48508 | 60532
4 | 13:27.08 | 3:14.50 | 60533 | 75132
5 | 16:41.58 | 5:16.25 | 75133 | 98857
6 | 21:58.08 | 2:47.25 | 98858 | 111407
7 | 24:45.33 | 4:25.25 | 111408 | 131307
8 | 29:10.58 | 5:38.00 | 131308 | 156657
9 | 34:48.58 | 2:35.62 | 156658 | 168344
10 | 37:24.45 | 2:13.38 | 168345 | 178357
11 | 39:38.08 | 3:25.00 | 178358 | 193732
12 | 43:03.08 | 7:18.00 | 193733 | 226582
13 | 50:21.08 | 3:07.50 | 226583 | 240657
14 | 53:28.58 | 1:36.38 | 240658 | 247895


Трек 1

Имя файла C:\EAC rips\Mozart - Complete String Quartets\02\01. Quartet No.6 in B flat, K.159 - 1. Andante.wav

Длина предзазора 0:00:02.33

Пиковый уровень 69.5 %
Скорость извлечения 2.4 X
Качество трека 99.9 %
CRC теста F176741F
CRC копии F176741F
Точное извлечение (достоверность 9) [8DFD0EB7] (AR v2)
Копирование… OK

Трек 2

Имя файла C:\EAC rips\Mozart - Complete String Quartets\02\02. Quartet No.6 in B flat, K.159 - 2. Allegro.wav

Длина предзазора 0:00:02.00

Пиковый уровень 84.5 %
Скорость извлечения 3.0 X
Качество трека 100.0 %
CRC теста B15CC90C
CRC копии B15CC90C
Точное извлечение (достоверность 9) [9F28D5DE] (AR v2)
Копирование… OK

Трек 3

Имя файла C:\EAC rips\Mozart - Complete String Quartets\02\03. Quartet No.6 in B flat, K.159 - 3. Rondo. Allegro grazioso.wav

Длина предзазора 0:00:04.00

Пиковый уровень 80.3 %
Скорость извлечения 2.5 X
Качество трека 99.9 %
CRC теста A3A64CAF
CRC копии A3A64CAF
Точное извлечение (достоверность 9) [9DE67E53] (AR v2)
Копирование… OK

Трек 4

Имя файла C:\EAC rips\Mozart - Complete String Quartets\02\04. Quartet No.7 in E flat, K.160-159a - 1. Allegro.wav

Длина предзазора 0:00:08.50

Пиковый уровень 79.3 %
Скорость извлечения 3.2 X
Качество трека 100.0 %
CRC теста F44498C7
CRC копии F44498C7
Точное извлечение (достоверность 9) [0EBD9394] (AR v2)
Копирование… OK

Трек 5

Имя файла C:\EAC rips\Mozart - Complete String Quartets\02\05. Quartet No.7 in E flat, K.160-159a - 2. Un poco adagio.wav

Длина предзазора 0:00:03.25

Пиковый уровень 60.0 %
Скорость извлечения 3.6 X
Качество трека 100.0 %
CRC теста 8BD4A79F
CRC копии 8BD4A79F
Точное извлечение (достоверность 9) [7245E076] (AR v2)
Копирование… OK

Трек 6

Имя файла C:\EAC rips\Mozart - Complete String Quartets\02\06. Quartet No.7 in E flat, K.160-159a - 3. Presto.wav

Длина предзазора 0:00:03.25

Пиковый уровень 78.7 %
Скорость извлечения 3.0 X
Качество трека 99.9 %
CRC теста DE6FDC6C
CRC копии DE6FDC6C
Точное извлечение (достоверность 9) [9B4529BA] (AR v2)
Копирование… OK

Трек 7

Имя файла C:\EAC rips\Mozart - Complete String Quartets\02\07. Quartet No.8 in F, K.168 - 1. Allegro.wav

Длина предзазора 0:00:07.25

Пиковый уровень 77.6 %
Скорость извлечения 3.9 X
Качество трека 100.0 %
CRC теста 1409FEE0
CRC копии 1409FEE0
Точное извлечение (достоверность 8) [BF4FC144] (AR v2)
Копирование… OK

Трек 8

Имя файла C:\EAC rips\Mozart - Complete String Quartets\02\08. Quartet No.8 in F, K.168 - 2. Andante.wav

Длина предзазора 0:00:04.25

Пиковый уровень 34.9 %
Скорость извлечения 3.9 X
Качество трека 99.9 %
CRC теста 6D695CFA
CRC копии 6D695CFA
Точное извлечение (достоверность 9) [DB23A26E] (AR v2)
Копирование… OK

Трек 9

Имя файла C:\EAC rips\Mozart - Complete String Quartets\02\09. Quartet No.8 in F, K.168 - 3. Menuetto.wav

Длина предзазора 0:00:04.00

Пиковый уровень 58.7 %
Скорость извлечения 3.9 X
Качество трека 100.0 %
CRC теста 3CE5F92A
CRC копии 3CE5F92A
Точное извлечение (достоверность 9) [AED11FB0] (AR v2)
Копирование… OK

Трек 10

Имя файла C:\EAC rips\Mozart - Complete String Quartets\02\10. Quartet No.8 in F, K.168 - 4. Allegro.wav

Длина предзазора 0:00:01.38

Пиковый уровень 71.7 %
Скорость извлечения 3.8 X
Качество трека 100.0 %
CRC теста F8818ED0
CRC копии F8818ED0
Точное извлечение (достоверность 9) [A88C160D] (AR v2)
Копирование… OK

Трек 11

Имя файла C:\EAC rips\Mozart - Complete String Quartets\02\11. Quartet No.9 in A, K.169 - 1. Molto allegro.wav

Длина предзазора 0:00:07.25

Пиковый уровень 75.8 %
Скорость извлечения 4.3 X
Качество трека 100.0 %
CRC теста AAAC91F4
CRC копии AAAC91F4
Точное извлечение (достоверность 9) [435596B0] (AR v2)
Копирование… OK

Трек 12

Имя файла C:\EAC rips\Mozart - Complete String Quartets\02\12. Quartet No.9 in A, K.169 - 2. Andante.wav

Длина предзазора 0:00:02.50

Пиковый уровень 77.2 %
Скорость извлечения 4.9 X
Качество трека 100.0 %
CRC теста 58BE4DAE
CRC копии 58BE4DAE
Точное извлечение (достоверность 9) [FDE076CE] (AR v2)
Копирование… OK

Трек 13

Имя файла C:\EAC rips\Mozart - Complete String Quartets\02\13. Quartet No.9 in A, K.169 - 3. Menuetto.wav

Длина предзазора 0:00:02.00

Пиковый уровень 65.0 %
Скорость извлечения 4.6 X
Качество трека 100.0 %
CRC теста 34074FDB
CRC копии 34074FDB
Точное извлечение (достоверность 9) [2FC8AC12] (AR v2)
Копирование… OK

Трек 14

Имя файла C:\EAC rips\Mozart - Complete String Quartets\02\14. Quartet No.9 in A, K.169 - 4. Rondeaux. Allegro.wav

Длина предзазора 0:00:01.13

Пиковый уровень 68.8 %
Скорость извлечения 4.0 X
Качество трека 100.0 %
CRC теста 78CD0D18
CRC копии 78CD0D18
Точное извлечение (достоверность 9) [A284F961] (AR v2)
Копирование… OK


Все треки извлечены точно

Ошибок не произошло

Конец отчёта

==== Контрольная сумма отчёта 71FC806F51B9A4E7B92B009F08C6091BDF4FD490965EBFA9DDC181395F001B85 ====

[CUETools log; Date: 10.04.2018 18:28:27; Version: 2.1.5]
Pregap length 00:00:33.
[CTDB TOCID: LWbydRDKCg5CVuVeufdU_H4uWdU-] found.
Track | CTDB Status
1 | (33/33) Accurately ripped
2 | (33/33) Accurately ripped
3 | (33/33) Accurately ripped
4 | (33/33) Accurately ripped
5 | (33/33) Accurately ripped
6 | (33/33) Accurately ripped
7 | (33/33) Accurately ripped
8 | (33/33) Accurately ripped
9 | (33/33) Accurately ripped
10 | (33/33) Accurately ripped
11 | (33/33) Accurately ripped
12 | (33/33) Accurately ripped
13 | (33/33) Accurately ripped
14 | (33/33) Accurately ripped
[AccurateRip ID: 001df2c7-013b1635-a10ce90e] found.
Track [ CRC | V2 ] Status
01 [58bc39d0|8dfd0eb7] (03+19/34) Accurately ripped
02 [e41a94c7|9f28d5de] (03+18/33) Accurately ripped
03 [a8ad8680|9de67e53] (03+19/34) Accurately ripped
04 [c81489ae|0ebd9394] (03+19/34) Accurately ripped
05 [020b799b|7245e076] (03+19/34) Accurately ripped
06 [54467241|9b4529ba] (03+19/34) Accurately ripped
07 [9916eea1|bf4fc144] (03+17/34) Accurately ripped
08 [e5ec62b6|db23a26e] (03+19/34) Accurately ripped
09 [f6f9c0f5|aed11fb0] (03+19/34) Accurately ripped
10 [8042817e|a88c160d] (03+19/34) Accurately ripped
11 [eadd2db0|435596b0] (03+19/34) Accurately ripped
12 [62b174b9|fde076ce] (03+19/34) Accurately ripped
13 [d77185c3|2fc8ac12] (03+19/34) Accurately ripped
14 [0d795557|a284f961] (03+19/34) Accurately ripped
Offsetted by -12:
01 [5c102e71] (00/34) No match (V2 was not tested)
02 [e22c3b4f] (00/33) No match (V2 was not tested)
03 [277d46b3] (00/34) No match (V2 was not tested)
04 [24027eb9] (00/34) No match (V2 was not tested)
05 [87364036] (00/34) No match (V2 was not tested)
06 [69ee6a83] (00/34) No match (V2 was not tested)
07 [f94eecfa] (00/34) No match (V2 was not tested)
08 [1d5f1eaa] (00/34) No match (V2 was not tested)
09 [804c80d1] (00/34) No match (V2 was not tested)
10 [481b98a5] (00/34) No match (V2 was not tested)
11 [da6bdb6a] (00/34) No match (V2 was not tested)
12 [1e8e1f63] (00/34) No match (V2 was not tested)
13 [5f3353d6] (00/34) No match (V2 was not tested)
14 [d0f99d6a] (00/34) No match (V2 was not tested)

Track Peak [ CRC32 ] [W/O NULL] [ LOG ]
– 84,5 [FA8F3600] [83ACC3B6]
01 69,5 [F176741F] [19B9F6DC] CRC32
02 84,5 [B15CC90C] [527D07C3] CRC32
03 80,3 [A3A64CAF] [E4162092] CRC32
04 79,3 [F44498C7] [ACD19341] CRC32
05 60,0 [8BD4A79F] [42821364] CRC32
06 78,7 [DE6FDC6C] [EE7F01D3] CRC32
07 77,6 [1409FEE0] [8AA2E943] CRC32
08 34,9 [6D695CFA] [FCB37103] CRC32
09 58,7 [3CE5F92A] [FCFA9DDA] CRC32
10 71,7 [F8818ED0] [E0009270] CRC32
11 75,8 [AAAC91F4] [45D6C6DA] CRC32
12 77,2 [58BE4DAE] [49A586C2] CRC32
13 65,0 [34074FDB] [2CE20E3B] CRC32
14 68,8 [78CD0D18] [9746A186] CRC32

CD 3:
Quartet No.10 in C major, K170
ut majeur C-Dur
[1] I. Andante 4.48
[2] II. Menuetto 3.05
[3] III. Un poco adagio 5.12
[4] IV. Rondeaux: Allegro 2.33

Quartet No.11 in E flat major, K171
mi bémol majeur Es-Dur
[5] I. Adagio — Allegro assai — Adagio 5.56
[6] II. Menuetto 2.52
[7] III. Andante 4.48
[8] IV. Allegro assai 2.53

Quartet No.12 in B flat major, K172
si bémol majeur B-Dur
[9] I. Allegro spiritoso 4.01
[10] II. Adagio 5.03
[11] III. Menuetto 3.03
[12] IV. Allegro assai 3.36

Quartet No.13 in D minor, K173
ré mineur d-Moll
[13] I. Allegro ma molto moderato 5.26
[14] II. Andantino grazioso 3.22
[15] III. Menuetto 4.02
[16] IV. Allegro 3.24

Exact Audio Copy V1.0 beta 3 from 29. August 2011

Отчёт EAC об извлечении, выполненном 1. апреля 2015, 22:55

Wolfgang Amadeus Mozart / Quartetto Italiano / Complete String Quartets - Disk 3 of 8

Дисковод: MATSHITABD-MLT UJ240ES Adapter: 2 ID: 0

Режим чтения : Достоверность
Использование точного потока : Да
Отключение кэша аудио : Да
Использование указателей C2 : Нет

Коррекция смещения при чтении : 103
Способность читать области Lead-in и Lead-out : Нет
Заполнение пропущенных сэмплов тишиной : Да
Удаление блоков с тишиной в начале и конце : Нет
При вычислениях CRC использовались нулевые сэмплы : Да
Интерфейс : Встроенный Win32-интерфейс для Win NT/2000
Обработка зазоров : Добавлено к предыдущему треку

Выходной формат : Пользовательский кодировщик
Выбранный битрейт : 1024 kBit/s
Качество : Высокий
Добавление ID3-тега : Нет
Утилита сжатия : C:\Program Files (x86)\Exact Audio Copy\Flac\flac.exe
Дополнительные параметры : -V -8 -T "Genre=%genre%" -T "Artist=%artist%" -T "Title=%title%" -T "Album=%albumtitle%" -T "Date=%year%" -T "Tracknumber=%tracknr%" -T "Comment=%comment%" %source%


TOC извлечённого CD

Трек | Старт | Длительность | Начальный сектор | Конечный сектор
––––––––––––––––––––––––––––––––––-
1 | 0:00.33 | 4:50.25 | 33 | 21807
2 | 4:50.58 | 3:07.25 | 21808 | 35857
3 | 7:58.08 | 5:15.25 | 35858 | 59507
4 | 13:13.33 | 2:41.25 | 59508 | 71607
5 | 15:54.58 | 5:59.50 | 71608 | 98582
6 | 21:54.33 | 2:54.00 | 98583 | 111632
7 | 24:48.33 | 4:51.00 | 111633 | 133457
8 | 29:39.33 | 2:59.00 | 133458 | 146882
9 | 32:38.33 | 4:02.25 | 146883 | 165057
10 | 36:40.58 | 5:07.25 | 165058 | 188107
11 | 41:48.08 | 3:05.00 | 188108 | 201982
12 | 44:53.08 | 3:43.00 | 201983 | 218707
13 | 48:36.08 | 5:27.25 | 218708 | 243257
14 | 54:03.33 | 3:24.00 | 243258 | 258557
15 | 57:27.33 | 4:04.50 | 258558 | 276907
16 | 61:32.08 | 3:24.25 | 276908 | 292232


Трек 1

Имя файла C:\EAC rips\Mozart - Complete String Quartets\03\01. Quartet No.10 in C, K.170 - 1. Andante.wav

Длина предзазора 0:00:02.33

Пиковый уровень 69.7 %
Скорость извлечения 2.6 X
Качество трека 100.0 %
CRC теста 34773CD0
CRC копии 34773CD0
Точное извлечение (достоверность 9) [4B8C6A42] (AR v2)
Копирование… OK

Трек 2

Имя файла C:\EAC rips\Mozart - Complete String Quartets\03\02. Quartet No.10 in C, K.170 - 2. Menuetto.wav

Длина предзазора 0:00:02.25

Пиковый уровень 87.6 %
Скорость извлечения 2.7 X
Качество трека 100.0 %
CRC теста C5D1D5DD
CRC копии C5D1D5DD
Точное извлечение (достоверность 9) [9D22F9E4] (AR v2)
Копирование… OK

Трек 3

Имя файла C:\EAC rips\Mozart - Complete String Quartets\03\03. Quartet No.10 in C, K.170 - 3. Un poco adagio.wav

Длина предзазора 0:00:02.25

Пиковый уровень 68.1 %
Скорость извлечения 3.1 X
Качество трека 100.0 %
CRC теста 2261C085
CRC копии 2261C085
Точное извлечение (достоверность 9) [B6331304] (AR v2)
Копирование… OK

Трек 4

Имя файла C:\EAC rips\Mozart - Complete String Quartets\03\04. Quartet No.10 in C, K.170 - 4. Rondeaux. Allegro.wav

Длина предзазора 0:00:03.00

Пиковый уровень 81.6 %
Скорость извлечения 2.6 X
Качество трека 99.9 %
CRC теста BC9E40DE
CRC копии BC9E40DE
Точное извлечение (достоверность 9) [92ACE003] (AR v2)
Копирование… OK

Трек 5

Имя файла C:\EAC rips\Mozart - Complete String Quartets\03\05. Quartet No.11 in E flat, K.171 - 1. Adagio - Allegro assai - adagio.wav

Длина предзазора 0:00:08.25

Пиковый уровень 77.5 %
Скорость извлечения 3.6 X
Качество трека 100.0 %
CRC теста FE033A06
CRC копии FE033A06
Точное извлечение (достоверность 9) [46B8D712] (AR v2)
Копирование… OK

Трек 6

Имя файла C:\EAC rips\Mozart - Complete String Quartets\03\06. Quartet No.11 in E flat, K.171 - 2. Menuetto.wav

Длина предзазора 0:00:03.38

Пиковый уровень 80.6 %
Скорость извлечения 3.5 X
Качество трека 100.0 %
CRC теста 8BEC8E98
CRC копии 8BEC8E98
Точное извлечение (достоверность 9) [57875036] (AR v2)
Копирование… OK

Трек 7

Имя файла C:\EAC rips\Mozart - Complete String Quartets\03\07. Quartet No.11 in E flat, K.171 - 3. Andante.wav

Длина предзазора 0:00:02.25

Пиковый уровень 51.8 %
Скорость извлечения 4.0 X
Качество трека 100.0 %
CRC теста BC3EB5D2
CRC копии BC3EB5D2
Точное извлечение (достоверность 9) [E56A6FE3] (AR v2)
Копирование… OK

Трек 8

Имя файла C:\EAC rips\Mozart - Complete String Quartets\03\08. Quartet No.11 in E flat, K.171 - 4. Allegro assai.wav

Длина предзазора 0:00:03.00

Пиковый уровень 89.6 %
Скорость извлечения 3.9 X
Качество трека 100.0 %
CRC теста 90E01BAD
CRC копии 90E01BAD
Точное извлечение (достоверность 9) [6D731E73] (AR v2)
Копирование… OK

Трек 9

Имя файла C:\EAC rips\Mozart - Complete String Quartets\03\09. Quartet No.12 in B flat, K.172 - 1. Allegro spiritoso.wav

Длина предзазора 0:00:06.25

Пиковый уровень 89.1 %
Скорость извлечения 3.7 X
Качество трека 99.9 %
CRC теста DF798500
CRC копии DF798500
Точное извлечение (достоверность 9) [DB305565] (AR v2)
Копирование… OK

Трек 10

Имя файла C:\EAC rips\Mozart - Complete String Quartets\03\10. Quartet No.12 in B flat, K.172 - 2. Adagio.wav

Длина предзазора 0:00:01.50

Пиковый уровень 69.8 %
Скорость извлечения 4.4 X
Качество трека 100.0 %
CRC теста B66FCCB8
CRC копии B66FCCB8
Точное извлечение (достоверность 8) [15039F17] (AR v2)
Копирование… OK

Трек 11

Имя файла C:\EAC rips\Mozart - Complete String Quartets\03\11. Quartet No.12 in B flat, K.172 - 3. Menuetto.wav

Длина предзазора 0:00:04.25

Пиковый уровень 70.6 %
Скорость извлечения 4.3 X
Качество трека 100.0 %
CRC теста 0546D01C
CRC копии 0546D01C
Точное извлечение (достоверность 9) [DA1F1370] (AR v2)
Копирование… OK

Трек 12

Имя файла C:\EAC rips\Mozart - Complete String Quartets\03\12. Quartet No.12 in B flat, K.172 - 4. Allegro assai.wav

Длина предзазора 0:00:02.00

Пиковый уровень 93.1 %
Скорость извлечения 4.6 X
Качество трека 100.0 %
CRC теста EA57CAAA
CRC копии EA57CAAA
Точное извлечение (достоверность 9) [854AE8AC] (AR v2)
Копирование… OK

Трек 13

Имя файла C:\EAC rips\Mozart - Complete String Quartets\03\13. Quartet No.13 in d, K.173 - 1. Allegro ma molto moderato.wav

Длина предзазора 0:00:06.50

Пиковый уровень 81.2 %
Скорость извлечения 4.6 X
Качество трека 99.9 %
CRC теста 5EB75987
CRC копии 5EB75987
Точное извлечение (достоверность 9) [1792F0F3] (AR v2)
Копирование… OK

Трек 14

Имя файла C:\EAC rips\Mozart - Complete String Quartets\03\14. Quartet No.13 in d, K.173 - 2. Andantino grazioso.wav

Длина предзазора 0:00:01.25

Пиковый уровень 75.7 %
Скорость извлечения 4.8 X
Качество трека 100.0 %
CRC теста 301C801F
CRC копии 301C801F
Точное извлечение (достоверность 9) [6B05041F] (AR v2)
Копирование… OK

Трек 15

Имя файла C:\EAC rips\Mozart - Complete String Quartets\03\15. Quartet No.13 in d, K.173 - 3. Menuetto.wav

Длина предзазора 0:00:02.00

Пиковый уровень 78.3 %
Скорость извлечения 4.4 X
Качество трека 99.9 %
CRC теста 4F0EBBFC
CRC копии 4F0EBBFC
Точное извлечение (достоверность 9) [0922F226] (AR v2)
Копирование… OK

Трек 16

Имя файла C:\EAC rips\Mozart - Complete String Quartets\03\16. Quartet No.13 in d, K.173 - 4. Allegro.wav

Длина предзазора 0:00:03.00

Пиковый уровень 90.6 %
Скорость извлечения 3.9 X
Качество трека 100.0 %
CRC теста FE123E9D
CRC копии FE123E9D
Точное извлечение (достоверность 9) [34B0A94A] (AR v2)
Копирование… OK


Все треки извлечены точно

Ошибок не произошло

Конец отчёта

==== Контрольная сумма отчёта 9A4A6AB5FF41FFFC33009CD4EE6C57F545A42C1CA2DCE1C82C766B579398D4D0 ====

[CUETools log; Date: 10.04.2018 18:29:02; Version: 2.1.5]
Pregap length 00:00:33.
[CTDB TOCID: P5QbrSqbhk5HfkO7rLKm9GjUioc-] found.
Track | CTDB Status
1 | (99/99) Accurately ripped
2 | (99/99) Accurately ripped
3 | (99/99) Accurately ripped
4 | (99/99) Accurately ripped
5 | (99/99) Accurately ripped
6 | (48/99) Accurately ripped, or (49/99) differs in 1 samples @02:36:02, or (1/99) differs in 1 samples @02:36:02
7 | (99/99) Accurately ripped
8 | (99/99) Accurately ripped
9 | (99/99) Accurately ripped
10 | (99/99) Accurately ripped
11 | (99/99) Accurately ripped
12 | (99/99) Accurately ripped
13 | (99/99) Accurately ripped
14 | (97/99) Accurately ripped
15 | (97/99) Accurately ripped
16 | (97/99) Accurately ripped
[AccurateRip ID: 0026841a-01cc7f02-ee0f3810] found.
Track [ CRC | V2 ] Status
01 [1e9fe185|4b8c6a42] (003+019/109) Accurately ripped
02 [c68b628d|9d22f9e4] (003+019/109) Accurately ripped
03 [987fffe0|b6331304] (003+019/110) Accurately ripped
04 [150641e3|92ace003] (003+019/110) Accurately ripped
05 [f46d9c7c|46b8d712] (003+019/109) Accurately ripped
06 [7c799b7c|57875036] (003+019/110) Accurately ripped
07 [ac50c110|e56a6fe3] (003+018/107) Accurately ripped
08 [3da5df3e|6d731e73] (003+018/109) Accurately ripped
09 [97447b41|db305565] (003+018/109) Accurately ripped
10 [a4abc81d|15039f17] (003+016/109) Accurately ripped
11 [960293dd|da1f1370] (003+018/109) Accurately ripped
12 [119b0505|854ae8ac] (003+018/109) Accurately ripped
13 [cb9f499a|1792f0f3] (003+018/107) Accurately ripped
14 [6ac2dfe8|6b05041f] (003+018/107) Accurately ripped
15 [c79fa761|0922f226] (003+018/107) Accurately ripped
16 [b2353039|34b0a94a] (003+018/108) Accurately ripped
Offsetted by 86:
01 [51a914fe] (002/109) Accurately ripped
02 [e68fcb21] (002/109) Accurately ripped
03 [e40bf270] (002/110) Accurately ripped
04 [6e5039f0] (002/110) Accurately ripped
05 [648f9822] (002/109) Accurately ripped
06 [8552ba3d] (002/110) Accurately ripped
07 [026d8797] (002/107) Accurately ripped
08 [dd7bbba4] (002/109) Accurately ripped
09 [5fd0d7d8] (002/109) Accurately ripped
10 [cc230031] (002/109) Accurately ripped
11 [70fbb688] (002/109) Accurately ripped
12 [3cba7cff] (002/109) Accurately ripped
13 [1b696099] (002/107) Accurately ripped
14 [5f04be04] (002/107) Accurately ripped
15 [066db40c] (002/107) Accurately ripped
16 [ea4c5bb1] (002/108) Accurately ripped
Offsetted by -501:
01 [cb5e0c91] (006/109) Accurately ripped
02 [e3d94e04] (006/109) Accurately ripped
03 [c9032cd6] (006/110) Accurately ripped
04 [0866e515] (006/110) Accurately ripped
05 [4baf74d5] (006/109) Accurately ripped
06 [cf80f9b4] (000/110) No match (V2 was not tested)
07 [6cb58c7d] (006/107) Accurately ripped
08 [352a6032] (006/109) Accurately ripped
09 [09ecca4a] (006/109) Accurately ripped
10 [f1f0a7dc] (006/109) Accurately ripped
11 [e123b61c] (006/109) Accurately ripped
12 [76a9db40] (006/109) Accurately ripped
13 [cac05952] (005/107) Accurately ripped
14 [9a859d6d] (006/107) Accurately ripped
15 [883f519f] (006/107) Accurately ripped
16 [6973f115] (006/108) Accurately ripped
Offsetted by -12:
01 [60a2b3e5] (000/109) No match (V2 was not tested)
02 [f0ad0890] (000/109) No match (V2 was not tested)
03 [ba9f96e7] (000/110) No match (V2 was not tested)
04 [a28d33d9] (000/110) No match (V2 was not tested)
05 [e12b34b7] (000/109) No match (V2 was not tested)
06 [763a9b7d] (000/110) No match (V2 was not tested)
07 [72e2304f] (000/107) No match (V2 was not tested)
08 [07f6e90b] (000/109) No match (V2 was not tested)
09 [10de3cc4] (000/109) No match (V2 was not tested)
10 [5cff3488] (000/109) No match (V2 was not tested)
11 [6060c53d] (000/109) No match (V2 was not tested)
12 [bb78eafb] (000/109) No match (V2 was not tested)
13 [60ca4ff4] (000/107) No match (V2 was not tested)
14 [343d885b] (000/107) No match (V2 was not tested)
15 [cdd8c88e] (000/107) No match (V2 was not tested)
16 [506c0153] (000/108) No match (V2 was not tested)
Offsetted by 223:
01 [63fc4b4d] (002/109) Accurately ripped
02 [168a292c] (002/109) Accurately ripped
03 [a339d71e] (002/110) Accurately ripped
04 [2c45a1c5] (002/110) Accurately ripped
05 [54c51a68] (002/109) Accurately ripped
06 [2ee5c3f0] (000/110) No match (V2 was not tested)
07 [e37d49d3] (002/107) Accurately ripped
08 [d795b119] (002/109) Accurately ripped
09 [d444584c] (002/109) Accurately ripped
10 [4cd0e323] (002/109) Accurately ripped
11 [bf253457] (002/109) Accurately ripped
12 [e5872134] (002/109) Accurately ripped
13 [a57b5f24] (002/107) Accurately ripped
14 [f4f44682] (002/107) Accurately ripped
15 [53da6452] (002/107) Accurately ripped
16 [7305c667] (002/108) Accurately ripped
Offsetted by 767:
01 [867a9e14] (013/109) Accurately ripped
02 [34262c79] (013/109) Accurately ripped
03 [7266132b] (013/110) Accurately ripped
04 [21c7fcb0] (013/110) Accurately ripped
05 [eef9005d] (013/109) Accurately ripped
06 [1d1e9305] (000/110) No match (V2 was not tested)
07 [d4c79b0f] (013/107) Accurately ripped
08 [fb2fa43f] (013/109) Accurately ripped
09 [08f46f9d] (013/109) Accurately ripped
10 [647d569a] (013/109) Accurately ripped
11 [20f9e593] (013/109) Accurately ripped
12 [524e59b8] (013/109) Accurately ripped
13 [61cffc50] (013/107) Accurately ripped
14 [f11ed88a] (013/107) Accurately ripped
15 [8c522785] (013/107) Accurately ripped
16 [bf5befc8] (013/108) Accurately ripped

Track Peak [ CRC32 ] [W/O NULL] [ LOG ]
– 93,1 [502BA474] [EA3156D1]
01 69,7 [34773CD0] [D0BB3984] CRC32
02 87,6 [C5D1D5DD] [C2A96125] CRC32
03 68,1 [2261C085] [CC6FA3D1] CRC32
04 81,6 [BC9E40DE] [2D87401C] CRC32
05 77,5 [FE033A06] [EEF6F296] CRC32
06 80,6 [8BEC8E98] [95DAAD4F] CRC32
07 51,8 [BC3EB5D2] [D82AA00F] CRC32
08 89,6 [90E01BAD] [7D4AA4F7] CRC32
09 89,1 [DF798500] [FBC5FBCE] CRC32
10 69,8 [B66FCCB8] [78AD531E] CRC32
11 70,6 [0546D01C] [96F96665] CRC32
12 93,1 [EA57CAAA] [22F2CCDD] CRC32
13 81,2 [5EB75987] [5C54236C] CRC32
14 75,7 [301C801F] [ECEEDE7E] CRC32
15 78,3 [4F0EBBFC] [9150C89C] CRC32
16 90,6 [FE123E9D] [01C48EFD] CRC32

CD 4:
The six "Haydn" Quartets
Les six quatuors "dédiés à Joseph Haydn"
Die sechs "Haydn-Quartette"

(1.) Quartet No. 14 in G major, K387
sol majeur G-Dur
[1] I. Allegro vivace assai 7.28
[2] II. Menuetto: Allegro 8.16
[3] III. Andante cantabile 7.15
[4] IV. Molto allegro 6.03

(2.) Quartet No.15 in D minor, K421/417b
ré mineur d-Moll
[5] I. Allegro moderato 7.18
[6] II. Andante 6.04
[7] III. Menuetto: Allegretto 4.07
[8] IV. Allegretto ma non troppo — Più allegro 9.37

Exact Audio Copy V1.0 beta 3 from 29. August 2011

Отчёт EAC об извлечении, выполненном 1. апреля 2015, 23:54

Wolfgang Amadeus Mozart / Quartetto Italiano / Complete String Quartets - Disk 4 of 8

Дисковод: MATSHITABD-MLT UJ240ES Adapter: 2 ID: 0

Режим чтения : Достоверность
Использование точного потока : Да
Отключение кэша аудио : Да
Использование указателей C2 : Нет

Коррекция смещения при чтении : 103
Способность читать области Lead-in и Lead-out : Нет
Заполнение пропущенных сэмплов тишиной : Да
Удаление блоков с тишиной в начале и конце : Нет
При вычислениях CRC использовались нулевые сэмплы : Да
Интерфейс : Встроенный Win32-интерфейс для Win NT/2000
Обработка зазоров : Добавлено к предыдущему треку

Выходной формат : Пользовательский кодировщик
Выбранный битрейт : 1024 kBit/s
Качество : Высокий
Добавление ID3-тега : Нет
Утилита сжатия : C:\Program Files (x86)\Exact Audio Copy\Flac\flac.exe
Дополнительные параметры : -V -8 -T "Genre=%genre%" -T "Artist=%artist%" -T "Title=%title%" -T "Album=%albumtitle%" -T "Date=%year%" -T "Tracknumber=%tracknr%" -T "Comment=%comment%" %source%


TOC извлечённого CD

Трек | Старт | Длительность | Начальный сектор | Конечный сектор
––––––––––––––––––––––––––––––––––-
1 | 0:00.33 | 7:31.70 | 33 | 33927
2 | 7:32.28 | 8:20.55 | 33928 | 71482
3 | 15:53.08 | 7:18.50 | 71483 | 104382
4 | 23:11.58 | 6:12.62 | 104383 | 132344
5 | 29:24.45 | 7:23.45 | 132345 | 165614
6 | 36:48.15 | 6:08.53 | 165615 | 193267
7 | 42:56.68 | 4:10.62 | 193268 | 212079
8 | 47:07.55 | 9:37.38 | 212080 | 255392


Трек 1

Имя файла C:\EAC rips\Mozart - Complete String Quartets\04\01. Quartet No.14 in G, K.387 ('Haydn 1') - 1. Allergo vivace assai.wav

Длина предзазора 0:00:02.33

Пиковый уровень 81.3 %
Скорость извлечения 2.7 X
Качество трека 100.0 %
CRC теста 080EBD39
CRC копии 080EBD39
Точное извлечение (достоверность 9) [4A7FA5C2] (AR v2)
Копирование… OK

Трек 2

Имя файла C:\EAC rips\Mozart - Complete String Quartets\04\02. Quartet No.14 in G, K.387 ('Haydn 1') - 2. Menuetto. Allegro.wav

Длина предзазора 0:00:03.63

Пиковый уровень 80.7 %
Скорость извлечения 3.3 X
Качество трека 100.0 %
CRC теста 14CBD9FF
CRC копии 14CBD9FF
Точное извлечение (достоверность 10) [4AD0317E] (AR v2)
Копирование… OK

Трек 3

Имя файла C:\EAC rips\Mozart - Complete String Quartets\04\03. Quartet No.14 in G, K.387 ('Haydn 1') - 3. Andante cantabile.wav

Длина предзазора 0:00:04.68

Пиковый уровень 70.6 %
Скорость извлечения 3.7 X
Качество трека 100.0 %
CRC теста 61ECB79C
CRC копии 61ECB79C
Точное извлечение (достоверность 10) [D39BCD76] (AR v2)
Копирование… OK

Трек 4

Имя файла C:\EAC rips\Mozart - Complete String Quartets\04\04. Quartet No.14 in G, K.387 ('Haydn 1') - 4. Molto allegro.wav

Длина предзазора 0:00:03.55

Пиковый уровень 80.8 %
Скорость извлечения 3.7 X
Качество трека 99.9 %
CRC теста CBB249E4
CRC копии CBB249E4
Точное извлечение (достоверность 10) [2CDAD15F] (AR v2)
Копирование… OK

Трек 5

Имя файла C:\EAC rips\Mozart - Complete String Quartets\04\05. Quartet No.15 in d, K.421-417b ('Haydn 2') - 1. Allegro moderato.wav

Длина предзазора 0:00:10.15

Пиковый уровень 73.5 %
Скорость извлечения 4.4 X
Качество трека 100.0 %
CRC теста 9B2CF67D
CRC копии 9B2CF67D
Точное извлечение (достоверность 10) [0050F9DC] (AR v2)
Копирование… OK

Трек 6

Имя файла C:\EAC rips\Mozart - Complete String Quartets\04\06. Quartet No.15 in d, K.421-417b ('Haydn 2') - 2. Andante.wav

Длина предзазора 0:00:05.40

Пиковый уровень 78.7 %
Скорость извлечения 4.6 X
Качество трека 100.0 %
CRC теста 577B81E2
CRC копии 577B81E2
Точное извлечение (достоверность 10) [1F00CB6F] (AR v2)
Копирование… OK

Трек 7

Имя файла C:\EAC rips\Mozart - Complete String Quartets\04\07. Quartet No.15 in d, K.421-417b ('Haydn 2') - 3. Menuetto. Allegretto.wav

Длина предзазора 0:00:04.35

Пиковый уровень 77.6 %
Скорость извлечения 4.6 X
Качество трека 100.0 %
CRC теста 64B0D7C1
CRC копии 64B0D7C1
Точное извлечение (достоверность 10) [F2609539] (AR v2)
Копирование… OK

Трек 8

Имя файла C:\EAC rips\Mozart - Complete String Quartets\04\08. Quartet No.15 in d, K.421-417b ('Haydn 2') - 4. Allegretto ma non troppo - Più allegro.wav

Длина предзазора 0:00:03.52

Пиковый уровень 65.8 %
Скорость извлечения 5.2 X
Качество трека 100.0 %
CRC теста 345524C9
CRC копии 345524C9
Точное извлечение (достоверность 10) [287A3CC8] (AR v2)
Копирование… OK


Все треки извлечены точно

Ошибок не произошло

Конец отчёта

==== Контрольная сумма отчёта B7440FD2987070A24644B5E0CC5B3C3E2F949F8A3886B2F175A3F4AF4B3E8E3F ====

[CUETools log; Date: 10.04.2018 18:29:25; Version: 2.1.5]
Pregap length 00:00:33.
[CTDB TOCID: bx4aUx.wQRZ97mWIVMRnq2yQeYY-] found.
Track | CTDB Status
1 | (87/89) Accurately ripped
2 | (89/89) Accurately ripped
3 | (89/89) Accurately ripped
4 | (89/89) Accurately ripped
5 | (89/89) Accurately ripped
6 | (89/89) Accurately ripped
7 | (89/89) Accurately ripped
8 | (88/89) Accurately ripped
[AccurateRip ID: 0011d490-00758b2a-760d4d08] found.
Track [ CRC | V2 ] Status
01 [26a43c25|4a7fa5c2] (003+018/102) Accurately ripped
02 [c90e4e5e|4ad0317e] (003+020/101) Accurately ripped
03 [58655cf5|d39bcd76] (003+020/102) Accurately ripped
04 [62f6c63f|2cdad15f] (003+020/102) Accurately ripped
05 [e2b27725|0050f9dc] (003+020/101) Accurately ripped
06 [242a9753|1f00cb6f] (003+019/102) Accurately ripped
07 [d11bdedc|f2609539] (003+020/102) Accurately ripped
08 [d6d7d4f7|287a3cc8] (003+020/102) Accurately ripped
Offsetted by 664:
01 [ffd99d2b] (008/102) Accurately ripped
02 [9189c177] (008/101) Accurately ripped
03 [289cc294] (008/102) Accurately ripped
04 [94824767] (008/102) Accurately ripped
05 [fb9f8278] (008/101) Accurately ripped
06 [a1d08e42] (008/102) Accurately ripped
07 [46c629c9] (008/102) Accurately ripped
08 [39714835] (007/102) Accurately ripped
Offsetted by 1333:
01 [5b47bb65] (013/102) Accurately ripped
02 [762d0c1d] (013/101) Accurately ripped
03 [ed32331c] (014/102) Accurately ripped
04 [febd0158] (014/102) Accurately ripped
05 [4a48228c] (013/101) Accurately ripped
06 [17e1c2a4] (014/102) Accurately ripped
07 [07ba0c20] (013/102) Accurately ripped
08 [674c1d1c] (013/102) Accurately ripped
Offsetted by -12:
01 [6310b43c] (000/102) No match (V2 was not tested)
02 [7322d7b6] (000/101) No match (V2 was not tested)
03 [eb0a5f11] (000/102) No match (V2 was not tested)
04 [7a129065] (000/102) No match (V2 was not tested)
05 [967c96b3] (000/101) No match (V2 was not tested)
06 [2cb68570] (000/102) No match (V2 was not tested)
07 [5b6d4294] (000/102) No match (V2 was not tested)
08 [09aece0a] (000/102) No match (V2 was not tested)

Track Peak [ CRC32 ] [W/O NULL] [ LOG ]
– 81,3 [272915CF] [7ECB9B48]
01 81,3 [080EBD39] [9B0EFBD8] CRC32
02 80,7 [14CBD9FF] [52E6D96B] CRC32
03 70,6 [61ECB79C] [5080EBE7] CRC32
04 80,8 [CBB249E4] [C698A8AA] CRC32
05 73,5 [9B2CF67D] [307BEA8C] CRC32
06 78,7 [577B81E2] [BDC2FDCB] CRC32
07 77,6 [64B0D7C1] [4C952581] CRC32
08 65,8 [345524C9] [7BF2E43D] CRC32

CD 5:
(3.) Quartet No.16 in E flat major, K428/421b
mi bémol majeur Es-Dur
[1] I. Allegro ma non troppo 7.21
[2] II. Andante con moto 9.05
[3] III. Allegretto 6.21
[4] IV. Allegro vivace 5.26

(4.) Quartet No.17 in B flat major, K458 "Hunt"
si bémol majeur "La Chasse" B-Dur "Jagd-Quartett"
[5] I. Allegro vivace assai 8.47
[6] II. Menuetto: Moderato 4.23
[7] III. Adagio 7.43
[8] IV. Allegro assai 6.31

Exact Audio Copy V1.0 beta 3 from 29. August 2011

Отчёт EAC об извлечении, выполненном 2. апреля 2015, 9:08

Wolfgang Amadeus Mozart / Quartetto Italiano / Complete String Quartets - Disk 5 of 8

Дисковод: MATSHITABD-MLT UJ240ES Adapter: 2 ID: 0

Режим чтения : Достоверность
Использование точного потока : Да
Отключение кэша аудио : Да
Использование указателей C2 : Нет

Коррекция смещения при чтении : 103
Способность читать области Lead-in и Lead-out : Нет
Заполнение пропущенных сэмплов тишиной : Да
Удаление блоков с тишиной в начале и конце : Нет
При вычислениях CRC использовались нулевые сэмплы : Да
Интерфейс : Встроенный Win32-интерфейс для Win NT/2000
Обработка зазоров : Добавлено к предыдущему треку

Выходной формат : Пользовательский кодировщик
Выбранный битрейт : 1024 kBit/s
Качество : Высокий
Добавление ID3-тега : Нет
Утилита сжатия : C:\Program Files (x86)\Exact Audio Copy\Flac\flac.exe
Дополнительные параметры : -V -8 -T "Genre=%genre%" -T "Artist=%artist%" -T "Title=%title%" -T "Album=%albumtitle%" -T "Date=%year%" -T "Tracknumber=%tracknr%" -T "Comment=%comment%" %source%


TOC извлечённого CD

Трек | Старт | Длительность | Начальный сектор | Конечный сектор
––––––––––––––––––––––––––––––––––-
1 | 0:00.33 | 7:24.00 | 33 | 33332
2 | 7:24.33 | 9:09.00 | 33333 | 74507
3 | 16:33.33 | 6:25.00 | 74508 | 103382
4 | 22:58.33 | 5:36.00 | 103383 | 128582
5 | 28:34.33 | 8:51.00 | 128583 | 168407
6 | 37:25.33 | 4:27.00 | 168408 | 188432
7 | 41:52.33 | 7:49.00 | 188433 | 223607
8 | 49:41.33 | 6:32.00 | 223608 | 253007


Трек 1

Имя файла C:\EAC rips\Mozart - Complete String Quartets\05\01. Quartet No.16 in E flat, K.428-421b ('Haydn 3') - 1. Allegro ma non troppo.wav

Длина предзазора 0:00:02.33

Пиковый уровень 71.7 %
Скорость извлечения 2.7 X
Качество трека 100.0 %
CRC теста D985F572
CRC копии D985F572
Точное извлечение (достоверность 11) [1065AFEF] (AR v2)
Копирование… OK

Трек 2

Имя файла C:\EAC rips\Mozart - Complete String Quartets\05\02. Quartet No.16 in E flat, K.428-421b ('Haydn 3') - 2. Andante con moto.wav

Длина предзазора 0:00:02.38

Пиковый уровень 63.0 %
Скорость извлечения 3.4 X
Качество трека 100.0 %
CRC теста 4CE77EF4
CRC копии 4CE77EF4
Точное извлечение (достоверность 11) [CB423342] (AR v2)
Копирование… OK

Трек 3

Имя файла C:\EAC rips\Mozart - Complete String Quartets\05\03. Quartet No.16 in E flat, K.428-421b ('Haydn 3') - 3. Menuetto. Allegretto.wav

Длина предзазора 0:00:03.00

Пиковый уровень 79.5 %
Скорость извлечения 3.7 X
Качество трека 100.0 %
CRC теста 6C3064D8
CRC копии 6C3064D8
Точное извлечение (достоверность 11) [FF8085F9] (AR v2)
Копирование… OK

Трек 4

Имя файла C:\EAC rips\Mozart - Complete String Quartets\05\04. Quartet No.16 in E flat, K.428-421b ('Haydn 3') - 4. Allegro vivace.wav

Длина предзазора 0:00:02.74

Пиковый уровень 73.1 %
Скорость извлечения 3.6 X
Качество трека 99.9 %
CRC теста 95B29F32
CRC копии 95B29F32
Точное извлечение (достоверность 11) [87DD3E9C] (AR v2)
Копирование… OK

Трек 5

Имя файла C:\EAC rips\Mozart - Complete String Quartets\05\05. Quartet No.17 in B flat, K.458 ''Hunt'' ('Haydn 4') - 1. Allegro vivace assai.wav

Длина предзазора 0:00:10.00

Пиковый уровень 78.6 %
Скорость извлечения 4.5 X
Качество трека 100.0 %
CRC теста BD3F73A8
CRC копии BD3F73A8
Точное извлечение (достоверность 11) [7215B59F] (AR v2)
Копирование… OK

Трек 6

Имя файла C:\EAC rips\Mozart - Complete String Quartets\05\06. Quartet No.17 in B flat, K.458 ''Hunt'' ('Haydn 4') - 2. Menuetto. Moderato.wav

Длина предзазора 0:00:03.38

Пиковый уровень 78.5 %
Скорость извлечения 4.4 X
Качество трека 100.0 %
CRC теста 729678F8
CRC копии 729678F8
Точное извлечение (достоверность 10) [82FF0F35] (AR v2)
Копирование… OK

Трек 7

Имя файла C:\EAC rips\Mozart - Complete String Quartets\05\07. Quartet No.17 in B flat, K.458 ''Hunt'' ('Haydn 4') - 3. Adagio.wav

Длина предзазора 0:00:03.00

Пиковый уровень 61.2 %
Скорость извлечения 4.9 X
Качество трека 100.0 %
CRC теста D1A8A4ED
CRC копии D1A8A4ED
Точное извлечение (достоверность 11) [AE1280E3] (AR v2)
Копирование… OK

Трек 8

Имя файла C:\EAC rips\Mozart - Complete String Quartets\05\08. Quartet No.17 in B flat, K.458 ''Hunt'' ('Haydn 4') - 4. Allegro assai.wav

Длина предзазора 0:00:03.38

Пиковый уровень 79.0 %
Скорость извлечения 5.1 X
Качество трека 100.0 %
CRC теста C2FD1725
CRC копии C2FD1725
Точное извлечение (достоверность 10) [9EB7AC0A] (AR v2)
Копирование… OK


Все треки извлечены точно

Ошибок не произошло

Конец отчёта

==== Контрольная сумма отчёта D352CA9A32AB99BBC6BFBD48BDAAB730D4A35F591969AAC89D067331B6F2D4E9 ====

[CUETools log; Date: 10.04.2018 18:29:47; Version: 2.1.5]
Pregap length 00:00:33.
[CTDB TOCID: qFeIIxJbbM9nTHAUROnEgF0NS4U-] found.
Track | CTDB Status
1 | (89/90) Accurately ripped
2 | (89/90) Accurately ripped
3 | (89/90) Accurately ripped
4 | (89/90) Accurately ripped
5 | (89/90) Accurately ripped
6 | (89/90) Accurately ripped
7 | (89/90) Accurately ripped
8 | (89/90) Accurately ripped
[AccurateRip ID: 0011e731-00762285-730d2d08] found.
Track [ CRC | V2 ] Status
01 [7fec21e1|1065afef] (03+21/78) Accurately ripped
02 [e4961952|cb423342] (03+21/80) Accurately ripped
03 [ba819cab|ff8085f9] (03+21/77) Accurately ripped
04 [7c9d04dd|87dd3e9c] (03+20/79) Accurately ripped
05 [8f72fe80|7215b59f] (03+21/77) Accurately ripped
06 [7a03d745|82ff0f35] (03+20/78) Accurately ripped
07 [1a9198ac|ae1280e3] (03+21/79) Accurately ripped
08 [fdef6951|9eb7ac0a] (03+18/78) Accurately ripped
Offsetted by 664:
01 [fcb7d4a9] (10/78) Accurately ripped
02 [7f26a87d] (10/80) Accurately ripped
03 [8c93bc1c] (10/77) Accurately ripped
04 [9dada26d] (10/79) Accurately ripped
05 [eeef5540] (10/77) Accurately ripped
06 [adb7b23d] (10/78) Accurately ripped
07 [f52ff84b] (10/79) Accurately ripped
08 [2fe51bb2] (10/78) Accurately ripped
Offsetted by 1116:
01 [0c34234c] (06/78) Accurately ripped
02 [bd12ae69] (06/80) Accurately ripped
03 [e634297e] (06/77) Accurately ripped
04 [7b9a648e] (06/79) Accurately ripped
05 [a5b31180] (06/77) Accurately ripped
06 [0e6f08da] (06/78) Accurately ripped
07 [0227fab0] (06/79) Accurately ripped
08 [1978deb8] (06/78) Accurately ripped
Offsetted by -12:
01 [31f00ea6] (00/78) No match (V2 was not tested)
02 [d8bbfc1e] (00/80) No match (V2 was not tested)
03 [6d1959a8] (00/77) No match (V2 was not tested)
04 [24562877] (00/79) No match (V2 was not tested)
05 [06a1b2bf] (00/77) No match (V2 was not tested)
06 [e5bec3f6] (00/78) No match (V2 was not tested)
07 [594811db] (00/79) No match (V2 was not tested)
08 [5267d739] (00/78) No match (V2 was not tested)
Offsetted by 635:
01 [387d279a] (03/78) Accurately ripped
02 [80372baa] (03/80) Accurately ripped
03 [0e2b7f21] (02/77) Accurately ripped
04 [14371487] (03/79) Accurately ripped
05 [dd9985c6] (00/77) No match (V2 was not tested)
06 [1f7cf1d6] (02/78) Accurately ripped
07 [192de35c] (02/79) Accurately ripped
08 [e900cb9e] (02/78) Accurately ripped

Track Peak [ CRC32 ] [W/O NULL] [ LOG ]
– 79,5 [8B9E1BD8] [88249346]
01 71,7 [D985F572] [6BD19B05] CRC32
02 63,0 [4CE77EF4] [8D7EF442] CRC32
03 79,5 [6C3064D8] [9A354E95] CRC32
04 73,1 [95B29F32] [741F7180] CRC32
05 78,6 [BD3F73A8] [F1323441] CRC32
06 78,5 [729678F8] [3FB1540A] CRC32
07 61,2 [D1A8A4ED] [00DC0EA4] CRC32
08 79,0 [C2FD1725] [72B2018E] CRC32

CD 6:
(5.) Quartet No.18 in A major, K464
la majeur A-Dur
[1] I. Allegro 6.48
[2] II. Menuetto 6.12
[3] III. Andante 13.28
[4] IV. Allegro non troppo 7.11

(6.) Quartet No.19 in C major, K465 "Dissonance"
ut majeur "Les Dissonances" C-Dur "Dissonanzen-Quartett"
[5] I. Adagio — Allegro 11.16
[6] II. Andante cantabile 7.18
[7] III. Allegretto 5.29
[8] IV. Allegro molto 7.42

Exact Audio Copy V1.0 beta 3 from 29. August 2011

Отчёт EAC об извлечении, выполненном 2. апреля 2015, 10:11

Wolfgang Amadeus Mozart / Quartetto Italiano / Complete String Quartets - Disk 6 of 8

Дисковод: MATSHITABD-MLT UJ240ES Adapter: 2 ID: 0

Режим чтения : Достоверность
Использование точного потока : Да
Отключение кэша аудио : Да
Использование указателей C2 : Нет

Коррекция смещения при чтении : 103
Способность читать области Lead-in и Lead-out : Нет
Заполнение пропущенных сэмплов тишиной : Да
Удаление блоков с тишиной в начале и конце : Нет
При вычислениях CRC использовались нулевые сэмплы : Да
Интерфейс : Встроенный Win32-интерфейс для Win NT/2000
Обработка зазоров : Добавлено к предыдущему треку

Выходной формат : Пользовательский кодировщик
Выбранный битрейт : 1024 kBit/s
Качество : Высокий
Добавление ID3-тега : Нет
Утилита сжатия : C:\Program Files (x86)\Exact Audio Copy\Flac\flac.exe
Дополнительные параметры : -V -8 -T "Genre=%genre%" -T "Artist=%artist%" -T "Title=%title%" -T "Album=%albumtitle%" -T "Date=%year%" -T "Tracknumber=%tracknr%" -T "Comment=%comment%" %source%


TOC извлечённого CD

Трек | Старт | Длительность | Начальный сектор | Конечный сектор
––––––––––––––––––––––––––––––––––-
1 | 0:00.33 | 6:51.00 | 33 | 30857
2 | 6:51.33 | 6:17.00 | 30858 | 59132
3 | 13:08.33 | 13:31.00 | 59133 | 119957
4 | 26:39.33 | 7:17.00 | 119958 | 152732
5 | 33:56.33 | 11:18.37 | 152733 | 203619
6 | 45:14.70 | 7:22.38 | 203620 | 236807
7 | 52:37.33 | 5:33.00 | 236808 | 261782
8 | 58:10.33 | 7:42.00 | 261783 | 296432


Трек 1

Имя файла C:\EAC rips\Mozart - Complete String Quartets\06\01. Quartet No.18 in A, K.464 ('Haydn 5') - 1. Allegro.wav

Длина предзазора 0:00:02.33

Пиковый уровень 73.0 %
Скорость извлечения 2.6 X
Качество трека 99.9 %
CRC теста 307A8A7E
CRC копии 307A8A7E
Точное извлечение (достоверность 11) [8263B62A] (AR v2)
Копирование… OK

Трек 2

Имя файла C:\EAC rips\Mozart - Complete String Quartets\06\02. Quartet No.18 in A, K.464 ('Haydn 5') - 2. Menuetto.wav

Длина предзазора 0:00:03.00

Пиковый уровень 84.1 %
Скорость извлечения 3.2 X
Качество трека 100.0 %
CRC теста ADC92B40
CRC копии ADC92B40
Точное извлечение (достоверность 11) [F28CB74D] (AR v2)
Копирование… OK

Трек 3

Имя файла C:\EAC rips\Mozart - Complete String Quartets\06\03. Quartet No.18 in A, K.464 ('Haydn 5') - 3. Andante.wav

Длина предзазора 0:00:03.00

Пиковый уровень 72.6 %
Скорость извлечения 3.9 X
Качество трека 100.0 %
CRC теста 0071B362
CRC копии 0071B362
Точное извлечение (достоверность 11) [EFC9FD6D] (AR v2)
Копирование… OK

Трек 4

Имя файла C:\EAC rips\Mozart - Complete String Quartets\06\04. Quartet No.18 in A, K.464 ('Haydn 5') - 4. Allegro non troppo.wav

Длина предзазора 0:00:01.00

Пиковый уровень 81.9 %
Скорость извлечения 4.2 X
Качество трека 100.0 %
CRC теста 06F10FD2
CRC копии 06F10FD2
Точное извлечение (достоверность 11) [5657473E] (AR v2)
Копирование… OK

Трек 5

Имя файла C:\EAC rips\Mozart - Complete String Quartets\06\05. Quartet No.19 in C, K.465 ''Dissonance'' ('Haydn 6') - 1. Adagio - Allegro.wav

Длина предзазора 0:00:07.38

Пиковый уровень 78.2 %
Скорость извлечения 4.8 X
Качество трека 100.0 %
CRC теста 9102FC16
CRC копии 9102FC16
Точное извлечение (достоверность 11) [8D38116C] (AR v2)
Копирование… OK

Трек 6

Имя файла C:\EAC rips\Mozart - Complete String Quartets\06\06. Quartet No.19 in C, K.465 ''Dissonance'' ('Haydn 6') - 2. Andante cantabile.wav

Длина предзазора 0:00:02.00

Пиковый уровень 79.4 %
Скорость извлечения 5.0 X
Качество трека 100.0 %
CRC теста 9EAE8053
CRC копии 9EAE8053
Точное извлечение (достоверность 11) [8E40A3C6] (AR v2)
Копирование… OK

Трек 7

Имя файла C:\EAC rips\Mozart - Complete String Quartets\06\07. Quartet No.19 in C, K.465 ''Dissonance'' ('Haydn 6') - 3. Allegretto.wav

Длина предзазора 0:00:02.00

Пиковый уровень 77.0 %
Скорость извлечения 4.6 X
Качество трека 99.9 %
CRC теста E12D6BC0
CRC копии E12D6BC0
Точное извлечение (достоверность 11) [61120CCC] (AR v2)
Копирование… OK

Трек 8

Имя файла C:\EAC rips\Mozart - Complete String Quartets\06\08. Quartet No.19 in C, K.465 ''Dissonance'' ('Haydn 6') - 4. Allegro molto.wav

Длина предзазора 0:00:02.00

Пиковый уровень 84.9 %
Скорость извлечения 5.5 X
Качество трека 100.0 %
CRC теста 5EFEB2F1
CRC копии 5EFEB2F1
Точное извлечение (достоверность 10) [255C2167] (AR v2)
Копирование… OK


Все треки извлечены точно

Ошибок не произошло

Конец отчёта

==== Контрольная сумма отчёта BE7D819D84883348E345EFC6B392E09EA403BE7E6712A3908C10101EBFD12E29 ====

[CUETools log; Date: 10.04.2018 18:30:12; Version: 2.1.5]
Pregap length 00:00:33.
[CTDB TOCID: K5VYqICPqm61QveDwtGp1cdnPig-] found.
Track | CTDB Status
1 | (101/101) Accurately ripped
2 | (101/101) Accurately ripped
3 | (101/101) Accurately ripped
4 | (100/101) Accurately ripped
5 | (100/101) Accurately ripped
6 | (100/101) Accurately ripped
7 | (100/101) Accurately ripped
8 | ( 98/101) Accurately ripped
[AccurateRip ID: 0014c5cf-008b3956-630f7008] found.
Track [ CRC | V2 ] Status
01 [eba56571|8263b62a] (003+022/107) Accurately ripped
02 [1e0df586|f28cb74d] (003+022/108) Accurately ripped
03 [e4bba1d0|efc9fd6d] (002+021/106) Accurately ripped
04 [86ba2031|5657473e] (002+022/107) Accurately ripped
05 [5fd118b4|8d38116c] (003+022/106) Accurately ripped
06 [7490e86a|8e40a3c6] (003+022/107) Accurately ripped
07 [2202ddfe|61120ccc] (003+022/107) Accurately ripped
08 [85bab653|255c2167] (003+021/106) Accurately ripped
Offsetted by 664:
01 [a8348c92] (018/107) Accurately ripped
02 [93a402de] (018/108) Accurately ripped
03 [5df74a4f] (018/106) Accurately ripped
04 [8b7e5025] (018/107) Accurately ripped
05 [19fe8e0b] (018/106) Accurately ripped
06 [bb39745a] (018/107) Accurately ripped
07 [33dbb205] (018/107) Accurately ripped
08 [6c71db57] (017/106) Accurately ripped
Offsetted by 1468:
01 [0f99696a] (006/107) Accurately ripped
02 [a96d9daf] (006/108) Accurately ripped
03 [ac5a8741] (006/106) Accurately ripped
04 [87fa6d37] (006/107) Accurately ripped
05 [1ec961cc] (004/106) Accurately ripped
06 [056740a2] (005/107) Accurately ripped
07 [d137a703] (005/107) Accurately ripped
08 [56591150] (006/106) Accurately ripped
Offsetted by 1846:
01 [be261b03] (002/107) Accurately ripped
02 [b2b8b308] (002/108) Accurately ripped
03 [e6d7e232] (002/106) Accurately ripped
04 [3711e1b2] (002/107) Accurately ripped
05 [8ce1c86d] (002/106) Accurately ripped
06 [0de10b05] (002/107) Accurately ripped
07 [661c9f73] (002/107) Accurately ripped
08 [debffc32] (002/106) Accurately ripped
Offsetted by -12:
01 [68600165] (000/107) No match (V2 was not tested)
02 [7cfae909] (000/108) No match (V2 was not tested)
03 [8344ec79] (000/106) No match (V2 was not tested)
04 [09eb4f65] (000/107) No match (V2 was not tested)
05 [c94ed363] (000/106) No match (V2 was not tested)
06 [2c2df748] (000/107) No match (V2 was not tested)
07 [3744d584] (000/107) No match (V2 was not tested)
08 [a67a524f] (000/106) No match (V2 was not tested)

Track Peak [ CRC32 ] [W/O NULL] [ LOG ]
– 84,9 [B4C055FF] [60DDFF63]
01 73,0 [307A8A7E] [2494CAA7] CRC32
02 84,1 [ADC92B40] [3126927A] CRC32
03 72,6 [0071B362] [D9EEC683] CRC32
04 81,9 [06F10FD2] [DDC0706B] CRC32
05 78,2 [9102FC16] [21506C48] CRC32
06 79,4 [9EAE8053] [1E7A0663] CRC32
07 77,0 [E12D6BC0] [B67D4C98] CRC32
08 84,9 [5EFEB2F1] [CEE929FF] CRC32

CD 7:
Quartet No.20 in D major, K499 "Hoffmeister"
ré majeur D-Dur
[1] I. Allegretto 10.05
[2] II. Menuetto: Allegretto 2.59
[3] III. Adagio 9.06
[4] IV. Allegro 7.05

The three "Prussian" Quartets
Les trois quatuors "Prussiens"
Die drei "Preußischen Quartette"

(1.) Quartet No.21 in D major, K575
ré majeur D-Dur
[5] I. Allegretto 7.25
[6] II. Andante 4.50
[7] III. Menuetto: Allegretto 6.07
[8] IV. Allegretto 6.16

Exact Audio Copy V1.0 beta 3 from 29. August 2011

Отчёт EAC об извлечении, выполненном 2. апреля 2015, 10:59

Wolfgang Amadeus Mozart / Quartetto Italiano / Complete String Quartets - Disk 7 of 8

Дисковод: MATSHITABD-MLT UJ240ES Adapter: 2 ID: 0

Режим чтения : Достоверность
Использование точного потока : Да
Отключение кэша аудио : Да
Использование указателей C2 : Нет

Коррекция смещения при чтении : 103
Способность читать области Lead-in и Lead-out : Нет
Заполнение пропущенных сэмплов тишиной : Да
Удаление блоков с тишиной в начале и конце : Нет
При вычислениях CRC использовались нулевые сэмплы : Да
Интерфейс : Встроенный Win32-интерфейс для Win NT/2000
Обработка зазоров : Добавлено к предыдущему треку

Выходной формат : Пользовательский кодировщик
Выбранный битрейт : 1024 kBit/s
Качество : Высокий
Добавление ID3-тега : Нет
Утилита сжатия : C:\Program Files (x86)\Exact Audio Copy\Flac\flac.exe
Дополнительные параметры : -V -8 -T "Genre=%genre%" -T "Artist=%artist%" -T "Title=%title%" -T "Album=%albumtitle%" -T "Date=%year%" -T "Tracknumber=%tracknr%" -T "Comment=%comment%" %source%


TOC извлечённого CD

Трек | Старт | Длительность | Начальный сектор | Конечный сектор
––––––––––––––––––––––––––––––––––-
1 | 0:00.33 | 10:09.00 | 33 | 45707
2 | 10:09.33 | 3:01.25 | 45708 | 59307
3 | 13:10.58 | 9:07.50 | 59308 | 100382
4 | 22:18.33 | 7:12.00 | 100383 | 132782
5 | 29:30.33 | 7:28.50 | 132783 | 166432
6 | 36:59.08 | 4:53.00 | 166433 | 188407
7 | 41:52.08 | 6:10.00 | 188408 | 216157
8 | 48:02.08 | 6:16.25 | 216158 | 244382


Трек 1

Имя файла C:\EAC rips\Mozart - Complete String Quartets\07\01. Quartet No. 20 in D, K.499 'Hoffmeister' - 1. Allegretto.wav

Длина предзазора 0:00:02.33

Пиковый уровень 89.4 %
Скорость извлечения 2.9 X
Качество трека 100.0 %
CRC теста B14B12FF
CRC копии B14B12FF
Точное извлечение (достоверность 10) [F4468370] (AR v2)
Копирование… OK

Трек 2

Имя файла C:\EAC rips\Mozart - Complete String Quartets\07\02. Quartet No. 20 in D, K.499 'Hoffmeister' - 2. Menuetto. Allegretto.wav

Длина предзазора 0:00:03.50

Пиковый уровень 69.7 %
Скорость извлечения 3.0 X
Качество трека 100.0 %
CRC теста 8EADD761
CRC копии 8EADD761
Точное извлечение (достоверность 10) [CF7A3FA6] (AR v2)
Копирование… OK

Трек 3

Имя файла C:\EAC rips\Mozart - Complete String Quartets\07\03. Quartet No. 20 in D, K.499 'Hoffmeister' - 3. Adagio.wav

Длина предзазора 0:00:02.25

Пиковый уровень 66.3 %
Скорость извлечения 3.7 X
Качество трека 100.0 %
CRC теста 7AFD7172
CRC копии 7AFD7172
Точное извлечение (достоверность 10) [F9EC93E9] (AR v2)
Копирование… OK

Трек 4

Имя файла C:\EAC rips\Mozart - Complete String Quartets\07\04. Quartet No. 20 in D, K.499 'Hoffmeister' - 4. Allegro.wav

Длина предзазора 0:00:01.50

Пиковый уровень 98.4 %
Скорость извлечения 4.1 X
Качество трека 100.0 %
CRC теста 739F7625
CRC копии 739F7625
Точное извлечение (достоверность 10) [8D35E7C5] (AR v2)
Копирование… OK

Трек 5

Имя файла C:\EAC rips\Mozart - Complete String Quartets\07\05. Quartet No. 21 in D, K.575 ('Pussisian 1') - 1. Allegretto.wav

Длина предзазора 0:00:06.50

Пиковый уровень 82.2 %
Скорость извлечения 4.3 X
Качество трека 100.0 %
CRC теста 6F2272D5
CRC копии 6F2272D5
Точное извлечение (достоверность 10) [B6C4FAC8] (AR v2)
Копирование… OK

Трек 6

Имя файла C:\EAC rips\Mozart - Complete String Quartets\07\06. Quartet No. 21 in D, K.575 ('Pussisian 1') - 2. Andante.wav

Длина предзазора 0:00:03.50

Пиковый уровень 50.9 %
Скорость извлечения 4.4 X
Качество трека 100.0 %
CRC теста 81F30733
CRC копии 81F30733
Точное извлечение (достоверность 10) [B2B95520] (AR v2)
Копирование… OK

Трек 7

Имя файла C:\EAC rips\Mozart - Complete String Quartets\07\07. Quartet No. 21 in D, K.575 ('Pussisian 1') - 3. Menuetto. Allegretto.wav

Длина предзазора 0:00:02.63

Пиковый уровень 72.9 %
Скорость извлечения 4.8 X
Качество трека 100.0 %
CRC теста 4110623D
CRC копии 4110623D
Точное извлечение (достоверность 10) [436AB147] (AR v2)
Копирование… OK

Трек 8

Имя файла C:\EAC rips\Mozart - Complete String Quartets\07\08. Quartet No. 21 in D, K.575 ('Pussisian 1') - 4. Allegretto.wav

Длина предзазора 0:00:03.00

Пиковый уровень 83.9 %
Скорость извлечения 5.0 X
Качество трека 100.0 %
CRC теста B0921AD6
CRC копии B0921AD6
Точное извлечение (достоверность 10) [1DDA35E9] (AR v2)
Копирование… OK


Все треки извлечены точно

Ошибок не произошло

Конец отчёта

==== Контрольная сумма отчёта 53AA13BE38CA1A782747E74A5814D117C61A985C19CF357454E53B44238A3775 ====

[CUETools log; Date: 10.04.2018 18:30:34; Version: 2.1.5]
Pregap length 00:00:33.
[CTDB TOCID: ahP7LKBvQUqqU._IIjk.cfZThyY-] found.
Track | CTDB Status
1 | (108/108) Accurately ripped
2 | (107/108) Accurately ripped
3 | (107/108) Accurately ripped
4 | (108/108) Accurately ripped
5 | (108/108) Accurately ripped
6 | (108/108) Accurately ripped
7 | (108/108) Accurately ripped
8 | (100/108) Accurately ripped, or (6/108) differs in 1470 samples @02:53:14-02:53:15
[AccurateRip ID: 00119a3d-0073ad39-5e0cba08] found.
Track [ CRC | V2 ] Status
01 [01045b5e|f4468370] (003+021/117) Accurately ripped
02 [977e8375|cf7a3fa6] (003+021/122) Accurately ripped
03 [160f34e5|f9ec93e9] (003+021/120) Accurately ripped
04 [d3591989|8d35e7c5] (003+021/121) Accurately ripped
05 [6c0127f3|b6c4fac8] (003+021/122) Accurately ripped
06 [a6dce6a6|b2b95520] (003+021/120) Accurately ripped
07 [3ca791b3|436ab147] (003+021/120) Accurately ripped
08 [08274628|1dda35e9] (002+021/118) Accurately ripped
Offsetted by -3:
01 [73004a1e] (006/117) Accurately ripped
02 [74de0909] (006/122) Accurately ripped
03 [ab845111] (006/120) Accurately ripped
04 [f59115ff] (006/121) Accurately ripped
05 [0c292c2a] (006/122) Accurately ripped
06 [8c38e06f] (006/120) Accurately ripped
07 [057f9a50] (006/120) Accurately ripped
08 [e8f17dd0] (004/118) Accurately ripped
Offsetted by 595:
01 [793535b0] (006/117) Accurately ripped
02 [e00716a6] (007/122) Accurately ripped
03 [9fc3123f] (005/120) Accurately ripped
04 [196a30de] (006/121) Accurately ripped
05 [02cb2833] (006/122) Accurately ripped
06 [34870654] (005/120) Accurately ripped
07 [c15cf84e] (006/120) Accurately ripped
08 [f2f79c0a] (006/118) Accurately ripped
Offsetted by 664:
01 [39d38580] (016/117) Accurately ripped
02 [8b4f6d08] (017/122) Accurately ripped
03 [bb94cd53] (018/120) Accurately ripped
04 [14b4ad6a] (018/121) Accurately ripped
05 [166bd56d] (018/122) Accurately ripped
06 [df1e8f30] (018/120) Accurately ripped
07 [caec57e0] (017/120) Accurately ripped
08 [6d9d5bd2] (017/118) Accurately ripped
Offsetted by -12:
01 [6f3481fc] (000/117) No match (V2 was not tested)
02 [019e762b] (000/122) No match (V2 was not tested)
03 [7b011e95] (000/120) No match (V2 was not tested)
04 [5c4f0611] (000/121) No match (V2 was not tested)
05 [37675799] (000/122) No match (V2 was not tested)
06 [5892451c] (000/120) No match (V2 was not tested)
07 [448e1dfd] (000/120) No match (V2 was not tested)
08 [f1aeb6cf] (000/118) No match (V2 was not tested)
Offsetted by 1125:
01 [9bbf0b19] (000/117) No match (V2 was not tested)
02 [966e1a0e] (000/122) No match (V2 was not tested)
03 [989d970a] (000/120) No match (V2 was not tested)
04 [92b32f96] (000/121) No match (V2 was not tested)
05 [4db9ddcb] (000/122) No match (V2 was not tested)
06 [6c304f8b] (000/120) No match (V2 was not tested)
07 [ea52d473] (000/120) No match (V2 was not tested)
08 [a9d8fae9] (000/118) No match (V2 was not tested)

Track Peak [ CRC32 ] [W/O NULL] [ LOG ]
– 98,4 [9D62950F] [5C25867D]
01 89,4 [B14B12FF] [9D43BB18] CRC32
02 69,6 [8EADD761] [0C3E57EA] CRC32
03 66,3 [7AFD7172] [9BABAD43] CRC32
04 98,4 [739F7625] [AA26418C] CRC32
05 82,2 [6F2272D5] [B182EB0A] CRC32
06 50,9 [81F30733] [7CE42649] CRC32
07 72,9 [4110623D] [9634021A] CRC32
08 83,9 [B0921AD6] [7F67EABA] CRC32

CD 8:
(2.) Quartet No.22 in B flat major, K589
si bémol majeur B-Dur
[1] I. Allegro 6.14
[2] II. Larghetto 6.34
[3] III. Menuetto: Moderato 6.54
[4] IV. Allegro assai 3.38

(3.) Quartet No.23 in F major, K590
fa majeur F-Dur
[5] I. Allegro moderato 8.46
[6] II. Allegretto 7.29
[7] III. Menuetto (Allegretto) 4.03
[8] IV. Allegro 7.04

Exact Audio Copy V1.0 beta 3 from 29. August 2011

Отчёт EAC об извлечении, выполненном 2. апреля 2015, 12:03

Wolfgang Amadeus Mozart / Quartetto Italiano / Complete String Quartets - Disk 8 of 8

Дисковод: MATSHITABD-MLT UJ240ES Adapter: 2 ID: 0

Режим чтения : Достоверность
Использование точного потока : Да
Отключение кэша аудио : Да
Использование указателей C2 : Нет

Коррекция смещения при чтении : 103
Способность читать области Lead-in и Lead-out : Нет
Заполнение пропущенных сэмплов тишиной : Да
Удаление блоков с тишиной в начале и конце : Нет
При вычислениях CRC использовались нулевые сэмплы : Да
Интерфейс : Встроенный Win32-интерфейс для Win NT/2000
Обработка зазоров : Добавлено к предыдущему треку

Выходной формат : Пользовательский кодировщик
Выбранный битрейт : 1024 kBit/s
Качество : Высокий
Добавление ID3-тега : Нет
Утилита сжатия : C:\Program Files (x86)\Exact Audio Copy\Flac\flac.exe
Дополнительные параметры : -V -8 -T "Genre=%genre%" -T "Artist=%artist%" -T "Title=%title%" -T "Album=%albumtitle%" -T "Date=%year%" -T "Tracknumber=%tracknr%" -T "Comment=%comment%" %source%


TOC извлечённого CD

Трек | Старт | Длительность | Начальный сектор | Конечный сектор
––––––––––––––––––––––––––––––––––-
1 | 0:00.33 | 6:16.00 | 33 | 28232
2 | 6:16.33 | 6:39.00 | 28233 | 58157
3 | 12:55.33 | 6:57.00 | 58158 | 89432
4 | 19:52.33 | 3:46.00 | 89433 | 106382
5 | 23:38.33 | 8:50.00 | 106383 | 146132
6 | 32:28.33 | 7:33.00 | 146133 | 180107
7 | 40:01.33 | 4:06.00 | 180108 | 198557
8 | 44:07.33 | 7:09.00 | 198558 | 230732


Трек 1

Имя файла C:\EAC rips\Mozart - Complete String Quartets\08\01. Quartet No.22 in B flat, K.589 ('Prussian 2') - 1. Allegro.wav

Длина предзазора 0:00:02.33

Пиковый уровень 96.7 %
Скорость извлечения 2.7 X
Качество трека 100.0 %
CRC теста F3F33BE3
CRC копии F3F33BE3
Точное извлечение (достоверность 10) [A8818EA7] (AR v2)
Копирование… OK

Трек 2

Имя файла C:\EAC rips\Mozart - Complete String Quartets\08\02. Quartet No.22 in B flat, K.589 ('Prussian 2') - 2. Larghetto.wav

Длина предзазора 0:00:02.00

Пиковый уровень 79.1 %
Скорость извлечения 3.1 X
Качество трека 100.0 %
CRC теста 5B7D41DD
CRC копии 5B7D41DD
Точное извлечение (достоверность 10) [C3DFD062] (AR v2)
Копирование… OK

Трек 3

Имя файла C:\EAC rips\Mozart - Complete String Quartets\08\03. Quartet No.22 in B flat, K.589 ('Prussian 2') - 3. Menuetto. Moderato.wav

Длина предзазора 0:00:03.00

Пиковый уровень 83.3 %
Скорость извлечения 3.3 X
Качество трека 99.9 %
CRC теста 2003B7B8
CRC копии 2003B7B8
Точное извлечение (достоверность 10) [380EB829] (AR v2)
Копирование… OK

Трек 4

Имя файла C:\EAC rips\Mozart - Complete String Quartets\08\04. Quartet No.22 in B flat, K.589 ('Prussian 2') - 4. Allegro assai.wav

Длина предзазора 0:00:02.00

Пиковый уровень 88.8 %
Скорость извлечения 3.6 X
Качество трека 100.0 %
CRC теста 0A58ABC5
CRC копии 0A58ABC5
Точное извлечение (достоверность 10) [861E4E16] (AR v2)
Копирование… OK

Трек 5

Имя файла C:\EAC rips\Mozart - Complete String Quartets\08\05. Quartet No.23 in F, K.590 ('Prussian 3') - 1. Allegro moderato.wav

Длина предзазора 0:00:09.00

Пиковый уровень 89.0 %
Скорость извлечения 4.2 X
Качество трека 100.0 %
CRC теста 52C86A04
CRC копии 52C86A04
Точное извлечение (достоверность 10) [E5BFF05E] (AR v2)
Копирование… OK

Трек 6

Имя файла C:\EAC rips\Mozart - Complete String Quartets\08\06. Quartet No.23 in F, K.590 ('Prussian 3') - 2. Allegretto.wav

Длина предзазора 0:00:03.00

Пиковый уровень 77.3 %
Скорость извлечения 4.1 X
Качество трека 100.0 %
CRC теста 19371D5B
CRC копии 19371D5B
Точное извлечение (достоверность 10) [9103149B] (AR v2)
Копирование… OK

Трек 7

Имя файла C:\EAC rips\Mozart - Complete String Quartets\08\07. Quartet No.23 in F, K.590 ('Prussian 3') - 3. Menuetto (Allegretto).wav

Длина предзазора 0:00:03.00

Пиковый уровень 74.1 %
Скорость извлечения 4.0 X
Качество трека 99.9 %
CRC теста 38D4CDF8
CRC копии 38D4CDF8
Точное извлечение (достоверность 10) [75C7FD1D] (AR v2)
Копирование… OK

Трек 8

Имя файла C:\EAC rips\Mozart - Complete String Quartets\08\08. Quartet No.23 in F, K.590 ('Prussian 3') - 4. Allegro.wav

Длина предзазора 0:00:02.00

Пиковый уровень 88.9 %
Скорость извлечения 5.0 X
Качество трека 100.0 %
CRC теста 895E1285
CRC копии 895E1285
Точное извлечение (достоверность 9) [0B740492] (AR v2)
Копирование… OK


Все треки извлечены точно

Ошибок не произошло

Конец отчёта

==== Контрольная сумма отчёта 3A520CD8864138EA0DA876C18B508F32E44121C01FD06E936C729513A907E409 ====

[CUETools log; Date: 10.04.2018 18:30:54; Version: 2.1.5]
Pregap length 00:00:33.
[CTDB TOCID: vrIptNOpjxoyL1kNuo_3dCyf_FU-] found.
Track | CTDB Status
1 | (101/102) Accurately ripped
2 | (102/102) Accurately ripped
3 | (102/102) Accurately ripped
4 | (102/102) Accurately ripped
5 | (102/102) Accurately ripped
6 | (102/102) Accurately ripped
7 | (102/102) Accurately ripped
8 | (102/102) Accurately ripped
[AccurateRip ID: 000fd5cc-0069a3e3-6c0c0408] found.
Track [ CRC | V2 ] Status
01 [1b406936|a8818ea7] (003+021/114) Accurately ripped
02 [5a51829f|c3dfd062] (003+021/116) Accurately ripped
03 [addd07e0|380eb829] (003+021/114) Accurately ripped
04 [7c0fff84|861e4e16] (003+021/115) Accurately ripped
05 [ee2ffa7d|e5bff05e] (003+021/116) Accurately ripped
06 [1cbbf8fd|9103149b] (003+021/115) Accurately ripped
07 [0aa4b3e8|75c7fd1d] (003+021/116) Accurately ripped
08 [1ee16457|0b740492] (003+020/113) Accurately ripped
Offsetted by -3:
01 [03b12a09] (008/114) Accurately ripped
02 [1c62fad5] (008/116) Accurately ripped
03 [630f5563] (008/114) Accurately ripped
04 [bc0516c3] (008/115) Accurately ripped
05 [7437a069] (008/116) Accurately ripped
06 [894af63a] (008/115) Accurately ripped
07 [fc25657c] (008/116) Accurately ripped
08 [b0366463] (007/113) Accurately ripped
Offsetted by 664:
01 [3a3c6d77] (016/114) Accurately ripped
02 [1dbc638a] (016/116) Accurately ripped
03 [d6243b75] (016/114) Accurately ripped
04 [1d98a26f] (016/115) Accurately ripped
05 [c2483e0a] (016/116) Accurately ripped
06 [46dcf34b] (016/115) Accurately ripped
07 [97c023ab] (016/116) Accurately ripped
08 [0cc71b7f] (015/113) Accurately ripped
Offsetted by 1544:
01 [789b9335] (006/114) Accurately ripped
02 [03d29ce0] (006/116) Accurately ripped
03 [4e139769] (005/114) Accurately ripped
04 [9c56f948] (006/115) Accurately ripped
05 [b5aa0664] (006/116) Accurately ripped
06 [f40a3aa9] (005/115) Accurately ripped
07 [655df1a4] (006/116) Accurately ripped
08 [21fe3267] (006/113) Accurately ripped
Offsetted by -12:
01 [3dd5ac6e] (000/114) No match (V2 was not tested)
02 [97da2e1b] (000/116) No match (V2 was not tested)
03 [55010b2b] (000/114) No match (V2 was not tested)
04 [74ed5664] (000/115) No match (V2 was not tested)
05 [df635420] (000/116) No match (V2 was not tested)
06 [40a15ce7] (000/115) No match (V2 was not tested)
07 [eecc2c53] (000/116) No match (V2 was not tested)
08 [a3b1019a] (000/113) No match (V2 was not tested)

Track Peak [ CRC32 ] [W/O NULL] [ LOG ]
– 96,7 [8F3A907E] [8443CD48]
01 96,7 [F3F33BE3] [557ABAFE] CRC32
02 79,1 [5B7D41DD] [D10053DA] CRC32
03 83,3 [2003B7B8] [8AB40C20] CRC32
04 88,8 [0A58ABC5] [6B6C52DA] CRC32
05 89,0 [52C86A04] [43C2B58D] CRC32
06 77,3 [19371D5B] [32E88857] CRC32
07 74,1 [38D4CDF8] [82BA1744] CRC32
08 88,9 [895E1285] [7466290A] CRC32

Performers:
QUARTETTO ITALIANO
Paolo Borciani violin, violon I
Elisa Pegreffi violin, violon II
Piero Farulli viola, alto
Franco Rossi Violoncello, violoncelle

Thanks to the Original ripper mkov57!

Download: