Subcategories

Queen - Absolute Greatest (2009)

Posted By: popsakov
Queen - Absolute Greatest (2009)

Queen - Absolute Greatest (2009)
EAC Rip | FLAC (Img) + Cue + Log ~ 561 Mb | MP3 CBR320 ~ 212 Mb
Full Scans | RAR 5% Recovery
Classic Rock | Parlophone / Gala Records #50999 6 06854 2 1

The latest in a long line of Queen compilations stretching back to 1981's Greatest Hits, 2009's Absolute Greatest runs a generous 20 tracks yet still manages to miss several classic Queen songs, such as "Fat Bottomed Girls," "Bicycle Race," "Good Old-Fashioned Lover Boy," "Flash's Theme," and "Tie Your Mother Down." In their place are several latter-day singles that were hits in Europe but not America ("The Show Must Go On," "Who Wants to Live Forever," "These Are the Days of Our Lives"), so it makes sense that this compilation in its various formats – a single-disc set, a double-disc where the second CD contains commentary by Brian May and Roger Taylor, one with a hardcover book, one with LPs – appeared in the U.K. and Europe first, because it was tailored for this market. And, overall, it's a nicely balanced collection of 20 highlights, delivering all the usual suspects – "We Will Rock You," "We Are the Champions," "Another One Bites the Dust," "Crazy Little Thing Called Love," "You're My Best Friend," "Killer Queen," "Bohemian Rhapsody" – plus good latter-day hits, making it a solid overview but not a definitive one.
~ All Music

***************

Queen - Absolute Greatest (2009)

Track List:

01. We Will Rock You [2:03]
02. We Are The Champions [3:01]
03. Radio Ga Ga [5:48]
04. Another One Bites The Dust [3:35]
05. I Want It All (Single Version) [4:01]
06. Crazy Little Thing Called Love [2:44]
07. A Kind Of Magic [4:25]
08. Under Pressure [4:03]
09. One Vision (Single Version) [4:05]
10. You're My Best Friend [2:51]
11. Don't Stop Me Now [3:30]
12. Killer Queen [3:01]
13. These Are The Days Of Our Lives [4:13]
14. Who Wants To Live Forever [4:55]
15. Seven Seas Of Rhye [2:47]
16. Heaven For Everyone (Single Version) [4:44]
17. Somebody To Love [4:56]
18. I Want To Break Free (Single Version) [4:20]
19. The Show Must Go On [4:33]
20. Bohemian Rhapsody [5:57]

Exact Audio Copy V1.3 from 2. September 2016

EAC extraction logfile from 1. February 2019, 11:19

Queen / Absolute Greatest

Used drive : TSSTcorpCDDVDW SH-224GB Adapter: 1 ID: 0

Read mode : Secure
Utilize accurate stream : Yes
Defeat audio cache : Yes
Make use of C2 pointers : No

Read offset correction : 6
Overread into Lead-In and Lead-Out : No
Fill up missing offset samples with silence : Yes
Delete leading and trailing silent blocks : No
Null samples used in CRC calculations : Yes
Used interface : Native Win32 interface for Win NT & 2000

Used output format : User Defined Encoder
Selected bitrate : 128 kBit/s
Quality : High
Add ID3 tag : No
Command line compressor : C:\Program Files (x86)\Exact Audio Copy\FLAC\FLAC.EXE
Additional command line options : -V -8 -T "Date=%year%" -T "Genre=%genre%" %source%


TOC of the extracted CD

Track | Start | Length | Start sector | End sector
––––––––––––––––––––––––––––-
1 | 0:00.00 | 2:02.72 | 0 | 9221
2 | 2:02.72 | 3:01.35 | 9222 | 22831
3 | 5:04.32 | 5:48.16 | 22832 | 48947
4 | 10:52.48 | 3:35.25 | 48948 | 65097
5 | 14:27.73 | 4:01.23 | 65098 | 83195
6 | 18:29.21 | 2:44.02 | 83196 | 95497
7 | 21:13.23 | 4:25.29 | 95498 | 115401
8 | 25:38.52 | 4:03.32 | 115402 | 133658
9 | 29:42.09 | 4:04.72 | 133659 | 152030
10 | 33:47.06 | 2:51.20 | 152031 | 164875
11 | 36:38.26 | 3:30.10 | 164876 | 180635
12 | 40:08.36 | 3:00.62 | 180636 | 194197
13 | 43:09.23 | 4:13.04 | 194198 | 213176
14 | 47:22.27 | 4:55.08 | 213177 | 235309
15 | 52:17.35 | 2:46.65 | 235310 | 247824
16 | 55:04.25 | 4:43.56 | 247825 | 269105
17 | 59:48.06 | 4:55.68 | 269106 | 291298
18 | 64:43.74 | 4:19.50 | 291299 | 310773
19 | 69:03.49 | 4:32.66 | 310774 | 331239
20 | 73:36.40 | 5:56.47 | 331240 | 357986


Range status and errors

Selected range

Filename F:\ЕАС\rwa12\Queen - Absolute Greatest.wav

Peak level 100.0 %
Extraction speed 3.4 X
Range quality 99.9 %
Test CRC 224DE0C7
Copy CRC 224DE0C7
Copy OK

No errors occurred


AccurateRip summary

Track 1 cannot be verified as accurate (confidence 135) [9CD31E40], AccurateRip returned [49FF6039] (AR v2)
Track 2 cannot be verified as accurate (confidence 136) [2ADAF937], AccurateRip returned [35638741] (AR v2)
Track 3 cannot be verified as accurate (confidence 134) [A95861F4], AccurateRip returned [08E1FCCC] (AR v2)
Track 4 cannot be verified as accurate (confidence 134) [B34359D9], AccurateRip returned [8B62226F] (AR v2)
Track 5 cannot be verified as accurate (confidence 134) [31375023], AccurateRip returned [A58B2DE6] (AR v2)
Track 6 cannot be verified as accurate (confidence 135) [47ED2326], AccurateRip returned [44D0DA86] (AR v2)
Track 7 cannot be verified as accurate (confidence 134) [47CB94E3], AccurateRip returned [49B1DFB6] (AR v2)
Track 8 cannot be verified as accurate (confidence 135) [BBB501AA], AccurateRip returned [D4A26E12] (AR v2)
Track 9 cannot be verified as accurate (confidence 133) [4B4AA96A], AccurateRip returned [BC536777] (AR v2)
Track 10 cannot be verified as accurate (confidence 132) [CA6A3F92], AccurateRip returned [E2C9D03A] (AR v2)
Track 11 cannot be verified as accurate (confidence 133) [7DFB06D7], AccurateRip returned [C0E4A6C9] (AR v2)
Track 12 cannot be verified as accurate (confidence 132) [DAE9B4CD], AccurateRip returned [718D596A] (AR v2)
Track 13 cannot be verified as accurate (confidence 133) [D04728A1], AccurateRip returned [1E3FC6AA] (AR v2)
Track 14 cannot be verified as accurate (confidence 131) [50CC9BDD], AccurateRip returned [95E5DB39] (AR v2)
Track 15 cannot be verified as accurate (confidence 132) [47F0102E], AccurateRip returned [AFF14D57] (AR v2)
Track 16 cannot be verified as accurate (confidence 131) [ACCF481B], AccurateRip returned [BBB978EC] (AR v2)
Track 17 cannot be verified as accurate (confidence 132) [6B155E69], AccurateRip returned [F267052D] (AR v2)
Track 18 cannot be verified as accurate (confidence 132) [C24DCDDF], AccurateRip returned [AC3EF9CC] (AR v2)
Track 19 cannot be verified as accurate (confidence 132) [B744D3CA], AccurateRip returned [E42C4EE4] (AR v2)
Track 20 cannot be verified as accurate (confidence 129) [82BCCCC7], AccurateRip returned [04797CDA] (AR v2)

No tracks could be verified as accurate
You may have a different pressing from the one(s) in the database

End of status report

–– CUETools DB Plugin V2.1.6

[CTDB TOCID: RLpa3j9R.Dr.qiohLmSjG2JqU6g-] found
Submit result: RLpa3j9R.Dr.qiohLmSjG2JqU6g- has been confirmed
Track | CTDB Status
1 | (613/802) Accurately ripped
2 | (615/802) Accurately ripped
3 | (614/802) Accurately ripped
4 | (613/802) Accurately ripped
5 | (613/802) Accurately ripped
6 | (613/802) Accurately ripped
7 | (613/802) Accurately ripped
8 | (614/802) Accurately ripped
9 | (613/802) Accurately ripped
10 | (613/802) Accurately ripped
11 | (614/802) Accurately ripped
12 | (610/802) Accurately ripped
13 | (578/802) Accurately ripped
14 | (612/802) Accurately ripped
15 | (612/802) Accurately ripped
16 | (611/802) Accurately ripped
17 | (611/802) Accurately ripped
18 | (609/802) Accurately ripped
19 | (595/802) Accurately ripped
20 | (590/802) Accurately ripped


==== Log checksum 1B16692DB698A0CA2E789AC4F6B386F499C875D6EB0D3146394731BDEF594DFD ====

Queen - Absolute Greatest (2009)

All thanks go to rwa12

>>> Queen in my Blog <<<

Download from icerbox.com: