Subcategories

Queen + Adam Lambert - Rock In Rio Lisbon (2016) {HDTV 1080i}

Posted By: popsakov
Queen + Adam Lambert - Rock In Rio Lisbon (2016) {HDTV 1080i}

Queen + Adam Lambert - Rock In Rio Lisbon (2016) {HDTV 1080i}
MPEG-4, AVC 1920x1080, 50fps, 15.0 Mbps | AAC 128kbps, 48.0 KHz, 2ch
Rock | 01:49:55 | ~ 12,2 Gb | RAR 5% Recovery

Queen is back to Palco Mundo 30 years after the first Rock in Rio, this time with Adam Lambert giving voice to the themes which Freddie Mercury originally sang.

After Brazil, the city of Rock in Lisbon will receive Queen + Adam Lambert on the 20th of May, the first day of the seventh edition of the event.

“Thirty years ago, Queen acted in Rock in Rio before 250,000 fans, where Freddie Mercury led a chorus while the audience sang” Love of My Life “. This moment will be remembered forever in the history of music and of Rock in Rio”, recalls Roberto Medina, President and founder of Rock in Rio. “We are very thrilled to receive Queen + Adam Lambert in Rock in Rio Lisbon; it will be without undoubtedly another unforgettable moment,” she adds.

In 1985, Queen performed in the newly created Rock in Rio event before 250 000 people. Seven days later, on 18th January 1985, the band repeated the show, managing to attain more 250 000 fans.
Track List:

01. The Hero (Queen cover)
02. Hammer to Fall (Queen cover)
03. Seven Seas of Rhye (Queen cover)
04. Stone Cold Crazy (Queen cover)
05. Fat Bottomed Girls(Queen cover)
06. Play the Game (Queen cover)
07. Killer Queen (Queen cover)
08. I Want to Break Free (Queen cover)
09. Somebody to Love (Queen cover)
10. Love of My Life (Queen cover) (Brian May on vocals)
11. These Are the Days of Our Lives (Queen cover) (Roger Taylor on vocals)
12. Drum Battle
13. Under Pressure (Queen cover)
14. Crazy Little Thing Called Love (Queen cover)
15. Don't Stop Me Now (Queen cover)
16. Another One Bites the Dust (Queen cover)
17. I Want It All (Queen cover)
18. Who Wants to Live Forever (Queen cover)
19. Last Horizon (Brian May cover)
20. Guitar Solo
21. Tie Your Mother Down (Queen cover)
22. The Show Must Go On (Queen cover)
23. Bohemian Rhapsody (Queen cover)

Encore:
24. Radio Ga Ga (Queen cover)
25. We Will Rock You (Queen cover)
26. We Are the Champions (Queen cover)

General
Complete name : D:\_000\Queen + Adam Lambert - Rock in Rio Lisbon 2016.mp4
Format : MPEG-4
Format profile : Base Media
Codec ID : isom
File size : 11.6 GiB
Duration : 1h 49mn
Overall bit rate mode : Variable
Overall bit rate : 15.1 Mbps
Description : AverMedia_c285_001.001.009
Encoded date : UTC 1970-01-01 00:00:00
Tagged date : UTC 1970-01-01 00:00:00
Writing application : Lavf53.3.0
Comment : Quality_BEST

Video
ID : 1
Format : AVC
Format/Info : Advanced Video Codec
Format profile : High@L4.1
Format settings, CABAC : Yes
Format settings, ReFrames : 2 frames
Codec ID : avc1
Codec ID/Info : Advanced Video Coding
Duration : 1h 49mn
Bit rate : 15.0 Mbps
Width : 1 920 pixels
Height : 1 080 pixels
Display aspect ratio : 16:9
Frame rate mode : Constant
Frame rate : 50.000 fps
Color space : YUV
Chroma subsampling : 4:2:0
Bit depth : 8 bits
Scan type : Interlaced
Scan order : Top Field First
Bits/(Pixel*Frame) : 0.145
Stream size : 11.5 GiB (99%)
Encoded date : UTC 1970-01-01 00:00:00
Tagged date : UTC 1970-01-01 00:00:00

Audio
ID : 2
Format : AAC
Format/Info : Advanced Audio Codec
Format profile : LC
Codec ID : 40
Duration : 1h 49mn
Bit rate mode : Variable
Bit rate : 128 Kbps
Channel(s) : 2 channels
Channel positions : Front: L R
Sampling rate : 48.0 KHz
Compression mode : Lossy
Stream size : 101 MiB (1%)
Encoded date : UTC 1970-01-01 00:00:00
Tagged date : UTC 1970-01-01 00:00:00

Queen + Adam Lambert - Rock In Rio Lisbon (2016) {HDTV 1080i}

Queen + Adam Lambert - Rock In Rio Lisbon (2016) {HDTV 1080i}

Queen + Adam Lambert - Rock In Rio Lisbon (2016) {HDTV 1080i}

Queen + Adam Lambert - Rock In Rio Lisbon (2016) {HDTV 1080i}

Queen + Adam Lambert - Rock In Rio Lisbon (2016) {HDTV 1080i}

Queen + Adam Lambert - Rock In Rio Lisbon (2016) {HDTV 1080i}

Queen + Adam Lambert - Rock In Rio Lisbon (2016) {HDTV 1080i}

Queen + Adam Lambert - Rock In Rio Lisbon (2016) {HDTV 1080i}

Queen + Adam Lambert - Rock In Rio Lisbon (2016) {HDTV 1080i}

Queen + Adam Lambert - Rock In Rio Lisbon (2016) {HDTV 1080i}

All thanks go to meloman67

Queen in my blog!

Download: