Subcategories

Queen: Collection (1973 - 1995) [Vinyl Rip 16/44 & mp3-320]

Posted By: v3122
Queen: Collection (1973 - 1995) [Vinyl Rip 16/44 & mp3-320]

Queen: Collection (1973 - 1995)
18 x Vinyl Rip 16/44 | Flac(Image + Cue) > 5437 Mb
MP3 CBR 320Kbps > 2002 Mb | Artwork(jpg) > 3953 Mb
Progressive Hard Rock / Classic Rock / Pop Rock

Queen is a British rock band formed in London in 1971.
The band has released a total of 18 number one albums, 18 number one singles and 10 number one DVDs, and have sold over 300 million albums worldwide, making them one of the world's best-selling music artists. They have been honoured with seven Ivor Novello awards and were inducted into the Rock and Roll Hall of Fame in 2001.

Lead singer Freddie Mercury died in November 1991 of AIDS-related complications. A year after his death, Queen reformed and did tribute concert for the lead singer to commemorate his life.

~ discogs
Queen: Collection (1973 - 1995) [Vinyl Rip 16/44 & mp3-320]


Queen: Collection (1973 - 1995) [Vinyl Rip 16/44 & mp3-320]:

Queen: Collection (1973 - 1995) [Vinyl Rip 16/44 & mp3-320]

Tracklist VNL01 - Queen:
JP LP 1973 Warner-Pioneer Co., Tokyo • P-10118E

01. A1. Keep Yourself Alive [03:44]
02. A2. Doing All Right [04:06]
03. A3. Great King Rat [05:38]
04. A4. My Fairy King [04:07]
05. B1. Liar [06:18]
06. B2. The Night Comes Down [04:17]
07. B3. Modern Times Rock 'N' Roll [01:46]
08. B4. Son And Daughter [03:18]
09. B5. Jesus [03:39]
10. B6. Seven Seas Of Rhye… [01:15]

foobar2000 1.2.9 / Dynamic Range Meter 1.1.1
log date: 2016-12-09 15:39:02

––––––––––––––––––––––––––––––––––––––––
Analyzed: QUEEN / Queen
––––––––––––––––––––––––––––––––––––––––

DR Peak RMS Duration Track
––––––––––––––––––––––––––––––––––––––––
DR10 -0.50 dB -12.64 dB 3:45 01-A1. Keep Yourself Alive
DR11 -0.53 dB -14.30 dB 4:06 02-A2. Doing All Right
DR10 -1.41 dB -13.30 dB 5:38 03-A3. Great King Rat
DR10 -0.47 dB -12.79 dB 4:08 04-A4. My Fairy King
DR11 -1.38 dB -14.34 dB 6:18 05-B1. Liar
DR10 -1.50 dB -13.62 dB 4:18 06-B2. The Night Comes Down
DR11 -2.66 dB -14.88 dB 1:46 07-B3. Modern Times Rock 'N' Roll
DR10 -2.02 dB -14.26 dB 3:19 08-B4. Son And Daughter
DR11 -2.52 dB -14.80 dB 3:40 09-B5. Jesus
DR9 -2.63 dB -15.60 dB 1:15 10-B6. Seven Seas Of Rhye…
––––––––––––––––––––––––––––––––––––––––

Number of tracks: 10
Official DR value: DR10

Samplerate: 44100 Hz
Channels: 2
Bits per sample: 16
Bitrate: 903 kbps
Codec: FLAC
================================================================================



Queen: Collection (1973 - 1995) [Vinyl Rip 16/44 & mp3-320]

Tracklist VNL02 - Queen II:
JP LP 1974 Warner-Pioneer Co., Tokyo • P-10119E

01. A1. Procession [01:13]
02. A2. Father To Son [06:12]
03. A3. White Queen (As It Began) [04:34]
04. A4. Some Day One Day [04:21]
05. A5. The Loser In The End [04:05]
06. B1. Ogre Battle [04:05]
07. B2. The Fairy Feller's Master-Stroke [02:32]
08. B3. Nevermore [01:25]
09. B4. The March Of The Black Queen [06:29]
10. B5. Funny How Love Is [02:49]
11. B6. The Seven Seas Of Rhye [02:51]

foobar2000 1.2.9 / Dynamic Range Meter 1.1.1
log date: 2016-12-09 15:39:19

––––––––––––––––––––––––––––––––––––––––
Analyzed: QUEEN / Queen II
––––––––––––––––––––––––––––––––––––––––

DR Peak RMS Duration Track
––––––––––––––––––––––––––––––––––––––––
DR11 -4.14 dB -17.21 dB 1:13 01-A1. Procession
DR10 -1.52 dB -12.91 dB 6:13 02-A2. Father To Son
DR9 -2.27 dB -13.91 dB 4:34 03-A3. White Queen (As It Began)
DR9 -2.56 dB -13.87 dB 4:22 04-A4. Some Day One Day
DR10 -0.86 dB -13.19 dB 4:06 05-A5. The Loser In The End
DR10 -1.12 dB -12.48 dB 4:05 06-B1. Ogre Battle
DR10 -0.88 dB -12.98 dB 2:32 07-B2. The Fairy Feller's Master-Stroke
DR10 -1.67 dB -13.48 dB 1:25 08-B3. Nevermore
DR10 -1.90 dB -14.04 dB 6:30 09-B4. The March Of The Black Queen
DR10 -2.77 dB -14.48 dB 2:50 10-B5. Funny How Love Is
DR10 -1.64 dB -13.67 dB 2:51 11-B6. The Seven Seas Of Rhye
––––––––––––––––––––––––––––––––––––––––

Number of tracks: 11
Official DR value: DR10

Samplerate: 44100 Hz
Channels: 2
Bits per sample: 16
Bitrate: 874 kbps
Codec: FLAC
================================================================================



Queen: Collection (1973 - 1995) [Vinyl Rip 16/44 & mp3-320]

Tracklist VNL03 - Sheer Heart Attack:
JP LP 1974 Warner-Pioneer Co., Tokyo • P-10137E

01. A1. Brighton Rock [05:10]
02. A2. Killer Queen [03:00]
03. A3. Tenement Funster [02:47]
04. A4. Flick Of The Wrist [03:19]
05. A5. Lily Of The Valley [01:42]
06. A6. Now I'm Here [04:15]
07. B1. In The Lap Of The Gods [03:22]
08. B2. Stone Cold Crazy [02:16]
09. B3. Dear Friends [01:08]
10. B4. Misfire [01:49]
11. B5. Bring Back That Leroy Brown [02:15]
12. B6. She Makes Me (Stormtrooper In Stilettoes) [04:09]
13. B7. In The Lap Of The Gods…Revisited [03:46]

foobar2000 1.2.9 / Dynamic Range Meter 1.1.1
log date: 2016-12-09 15:40:17

––––––––––––––––––––––––––––––––––––––––
Analyzed: QUEEN / Sheer Heart Attack
––––––––––––––––––––––––––––––––––––––––

DR Peak RMS Duration Track
––––––––––––––––––––––––––––––––––––––––
DR9 -0.60 dB -11.69 dB 5:10 01-A1. Brighton Rock
DR9 -0.79 dB -11.99 dB 3:01 02-A2. Killer Queen
DR10 -0.53 dB -12.45 dB 2:47 03-A3. Tenement Funster
DR9 -0.18 dB -10.98 dB 3:19 04-A4. Flick Of The Wrist
DR10 -1.39 dB -14.42 dB 1:43 05-A5. Lily Of The Valley
DR9 -0.47 dB -11.88 dB 4:15 06-A6. Now I'm Here
DR8 -0.20 dB -10.70 dB 3:22 07-B1. In The Lap Of The Gods
DR9 -0.39 dB -12.07 dB 2:17 08-B2. Stone Cold Crazy
DR9 -1.58 dB -15.45 dB 1:09 09-B3. Dear Friends
DR9 -0.41 dB -11.52 dB 1:50 10-B4. Misfire
DR10 -0.48 dB -11.74 dB 2:15 11-B5. Bring Back That Leroy Brown
DR10 -0.73 dB -12.50 dB 4:09 12-B6. She Makes Me (Stormtrooper In Stilettoes)
DR9 -0.46 dB -11.66 dB 3:46 13-B7. In The Lap Of The Gods…Revisited
––––––––––––––––––––––––––––––––––––––––

Number of tracks: 13
Official DR value: DR9

Samplerate: 44100 Hz
Channels: 2
Bits per sample: 16
Bitrate: 885 kbps
Codec: FLAC
================================================================================



Queen: Collection (1973 - 1995) [Vinyl Rip 16/44 & mp3-320]

Tracklist VNL04 - A Night At The Opera:
JP LP 1975 Warner-Pioneer Co., Tokyo • P-10075E

01. A1. Death On Two Legs (Dedicated To…) [03:48]
02. A2. Lazing On A Sunday Afternoon [01:08]
03. A3. I'm In Love With My Car [03:07]
04. A4. You're My Best Friend [02:54]
05. A5. '39 [03:33]
06. A6. Sweet Lady [04:06]
07. A7. Seaside Rendezvous [02:16]
08. B1. The Prophet's Song [08:27]
09. B2. Love Of My Life [03:41]
10. B3. Good Company [03:25]
11. B4. Bohemian Rhapsody [05:59]
12. B5. God Save The Queen [01:14]

foobar2000 1.2.9 / Dynamic Range Meter 1.1.1
log date: 2016-12-09 15:40:33

––––––––––––––––––––––––––––––––––––––––
Analyzed: QUEEN / A Night At The Opera
––––––––––––––––––––––––––––––––––––––––

DR Peak RMS Duration Track
––––––––––––––––––––––––––––––––––––––––
DR10 -1.78 dB -14.04 dB 3:49 01-A1. Death On Two Legs (Dedicated To…)
DR10 -3.93 dB -17.73 dB 1:08 02-A2. Lazing On A Sunday Afternoon
DR10 -1.38 dB -14.76 dB 3:07 03-A3. I'm In Love With My Car
DR11 -0.84 dB -14.07 dB 2:54 04-A4. You're My Best Friend
DR11 -1.39 dB -15.01 dB 3:34 05-A5. '39
DR11 -0.89 dB -15.39 dB 4:07 06-A6. Sweet Lady
DR11 -0.73 dB -15.02 dB 2:17 07-A7. Seaside Rendezvous
DR11 -0.52 dB -16.14 dB 8:28 08-B1. The Prophet's Song
DR10 -4.32 dB -17.58 dB 3:42 09-B2. Love Of My Life
DR11 -0.95 dB -15.15 dB 3:26 10-B3. Good Company
DR11 -0.76 dB -15.89 dB 5:59 11-B4. Bohemian Rhapsody
DR12 -4.93 dB -21.21 dB 1:14 12-B5. God Save The Queen
––––––––––––––––––––––––––––––––––––––––

Number of tracks: 12
Official DR value: DR11

Samplerate: 44100 Hz
Channels: 2
Bits per sample: 16
Bitrate: 863 kbps
Codec: FLAC
================================================================================



Queen: Collection (1973 - 1995) [Vinyl Rip 16/44 & mp3-320]

Tracklist VNL05 - A Day At The Races:
JP LP 1976 Warner-Pioneer Co., Tokyo • P-10300E

01. A1. Tie Your Mother Down [4:50]
02. A2. You Take My Breath Away [5:09]
03. A3. Long Away [3:33]
04. A4. The Millionaire Waltz [4:59]
05. A5. You And I [3:28]
06. B1. Somebody To Love [4:58]
07. B2. White Man [5:02]
08. B3. Good Old-Fashioned Lover Boy [2:55]
09. B4. Drowse [3:46]
10. B5. Teo Torriatte (Let Us Cling Together) [5:56]

foobar2000 1.2.9 / Dynamic Range Meter 1.1.1
log date: 2016-12-09 15:40:46

––––––––––––––––––––––––––––––––––––––––
Analyzed: QUEEN / A Day At The Races (Japan, Elektra, P-10300E)
––––––––––––––––––––––––––––––––––––––––

DR Peak RMS Duration Track
––––––––––––––––––––––––––––––––––––––––
DR10 -0.17 dB -12.77 dB 4:50 01-A1. Tie Your Mother Down
DR12 -0.16 dB -18.28 dB 5:09 02-A2. You Take My Breath Away
DR10 -0.14 dB -12.29 dB 3:33 03-A3. Long Away
DR10 -0.18 dB -14.59 dB 4:59 04-A4. The Millionaire Waltz
DR10 -0.21 dB -13.21 dB 3:28 05-A5. You And I
DR9 -0.07 dB -11.68 dB 4:58 06-B1. Somebody To Love
DR10 -0.11 dB -13.14 dB 5:02 07-B2. White Man
DR10 -0.15 dB -13.05 dB 2:55 08-B3. Good Old-Fashioned Lover Boy
DR11 -0.19 dB -13.76 dB 3:46 09-B4. Drowse
DR11 -0.17 dB -15.64 dB 5:56 10-B5. Teo Torriatte (Let Us Cling Together)
––––––––––––––––––––––––––––––––––––––––

Number of tracks: 10
Official DR value: DR10

Samplerate: 44100 Hz
Channels: 2
Bits per sample: 16
Bitrate: 810 kbps
Codec: FLAC
================================================================================



Queen: Collection (1973 - 1995) [Vinyl Rip 16/44 & mp3-320]

Tracklist VNL06 - News Of The World:
JP LP 1977 Warner-Pioneer Co., Tokyo • P-10430E

01. A1. We Will Rock You [02:02]
02. A2. We Are The Champions [02:59]
03. A3. Sheer Heart Attack [03:27]
04. A4. All Dead, All Dead [03:10]
05. A5. Spread Your Wings [04:36]
06. A6. Fight From The Inside [03:07]
07. B1. Get Down, Make Love [03:52]
08. B2. Sleeping On The Sidewalk [03:08]
09. B3. Who Needs You [03:08]
10. B4. It's Late [06:29]
11. B5. My Melancholy Blues [03:36]

foobar2000 1.2.9 / Dynamic Range Meter 1.1.1
log date: 2016-12-09 15:41:06

––––––––––––––––––––––––––––––––––––––––
Analyzed: QUEEN / News Of The World
––––––––––––––––––––––––––––––––––––––––

DR Peak RMS Duration Track
––––––––––––––––––––––––––––––––––––––––
DR9 -2.57 dB -14.80 dB 2:02 01-A1. We Will Rock You
DR10 -1.58 dB -14.51 dB 3:00 02-A2. We Are The Champions
DR9 -1.05 dB -12.68 dB 3:27 03-A3. Sheer Heart Attack
DR10 -3.56 dB -18.33 dB 3:11 04-A4. All Dead, All Dead
DR10 -2.55 dB -15.74 dB 4:36 05-A5. Spread Your Wings
DR12 -2.32 dB -15.92 dB 3:08 06-A6. Fight From The Inside
DR11 -1.95 dB -16.19 dB 3:52 07-B1. Get Down, Make Love
DR11 -1.21 dB -13.73 dB 3:09 08-B2. Sleeping On The Sidewalk
DR12 -2.20 dB -16.90 dB 3:08 09-B3. Who Needs You
DR10 -0.78 dB -14.32 dB 6:29 10-B4. It's Late
DR10 -5.05 dB -20.08 dB 3:37 11-B5. My Melancholy Blues
––––––––––––––––––––––––––––––––––––––––

Number of tracks: 11
Official DR value: DR10

Samplerate: 44100 Hz
Channels: 2
Bits per sample: 16
Bitrate: 881 kbps
Codec: FLAC

Queen: Collection (1973 - 1995) [Vinyl Rip 16/44 & mp3-320]

Tracklist VNL07 - Jazz:
JP LP 1978 Warner-Pioneer Co., Tokyo • P-10601E

01. A1. Mustapha [03:01]
02. A2. Fat Bottomed Girls [04:17]
03. A3. Jealousy [03:14]
04. A4. Bicycle Race [03:03]
05. A5. If You Can't Beat Them [04:15]
06. A6. Let Me Entertain You [03:02]
07. B1. Dead On Time [03:24]
08. B2. In Only Seven Days [02:30]
09. B3. Dreamers Ball [03:30]
10. B4. Fun It [03:30]
11. B5. Leaving Home Ain't Easy [03:15]
12. B6. Don't Stop Me Now [03:29]
13. B7. More Of That Jazz [04:18]

foobar2000 1.2.9 / Dynamic Range Meter 1.1.1
log date: 2016-12-09 15:41:21

––––––––––––––––––––––––––––––––––––––––
Analyzed: QUEEN / Jazz
––––––––––––––––––––––––––––––––––––––––

DR Peak RMS Duration Track
––––––––––––––––––––––––––––––––––––––––
DR11 -1.00 dB -18.35 dB 3:02 01-A1. Mustapha
DR13 -1.47 dB -16.35 dB 4:17 02-A2. Fat Bottomed Girls
DR12 -3.55 dB -20.48 dB 3:14 03-A3. Jealousy
DR12 -2.29 dB -17.06 dB 3:04 04-A4. Bicycle Race
DR12 -2.31 dB -16.96 dB 4:16 05-A5. If You Can't Beat Them
DR12 -2.49 dB -16.69 dB 3:02 06-A6. Let Me Entertain You
DR12 -2.52 dB -17.50 dB 3:24 07-B1. Dead On Time
DR14 -3.15 dB -20.17 dB 2:30 08-B2. In Only Seven Days
DR12 -4.54 dB -20.61 dB 3:31 09-B3. Dreamers Ball
DR13 -2.01 dB -17.32 dB 3:30 10-B4. Fun It
DR13 -1.59 dB -19.06 dB 3:16 11-B5. Leaving Home Ain't Easy
DR12 -2.03 dB -17.50 dB 3:30 12-B6. Don't Stop Me Now
DR12 -3.37 dB -17.93 dB 4:18 13-B7. More Of That Jazz
––––––––––––––––––––––––––––––––––––––––

Number of tracks: 13
Official DR value: DR12

Samplerate: 44100 Hz
Channels: 2
Bits per sample: 16
Bitrate: 847 kbps
Codec: FLAC

Queen: Collection (1973 - 1995) [Vinyl Rip 16/44 & mp3-320]

Tracklist VNL08 - Live Killers:
JP 2 x LP 1979 Warner-Pioneer Co., Tokyo • P-5567-8E

01. A1. We Will Rock You [3:20]
02. A2. Let Me Entertain You [3:16]
03. A3. Death On Two Legs [3:34]
04. A4. Killer Queen [1:58]
05. A5. Bicycle Race [1:29]
06. A6. I'm In Love With My Car [2:02]
07. A7. Get Down, Make Love [4:31]
08. A8. You're My Best Friend [2:09]
09. B1. Now I'm Here [8:45]
10. B2. Dreamers Ball [3:42]
11. B3. Love Of My Life [5:00]
12. B4. '39 [3:27]
13. B5. Keep Yourself Alive [4:00]
14. C1. Don't Stop Me Now [4:29]
15. C2. Spread Your Wings [5:16]
16. C3. Brighton Rock [12:23]
17. D1. Bohemian Rhapsody [6:01]
18. D2. Tie Your Mother Down [3:43]
19. D3. Sheer Heart Attack [3:36]
20. D4. We Will Rock You [2:48]
21. D5. We Are The Champions [3:28]
22. D6. God Save The Queen [1:24]

foobar2000 1.2.9 / Dynamic Range Meter 1.1.1
log date: 2016-12-09 15:41:41

––––––––––––––––––––––––––––––––––––––––
Analyzed: QUEEN / Live Killers (Japan, Elektra, P-5567-8E)
––––––––––––––––––––––––––––––––––––––––

DR Peak RMS Duration Track
––––––––––––––––––––––––––––––––––––––––
DR11 -0.22 dB -12.80 dB 3:20 01-A1. We Will Rock You
DR10 -0.84 dB -12.57 dB 3:16 02-A2. Let Me Entertain You
DR12 -0.38 dB -14.68 dB 3:34 03-A3. Death On Two Legs
DR13 -0.35 dB -15.05 dB 1:58 04-A4. Killer Queen
DR11 -0.48 dB -13.77 dB 1:29 05-A5. Bicycle Race
DR11 -0.91 dB -13.14 dB 2:02 06-A6. I'm In Love With My Car
DR11 -0.94 dB -15.42 dB 4:31 07-A7. Get Down, Make Love
DR11 -1.80 dB -14.66 dB 2:09 08-A8. You're My Best Friend
DR12 -0.55 dB -14.93 dB 8:45 09-B1. Now I'm Here
DR13 -3.33 dB -19.19 dB 3:42 10-B2. Dreamers Ball
DR12 -2.81 dB -17.64 dB 5:00 11-B3. Love Of My Life
DR12 -0.78 dB -16.71 dB 3:27 12-B4. '39
DR11 -2.34 dB -15.84 dB 4:00 13-B5. Keep Yourself Alive
DR12 -0.40 dB -14.19 dB 4:29 14-C1. Don't Stop Me Now
DR12 -1.22 dB -15.65 dB 5:16 15-C2. Spread Your Wings
DR12 -0.31 dB -15.80 dB 12:23 16-C3. Brighton Rock
DR12 -0.30 dB -15.54 dB 6:01 17-D1. Bohemian Rhapsody
DR11 -0.63 dB -14.14 dB 3:43 18-D2. Tie Your Mother Down
DR11 -1.60 dB -14.67 dB 3:36 19-D3. Sheer Heart Attack
DR11 -1.71 dB -15.20 dB 2:48 20-D4. We Will Rock You
DR11 -1.24 dB -15.24 dB 3:28 21-D5. We Are The Champions
DR10 -2.71 dB -16.35 dB 1:24 22-D6. God Save The Queen
––––––––––––––––––––––––––––––––––––––––

Number of tracks: 22
Official DR value: DR11

Samplerate: 44100 Hz
Channels: 2
Bits per sample: 16
Bitrate: 925 kbps
Codec: FLAC

Queen: Collection (1973 - 1995) [Vinyl Rip 16/44 & mp3-320]

Tracklist VNL09 - The Game:
JP LP 1980 Warner-Pioneer Co., Tokyo • P-10875E

01. A1. Play The Game [03:30]
02. A2. Dragon Attack [04:17]
03. A3. Another One Bites The Dust [03:33]
04. A4. Need Your Loving Tonight [02:48]
05. A5. Crazy Little Thing Called Love [02:45]
06. B1. Rock It (Prime Jive) [04:32]
07. B2. Don't Try Suicide [03:52]
08. B3. Sail Away Sweet Sister [03:32]
09. B4. Coming Soon [02:50]
10. B5. Save Me [03:52]

foobar2000 1.2.9 / Dynamic Range Meter 1.1.1
log date: 2016-12-09 15:41:52

––––––––––––––––––––––––––––––––––––––––
Analyzed: QUEEN / The Game
––––––––––––––––––––––––––––––––––––––––

DR Peak RMS Duration Track
––––––––––––––––––––––––––––––––––––––––
DR10 -1.43 dB -13.24 dB 3:30 01-A1. Play The Game
DR11 -1.38 dB -14.39 dB 4:18 02-A2. Dragon Attack
DR13 -1.55 dB -16.33 dB 3:33 03-A3. Another One Bites The Dust
DR11 -2.31 dB -14.24 dB 2:48 04-A4. Need Your Loving Tonight
DR11 -2.26 dB -14.80 dB 2:45 05-A5. Crazy Little Thing Called Love
DR11 -0.92 dB -13.60 dB 4:32 06-B1. Rock It (Prime Jive)
DR12 -0.91 dB -17.21 dB 3:53 07-B2. Don't Try Suicide
DR11 -1.29 dB -15.63 dB 3:32 08-B3. Sail Away Sweet Sister
DR10 -1.13 dB -12.74 dB 2:51 09-B4. Coming Soon
DR11 -1.21 dB -16.12 dB 3:52 10-B5. Save Me
––––––––––––––––––––––––––––––––––––––––

Number of tracks: 10
Official DR value: DR11

Samplerate: 44100 Hz
Channels: 2
Bits per sample: 16
Bitrate: 883 kbps
Codec: FLAC

Queen: Collection (1973 - 1995) [Vinyl Rip 16/44 & mp3-320]

Tracklist VNL10 - Hot Space:
JP LP 1982 Warner-Pioneer Co., Tokyo • P-11204

01. A1. Staying Power [04:13]
02. A2. Dancer [03:47]
03. A3. Back Chat [04:36]
04. A4. Body Language [04:32]
05. A5. Action This Day [03:33]
06. B1. Put Out The Fire [03:20]
07. B2. Life Is Real (Song For Lennon) [03:32]
08. B3. Calling All Girls [03:53]
09. B4. Las Palabras De Amor (The Words Of Love) [04:30]
10. B5. Cool Cat [03:30]
11. B6. Under Pressure [04:09]

foobar2000 1.2.9 / Dynamic Range Meter 1.1.1
log date: 2016-12-09 15:42:05

––––––––––––––––––––––––––––––––––––––––
Analyzed: QUEEN / Hot Space
––––––––––––––––––––––––––––––––––––––––

DR Peak RMS Duration Track
––––––––––––––––––––––––––––––––––––––––
DR11 -0.82 dB -12.91 dB 4:14 01-A1. Staying Power
DR10 -2.74 dB -14.65 dB 3:48 02-A2. Dancer
DR12 -2.21 dB -15.75 dB 4:36 03-A3. Back Chat
DR10 -2.05 dB -14.22 dB 4:33 04-A4. Body Language
DR11 -2.42 dB -15.49 dB 3:34 05-A5. Action This Day
DR10 -1.97 dB -14.53 dB 3:20 06-B1. Put Out The Fire
DR11 -2.64 dB -16.71 dB 3:33 07-B2. Life Is Real (Song For Lennon)
DR11 -1.27 dB -14.90 dB 3:54 08-B3. Calling All Girls
DR11 -2.75 dB -16.29 dB 4:31 09-B4. Las Palabras De Amor (The Words Of Love)
DR12 -4.86 dB -19.49 dB 3:31 10-B5. Cool Cat
DR11 -2.84 dB -18.35 dB 4:09 11-B6. Under Pressure
––––––––––––––––––––––––––––––––––––––––

Number of tracks: 11
Official DR value: DR11

Samplerate: 44100 Hz
Channels: 2
Bits per sample: 16
Bitrate: 852 kbps
Codec: FLAC

Queen: Collection (1973 - 1995) [Vinyl Rip 16/44 & mp3-320]

Tracklist VNL11 - The Works:
JP LP 1984 Toshiba EMI Ltd., Tokyo • EMS-91076

01. A1. Radio GaGa [05:50]
02. A2. Tear It Up [03:28]
03. A3. It's A Hard Life [04:08]
04. A4. Man On The Prowl [03:27]
05. B1. Machines (Or Back To Humans) [05:10]
06. B2. I Want To Break Free [03:21]
07. B3. Keep Passing The Open Windows [05:22]
08. B4. Hammer To Fall [04:29]
09. B5. Is This The World We Created…? [02:14]

foobar2000 1.2.9 / Dynamic Range Meter 1.1.1
log date: 2016-12-09 15:42:18

––––––––––––––––––––––––––––––––––––––––
Analyzed: QUEEN / The Works
––––––––––––––––––––––––––––––––––––––––

DR Peak RMS Duration Track
––––––––––––––––––––––––––––––––––––––––
DR11 -1.39 dB -14.64 dB 5:50 01-A1. Radio GaGa
DR11 -1.37 dB -14.27 dB 3:28 02-A2. Tear It Up
DR11 -2.37 dB -16.23 dB 4:09 03-A3. It's A Hard Life
DR11 -1.67 dB -14.59 dB 3:28 04-A4. Man On The Prowl
DR11 -1.15 dB -15.39 dB 5:10 05-B1. Machines (Or Back To Humans)
DR12 -0.40 dB -15.49 dB 3:21 06-B2. I Want To Break Free
DR11 -1.33 dB -14.54 dB 5:23 07-B3. Keep Passing The Open Windows
DR11 -1.64 dB -14.19 dB 4:29 08-B4. Hammer To Fall
DR12 -8.19 dB -23.97 dB 2:15 09-B5. Is This The World We Created…?
––––––––––––––––––––––––––––––––––––––––

Number of tracks: 9
Official DR value: DR11

Samplerate: 44100 Hz
Channels: 2
Bits per sample: 16
Bitrate: 937 kbps
Codec: FLAC

Queen: Collection (1973 - 1995) [Vinyl Rip 16/44 & mp3-320]

Tracklist VNL12 - A Kind Of Magic:
JP LP 1986 Toshiba EMI Ltd., Tokyo • EMS-91168

01. A1. One Vision [05:13]
02. A2. A Kind Of Magic [04:24]
03. A3. One Year Of Love [04:28]
04. A4. Pain Is So Close To Pleasure [04:23]
05. A5. Friends Will Be Friends [04:10]
06. B1. Who Wants To Live Forever [05:16]
07. B2. Gimme The Prize (Kurgan's Theme) [04:34]
08. B3. Don't Lose Your Head [04:37]
09. B4. Princes Of The Universe [03:35]

foobar2000 1.2.9 / Dynamic Range Meter 1.1.1
log date: 2016-12-09 15:42:32

––––––––––––––––––––––––––––––––––––––––
Analyzed: QUEEN / A Kind Of Magic
––––––––––––––––––––––––––––––––––––––––

DR Peak RMS Duration Track
––––––––––––––––––––––––––––––––––––––––
DR11 -3.02 dB -16.18 dB 5:13 01-A1. One Vision
DR13 -1.18 dB -16.57 dB 4:25 02-A2. A Kind Of Magic
DR11 -1.77 dB -16.55 dB 4:28 03-A3. One Year Of Love
DR12 -1.81 dB -15.69 dB 4:23 04-A4. Pain Is So Close To Pleasure
DR10 -1.97 dB -15.66 dB 4:11 05-A5. Friends Will Be Friends
DR12 -1.87 dB -20.47 dB 5:17 06-B1. Who Wants To Live Forever
DR11 -3.25 dB -16.17 dB 4:35 07-B2. Gimme The Prize (Kurgan's Theme)
DR11 -3.17 dB -16.27 dB 4:38 08-B3. Don't Lose Your Head
DR12 -2.81 dB -16.59 dB 3:35 09-B4. Princes Of The Universe
––––––––––––––––––––––––––––––––––––––––

Number of tracks: 9
Official DR value: DR11

Samplerate: 44100 Hz
Channels: 2
Bits per sample: 16
Bitrate: 849 kbps
Codec: FLAC

Queen: Collection (1973 - 1995) [Vinyl Rip 16/44 & mp3-320]

Tracklist VNL13 - Live Magic:
JP LP 1986 Toshiba-EMI Ltd., Tokyo • EMS-91203

01. A1. One Vision [5:10]
02. A2. Tie Your Mother Down [2:59]
03. A3. Seven Seas Of Rhye [1:18]
04. A4. A Kind Of Magic [4:51]
05. A5. Under Pressure [3:48]
06. A6. Another One Bites The Dust [5:24]
07. B1. I Want To Break Free [2:41]
08. B2. Is This The World We Created? [1:31]
09. B3. Bohemian Rhapsody [4:42]
10. B4. Hammer To Fall [4:23]
11. B5. Radio Ga-Ga [4:27]
12. B6. We Will Rock You [1:31]
13. B7. Friends Will Be Friends [1:11]
14. B8. We Are The Champions [2:01]
15. B9. God Save The Queen [1:22]

foobar2000 1.2.9 / Dynamic Range Meter 1.1.1
log date: 2016-12-09 15:42:46

––––––––––––––––––––––––––––––––––––––––
Analyzed: QUEEN / Live Magic (Japan, EMS-91203)
––––––––––––––––––––––––––––––––––––––––

DR Peak RMS Duration Track
––––––––––––––––––––––––––––––––––––––––
DR14 -0.28 dB -17.19 dB 5:10 01-A1. One Vision
DR14 -0.60 dB -16.94 dB 2:59 02-A2. Tie Your Mother Down
DR12 -1.48 dB -16.45 dB 1:18 03-A3. Seven Seas Of Rhye
DR14 -0.98 dB -17.66 dB 4:51 04-A4. A Kind Of Magic
DR13 -2.33 dB -18.55 dB 3:48 05-A5. Under Pressure
DR15 -2.13 dB -19.61 dB 5:24 06-A6. Another One Bites The Dust
DR13 -2.09 dB -17.77 dB 2:41 07-B1. I Want To Break Free
DR13 -3.54 dB -24.46 dB 1:31 08-B2. Is This The World We Created?
DR14 -1.75 dB -19.27 dB 4:42 09-B3. Bohemian Rhapsody
DR13 -1.73 dB -16.77 dB 4:23 10-B4. Hammer To Fall
DR14 -2.03 dB -17.64 dB 4:27 11-B5. Radio Ga-Ga
DR12 -4.61 dB -19.53 dB 1:31 12-B6. We Will Rock You
DR12 -3.19 dB -17.83 dB 1:11 13-B7. Friends Will Be Friends
DR12 -4.22 dB -18.24 dB 2:01 14-B8. We Are The Champions
DR11 -5.14 dB -20.66 dB 1:22 15-B9. God Save The QUEEN
––––––––––––––––––––––––––––––––––––––––

Number of tracks: 15
Official DR value: DR13

Samplerate: 44100 Hz
Channels: 2
Bits per sample: 16
Bitrate: 899 kbps
Codec: FLAC

Queen: Collection (1973 - 1995) [Vinyl Rip 16/44 & mp3-320]

Tracklist VNL14 - The Miracle:
US LP 1989 Capitol Records Inc. • C1-92357

01. A1. Party [02:24]
02. A2. Khashoggi's Ship [02:48]
03. A3. The Miracle [05:02]
04. A4. I Want It All [04:41]
05. A5. The Invisible Man [03:56]
06. B1. Breakthru [04:08]
07. B2. Rain Must Fall [04:22]
08. B3. Scandal [04:44]
09. B4. My Baby Does Me [03:23]
10. B5. Was It All Worth It [05:45]

foobar2000 1.2.9 / Dynamic Range Meter 1.1.1
log date: 2016-12-09 15:42:58

––––––––––––––––––––––––––––––––––––––––
Analyzed: QUEEN / The Miracle
––––––––––––––––––––––––––––––––––––––––

DR Peak RMS Duration Track
––––––––––––––––––––––––––––––––––––––––
DR12 -2.48 dB -16.95 dB 2:24 01-A1. Party
DR12 -0.99 dB -16.12 dB 2:48 02-A2. Khashoggi's Ship
DR12 -1.02 dB -15.40 dB 5:02 03-A3. The Miracle
DR12 -1.56 dB -16.23 dB 4:41 04-A4. I Want It All
DR14 -0.91 dB -16.57 dB 3:57 05-A5. The Invisible Man
DR13 -1.52 dB -18.18 dB 4:08 06-B1. Breakthru
DR14 -0.75 dB -16.98 dB 4:23 07-B2. Rain Must Fall
DR13 -0.19 dB -17.34 dB 4:44 08-B3. Scandal
DR15 -2.63 dB -19.57 dB 3:23 09-B4. My Baby Does Me
DR12 -2.17 dB -17.42 dB 5:46 10-B5. Was It All Worth It
––––––––––––––––––––––––––––––––––––––––

Number of tracks: 10
Official DR value: DR13

Samplerate: 44100 Hz
Channels: 2
Bits per sample: 16
Bitrate: 834 kbps
Codec: FLAC

Queen: Collection (1973 - 1995) [Vinyl Rip 16/44 & mp3-320]

Tracklist VNL15 - Innuendo:
NL LP 1991 EMI Records Ltd. • 068 7 95887 1

01. A1. Innuendo [06:32]
02. A2. I'm Going Slightly Mad* [04:08]
03. A3. Headlong [04:32]
04. A4. I Can't Live With You [04:06]
05. A5. Ride The Wild Wind [04:43]
06. B1. All God's People [03:58]
07. B2. These Are The Days Of Our Lives [03:55]
08. B3. Delilah [03:34]
09. B4. Don't Try So Hard* [03:32]
10. B5. The Hitman* [03:44]
11. B6. Bijou* [03:36]
12. B7. The Show Must Go On [04:29]

foobar2000 1.2.9 / Dynamic Range Meter 1.1.1
log date: 2016-12-09 15:43:13

––––––––––––––––––––––––––––––––––––––––
Analyzed: QUEEN / Innuendo
––––––––––––––––––––––––––––––––––––––––

DR Peak RMS Duration Track
––––––––––––––––––––––––––––––––––––––––
DR11 -0.57 dB -14.43 dB 6:32 01-A1. Innuendo
DR12 -1.02 dB -15.33 dB 4:08 02-A2. I'm Going Slightly Mad
DR13 -0.64 dB -15.07 dB 4:33 03-A3. Headlong
DR12 -1.13 dB -14.91 dB 4:06 04-A4. I Can't Live With You
DR12 -0.60 dB -15.03 dB 4:44 05-A5. Ride The Wild Wind
DR13 -0.62 dB -16.07 dB 3:58 06-B1. All God's People
DR12 -0.65 dB -14.95 dB 3:55 07-B2. These Are The Days Of Our Lives
DR13 -0.65 dB -17.09 dB 3:35 08-B3. Delilah
DR12 -1.04 dB -16.55 dB 3:33 09-B4. Don't Try So Hard
DR13 -1.06 dB -16.42 dB 3:44 10-B5. The Hitman
DR12 -2.54 dB -18.99 dB 3:37 11-B6. Bijou
DR11 -0.66 dB -15.38 dB 4:29 12-B7. The Show Must Go On
––––––––––––––––––––––––––––––––––––––––

Number of tracks: 12
Official DR value: DR12

Samplerate: 44100 Hz
Channels: 2
Bits per sample: 16
Bitrate: 899 kbps
Codec: FLAC

Queen: Collection (1973 - 1995) [Vinyl Rip 16/44 & mp3-320]

Tracklist VNL16 - Made In Heaven:
UK LP 1995 EMI Records Ltd. • 7243 8 36088 1 2

01. A1. It's A Beautiful Day [02:33]
02. A2. Made In Heaven [05:25]
03. A3. Let Me Live [04:46]
04. A4. Mother Love [04:49]
05. A5. My Life Has Been Saved [03:16]
06. B1. I Was Born To Love You [04:29]
07. B2. Heaven For Everyone [04:42]
08. B3. Too Much Love Will Kill You [04:20]
09. B4. You Don't Fool Me [04:44]
10. B5. A Winter's Tale [03:50]
11. B6. It's A Beautiful Day [03:12]

foobar2000 1.2.9 / Dynamic Range Meter 1.1.1
log date: 2016-12-09 15:43:52

––––––––––––––––––––––––––––––––––––––––
Analyzed: QUEEN / Made in Heaven
––––––––––––––––––––––––––––––––––––––––

DR Peak RMS Duration Track
––––––––––––––––––––––––––––––––––––––––
DR12 -1.41 dB -18.40 dB 2:33 01-A1. It's A Beautiful Day
DR10 -0.36 dB -12.64 dB 5:25 02-A2. Made In Heaven
DR10 0.00 dB -13.74 dB 4:46 03-A3. Let Me Live
DR11 0.00 dB -14.52 dB 4:49 04-A4. Mother Love
DR12 -0.12 dB -14.23 dB 3:16 05-A5. My Life Has Been Saved
DR10 -1.73 dB -13.84 dB 4:29 06-B1. I Was Born To Love You
DR11 -0.99 dB -16.20 dB 4:42 07-B2. Heaven For Everyone
DR11 -1.97 dB -17.24 dB 4:20 08-B3. Too Much Love Will Kill You
DR11 -0.87 dB -15.43 dB 4:45 09-B4. You Don't Fool Me
DR11 -1.05 dB -15.99 dB 3:50 10-B5. A Winter's Tale
DR11 0.00 dB -16.86 dB 3:12 11-B6. It's A Beautiful Day
––––––––––––––––––––––––––––––––––––––––

Number of tracks: 11
Official DR value: DR11

Samplerate: 44100 Hz
Channels: 2
Bits per sample: 16
Bitrate: 924 kbps
Codec: FLAC

Queen: Collection (1973 - 1995) [Vinyl Rip 16/44 & mp3-320]

Tracklist VNL17 - FREDDIE MERCURY - Mr. Bad Guy:
JP LP 1985 CBS Sony Inc., Tokyo • 28AP 3030

01. A1. Let's Turn It On [3:43]
02. A2. Made In Heaven [4:06]
03. A3. I Was Born To Love You [3:40]
04. A4. Foolin' Around [3:30]
05. A5. Your Kind Of Lover [3:35]
06. B1. Mr. Bad Guy [4:11]
07. B2. Man Made Paradise [4:09]
08. B3. There Must Be More To Life Than This [3:01]
09. B4. Living On My Own [3:23]
10. B5. My Love Is Dangerous [3:44]
11. B6. Love Me Like There's No Tomorrow [3:50]

foobar2000 1.2.9 / Dynamic Range Meter 1.1.1
log date: 2016-12-09 15:44:07

––––––––––––––––––––––––––––––––––––––––
Analyzed: FREDDIE MERCURY / Mr. Bad Guy (Japan, CBS, 28AP 3030)
––––––––––––––––––––––––––––––––––––––––

DR Peak RMS Duration Track
––––––––––––––––––––––––––––––––––––––––
DR11 -0.12 dB -12.69 dB 3:43 01-A1. Let's Turn It On
DR11 -0.15 dB -14.32 dB 4:06 02-A2. Made In Heaven
DR11 -0.21 dB -12.92 dB 3:40 03-A3. I Was Born To Love You
DR12 -0.24 dB -13.68 dB 3:30 04-A4. Foolin' Around
DR12 -0.23 dB -14.80 dB 3:35 05-A5. Your Kind Of Lover
DR12 -0.50 dB -14.84 dB 4:11 06-B1. Mr. Bad Guy
DR12 -0.99 dB -15.75 dB 4:09 07-B2. Man Made Paradise
DR11 -1.02 dB -16.37 dB 3:01 08-B3. There Must Be More To Life Than This
DR12 -0.61 dB -15.03 dB 3:23 09-B4. Living On My Own
DR12 -0.24 dB -15.33 dB 3:44 10-B5. My Love Is Dangerous
DR12 -1.63 dB -17.29 dB 3:50 11-B6. Love Me Like There's No Tomorrow
––––––––––––––––––––––––––––––––––––––––

Number of tracks: 11
Official DR value: DR12

Samplerate: 44100 Hz
Channels: 2
Bits per sample: 16
Bitrate: 908 kbps
Codec: FLAC

Queen: Collection (1973 - 1995) [Vinyl Rip 16/44 & mp3-320]

Tracklist VNL18 - FREDDIE MERCURY & MONTSERRAT CABALLE - Barcelona:
BR LP 1988 Mercury Songs Ltd. • 837 277-1

01. A1. Barcelona [5:40]
02. A2. La Japonaise [4:50]
03. A3. The Fallen Priest [5:47]
04. A4. Ensueno [4:21]
05. B1. The Golden Boy [6:06]
06. B2. Guide Me Home [2:40]
07. B3. How Can I Go On [4:02]
08. B4. Overture Piccante [6:43]

foobar2000 1.2.9 / Dynamic Range Meter 1.1.1
log date: 2016-12-09 15:44:20

––––––––––––––––––––––––––––––––––––––––
Analyzed: FREDDIE MERCURY & MONTSERRAT CABALLE / Barcelona (Brazil, 837 277-1)
––––––––––––––––––––––––––––––––––––––––

DR Peak RMS Duration Track
––––––––––––––––––––––––––––––––––––––––
DR13 -0.33 dB -16.73 dB 5:40 01-A1. Barcelona
DR13 -0.33 dB -20.68 dB 4:50 02-A2. La Japonaise
DR13 -0.35 dB -18.34 dB 5:47 03-A3. The Fallen Priest
DR12 -6.34 dB -22.05 dB 4:21 04-A4. Ensueno
DR13 -0.68 dB -17.19 dB 6:06 05-B1. The Golden Boy
DR12 -0.53 dB -19.09 dB 2:40 06-B2. Guide Me Home
DR11 -0.64 dB -14.77 dB 4:02 07-B3. How Can I Go On
DR14 -0.33 dB -19.40 dB 6:43 08-B4. Overture Piccante
––––––––––––––––––––––––––––––––––––––––

Number of tracks: 8
Official DR value: DR13

Samplerate: 44100 Hz
Channels: 2
Bits per sample: 16
Bitrate: 682 kbps
Codec: FLAC


All thanks goes to bruk67, Dymokust, sv-dd, bazar, Oleg-Leshiy & KoGGaN