Subcategories

Queen - Queen Rock Montreal (2007) [2CD + 2DVD + Blu-ray]

Posted By: v3122
Queen - Queen Rock Montreal (2007) [2CD + 2DVD + Blu-ray]

Queen - Queen Rock Montreal (2007)
EAC | Flac(Image) + Cue + Log & MP3 CBR 320Kbps
2CD | EMI, 5099950404728 | Holland | ~ 723 or 955 Mb | Artwork(jpg) -> 63 Mb
2xDVD: PAL 4:3 & 16:9 (720x576) VBR | LPCM, 2 ch / DTS, 6 ch / AC3, 2 ch
Blu-ray: VC1 1920x1080, 22-27K, 23.976 fps | DTS HD 5.1 / LPCM 2.0 / DD 2.0
Progressive Hard Rock / Classic Rock / Pop Rock

Essentially, the 2007 release Queen Rock Montreal is the long-delayed official release of the soundtrack to the We Will Rock You concert video, capturing highlights from the group's two-night stand at the Montreal Forum on November 24 and 25, 1981. This double-disc contains the full set, including the previously unreleased "Flash" and "The Hero," and it benefits from the ebb and flow of a full concert, giving a broader, fuller sense of Queen at the peak of their power, which they were close to being at the time this was recorded. That is, they were close to the peak of their powers as world-conquering stadium rockers, touring the same set across the globe, perfecting it so it could play in any territory, as if it was rock & roll Esperanto. That may mean that this isn't as raw or visceral as various live recordings from the '70s, but it is deliberately theatrical and often majestic. When Queen is thought of as a ridiculous, over-sized arena monster, this is the kind of sound people have in mind, and it's still grandly entertaining decades later.

by Stephen Thomas Erlewine, allmusic
Queen - Queen Rock Montreal (2007):

Queen - Queen Rock Montreal (2007) [2CD + 2DVD + Blu-ray]

Tracklist CD1:

01. Intro - 1:59
02. We Will Rock You (Fast) - 3:06
03. Let Me Entertain You - 2:49
04. Play The Game - 3:57
05. Somebody To Love - 7:53
06. Killer Queen - 2:00
07. I'm In Love With My Car - 2:03
08. Get Down Make Love - 4:46
09. Save Me - 4:15
10. Now I'm Here - 5:32
11. Dragon Attack - 3:12
12. Now I'm Here (Reprise) - 1:53
13. Love Of My Life - 3:57

Exact Audio Copy V1.0 beta 3 from 29. August 2011

EAC extraction logfile from 3. October 2014, 9:49

Queen / Queen Rock Montreal CD1 (2CD, 5099950404728)

Used drive : ATAPI iHAS124 B Adapter: 1 ID: 0

Read mode : Secure
Utilize accurate stream : Yes
Defeat audio cache : Yes
Make use of C2 pointers : No

Read offset correction : 6
Overread into Lead-In and Lead-Out : No
Fill up missing offset samples with silence : Yes
Delete leading and trailing silent blocks : No
Null samples used in CRC calculations : Yes
Used interface : Installed external ASPI interface

Used output format : User Defined Encoder
Selected bitrate : 128 kBit/s
Quality : High
Add ID3 tag : Yes
Command line compressor : C:\Program Files (x86)\Exact Audio Copy\Flac\flac.exe
Additional command line options : -V -8 -T "Date=%year%" -T "Genre=%genre%" %source%


TOC of the extracted CD

Track | Start | Length | Start sector | End sector
––––––––––––––––––––––––––––-
1 | 0:01.00 | 1:59.24 | 75 | 9023
2 | 2:00.24 | 3:06.08 | 9024 | 22981
3 | 5:06.32 | 2:48.52 | 22982 | 35633
4 | 7:55.09 | 3:57.35 | 35634 | 53443
5 | 11:52.44 | 7:53.23 | 53444 | 88941
6 | 19:45.67 | 1:59.70 | 88942 | 97936
7 | 21:45.62 | 2:03.25 | 97937 | 107186
8 | 23:49.12 | 4:45.70 | 107187 | 128631
9 | 28:35.07 | 4:14.55 | 128632 | 147736
10 | 32:49.62 | 5:31.45 | 147737 | 172606
11 | 38:21.32 | 3:11.57 | 172607 | 186988
12 | 41:33.14 | 1:53.08 | 186989 | 195471
13 | 43:26.22 | 3:56.43 | 195472 | 213214


Range status and errors

Selected range

Filename G:\CD\Queen - Queen Rock Montreal CD1.wav

Peak level 100.0 %
Extraction speed 5.5 X
Range quality 100.0 %
Test CRC BAB08099
Copy CRC BAB08099
Copy OK

No errors occurred


AccurateRip summary

Track 1 accurately ripped (confidence 35) [DE54841E] (AR v2)
Track 2 accurately ripped (confidence 36) [04A99684] (AR v2)
Track 3 accurately ripped (confidence 36) [C45294A0] (AR v2)
Track 4 accurately ripped (confidence 35) [0A4E2BC3] (AR v2)
Track 5 accurately ripped (confidence 36) [86367ED6] (AR v2)
Track 6 accurately ripped (confidence 36) [B7DA56BF] (AR v2)
Track 7 accurately ripped (confidence 35) [53074C33] (AR v2)
Track 8 accurately ripped (confidence 35) [DCCF5102] (AR v2)
Track 9 accurately ripped (confidence 35) [B284885B] (AR v2)
Track 10 accurately ripped (confidence 34) [72099959] (AR v2)
Track 11 accurately ripped (confidence 35) [5D13F452] (AR v2)
Track 12 accurately ripped (confidence 35) [6F5DD2CF] (AR v2)
Track 13 accurately ripped (confidence 35) [AD195F13] (AR v2)

All tracks accurately ripped

End of status report

–– CUETools DB Plugin V2.1.3

[CTDB TOCID: e5_oAgVBnB4GzuJeKpKLEXhE2XA-] found, Submit result: discs with pregaps not supported in this protocol version
[e57ead73] (82/82) Differs in 0 samples @
You can use CUETools to repair this rip.


==== Log checksum C232B19C2A74DB765FEBA7088A44717B0E8EEBCD95F781A4069E8EE10CF54B99 ====


[CUETools log; Date: 31.12.2015 19:09:54; Version: 2.1.4]
Pregap length 00:01:00.
[CTDB TOCID: e5_oAgVBnB4GzuJeKpKLEXhE2XA-] found.
Track | CTDB Status
1 | (70/72) Accurately ripped
2 | (70/72) Accurately ripped
3 | (70/72) Accurately ripped
4 | (70/72) Accurately ripped
5 | (69/72) Accurately ripped
6 | (71/72) Accurately ripped
7 | (71/72) Accurately ripped
8 | (71/72) Accurately ripped
9 | (70/72) Accurately ripped
10 | (71/72) Accurately ripped
11 | (71/72) Accurately ripped
12 | (70/72) Accurately ripped
13 | (69/72) Accurately ripped
[AccurateRip ID: 001646a5-00e30261-a40b190d] found.
Track [ CRC | V2 ] Status
01 [6ca67f39|de54841e] (075+051/137) Accurately ripped
02 [005dc75e|04a99684] (074+052/137) Accurately ripped
03 [06344447|c45294a0] (074+052/137) Accurately ripped
04 [568e341b|0a4e2bc3] (075+051/137) Accurately ripped
05 [5a4a6c07|86367ed6] (074+052/137) Accurately ripped
06 [fe55b172|b7da56bf] (074+052/137) Accurately ripped
07 [12dc7a84|53074c33] (074+051/136) Accurately ripped
08 [68bf59ca|dccf5102] (073+051/135) Accurately ripped
09 [be9ec3fa|b284885b] (075+051/137) Accurately ripped
10 [0dfe69da|72099959] (074+050/135) Accurately ripped
11 [83fe2d0f|5d13f452] (074+051/136) Accurately ripped
12 [7200a043|6f5dd2cf] (074+051/136) Accurately ripped
13 [b1fbd675|ad195f13] (074+051/136) Accurately ripped
Offsetted by -664:
01 [5992f168] (002/137) Accurately ripped
02 [7e81bb6d] (002/137) Accurately ripped
03 [0507f6e1] (002/137) Accurately ripped
04 [b7e610cf] (002/137) Accurately ripped
05 [acc492a2] (002/137) Accurately ripped
06 [348bc126] (002/137) Accurately ripped
07 [97518973] (002/136) Accurately ripped
08 [9ef2ee5e] (002/135) Accurately ripped
09 [35025a03] (002/137) Accurately ripped
10 [3b6432fe] (002/135) Accurately ripped
11 [d255dbb9] (002/136) Accurately ripped
12 [bf54a453] (002/136) Accurately ripped
13 [dde46c38] (002/136) Accurately ripped
Offsetted by -132:
01 [668911db] (003/137) Accurately ripped
02 [7674e1c1] (003/137) Accurately ripped
03 [66914bf8] (003/137) Accurately ripped
04 [fcddf553] (003/137) Accurately ripped
05 [0910b631] (003/137) Accurately ripped
06 [03a89903] (003/137) Accurately ripped
07 [25abf69a] (003/136) Accurately ripped
08 [07b3f06d] (003/135) Accurately ripped
09 [706e2446] (003/137) Accurately ripped
10 [e853cecb] (003/135) Accurately ripped
11 [9993147e] (003/136) Accurately ripped
12 [3399fea0] (003/136) Accurately ripped
13 [048337fa] (003/136) Accurately ripped
Offsetted by -12:
01 [702fd2b5] (002/137) Accurately ripped
02 [1442eca2] (002/137) Accurately ripped
03 [da8a3030] (002/137) Accurately ripped
04 [0834ae62] (002/137) Accurately ripped
05 [04448510] (002/137) Accurately ripped
06 [89cd9aab] (002/137) Accurately ripped
07 [245c58b6] (002/136) Accurately ripped
08 [83b1b171] (002/135) Accurately ripped
09 [c47877b0] (002/137) Accurately ripped
10 [9457c487] (002/135) Accurately ripped
11 [497be076] (002/136) Accurately ripped
12 [748d4f46] (002/136) Accurately ripped
13 [2410dbf9] (002/136) Accurately ripped
Offsetted by 540:
01 [3093e6f4] (002/137) Accurately ripped
02 [b87ce2aa] (002/137) Accurately ripped
03 [908c061e] (002/137) Accurately ripped
04 [4b941470] (002/137) Accurately ripped
05 [f2f678bc] (002/137) Accurately ripped
06 [0bd883e9] (002/137) Accurately ripped
07 [8ecdef5c] (002/136) Accurately ripped
08 [e12673b6] (002/135) Accurately ripped
09 [f450067c] (002/137) Accurately ripped
10 [f1a97422] (002/135) Accurately ripped
11 [6bf3fd48] (002/136) Accurately ripped
12 [cea3840d] (002/136) Accurately ripped
13 [234e713d] (002/136) Accurately ripped
Offsetted by -670:
01 [2b7ffcef] (000/137) No match (V2 was not tested)
02 [ff1d6e72] (000/137) No match (V2 was not tested)
03 [2173a3dd] (000/137) No match (V2 was not tested)
04 [f8b0ebff] (000/137) No match (V2 was not tested)
05 [e0b3893a] (000/137) No match (V2 was not tested)
06 [2e185317] (000/137) No match (V2 was not tested)
07 [b6de87ca] (000/136) No match (V2 was not tested)
08 [0467c983] (000/135) No match (V2 was not tested)
09 [095b55eb] (000/137) No match (V2 was not tested)
10 [b840d2d1] (000/135) No match (V2 was not tested)
11 [2c623229] (000/136) No match (V2 was not tested)
12 [ab397e1d] (000/136) No match (V2 was not tested)
13 [1a1e375a] (000/136) No match (V2 was not tested)

Track Peak [ CRC32 ] [W/O NULL] [ LOG ]
– 100,0 [BAB08099] [06065AFF] CRC32
01 99,7 [EA29161D] [8F6EB347]
02 100,0 [D27B661B] [765DD124]
03 100,0 [1DD5D8B9] [34C2C701]
04 100,0 [4CAF5EF3] [7FDBA505]
05 100,0 [FB2ADA5F] [09503255]
06 100,0 [48D7C1D7] [E05D0F49]
07 100,0 [070F7F37] [CE5CC36C]
08 100,0 [D5BB0098] [32FF38DC]
09 100,0 [5A350FCE] [0D720A95]
10 100,0 [3289CC6A] [566DF65F]
11 100,0 [2F294951] [06396AC7]
12 100,0 [287E57E9] [41850A0A]
13 94,9 [ED7223F3] [C78277C9]


Queen - Queen Rock Montreal (2007) [2CD + 2DVD + Blu-ray]

Tracklist CD2:

01. Under Pressure - 3:50
02. Keep Yourself Alive - 3:29
03. Drum And Tympani Solo - 3:00
04. Guitar Solo - 5:11
05. Flash - 2:11
06. The Hero - 1:51
07. Crazy Little Thing Called Love - 4:16
08. Jailhouse Rock - 2:33
09. Bohemian Rhapsody - 5:29
10. Tie Your Mother Down - 3:53
11. Another One Bites The Dust - 4:01
12. Sheer Heart Attack - 3:54
13. We Will Rock You - 2:09
14. We Are The Champions - 3:28
15. God Save The Queen - 1:28

Exact Audio Copy V1.0 beta 3 from 29. August 2011

EAC extraction logfile from 3. October 2014, 10:20

Queen / Queen Rock Montreal CD2 (2CD, 5099950404728)

Used drive : ATAPI iHAS124 B Adapter: 1 ID: 0

Read mode : Secure
Utilize accurate stream : Yes
Defeat audio cache : Yes
Make use of C2 pointers : No

Read offset correction : 6
Overread into Lead-In and Lead-Out : No
Fill up missing offset samples with silence : Yes
Delete leading and trailing silent blocks : No
Null samples used in CRC calculations : Yes
Used interface : Installed external ASPI interface

Used output format : User Defined Encoder
Selected bitrate : 128 kBit/s
Quality : High
Add ID3 tag : Yes
Command line compressor : C:\Program Files (x86)\Exact Audio Copy\Flac\flac.exe
Additional command line options : -V -8 -T "Date=%year%" -T "Genre=%genre%" %source%


TOC of the extracted CD

Track | Start | Length | Start sector | End sector
––––––––––––––––––––––––––––-
1 | 0:01.00 | 3:50.09 | 75 | 17333
2 | 3:51.09 | 3:29.22 | 17334 | 33030
3 | 7:20.31 | 3:00.05 | 33031 | 46535
4 | 10:20.36 | 5:11.14 | 46536 | 69874
5 | 15:31.50 | 2:11.11 | 69875 | 79710
6 | 17:42.61 | 1:51.33 | 79711 | 88068
7 | 19:34.19 | 4:15.45 | 88069 | 107238
8 | 23:49.64 | 2:32.45 | 107239 | 118683
9 | 26:22.34 | 5:28.70 | 118684 | 143353
10 | 31:51.29 | 3:52.70 | 143354 | 160823
11 | 35:44.24 | 4:00.45 | 160824 | 178868
12 | 39:44.69 | 3:53.52 | 178869 | 196395
13 | 43:38.46 | 2:09.25 | 196396 | 206095
14 | 45:47.71 | 3:27.43 | 206096 | 221663
15 | 49:15.39 | 1:27.38 | 221664 | 228226


Range status and errors

Selected range

Filename G:\CD\Queen - Queen Rock Montreal CD2.wav

Peak level 100.0 %
Extraction speed 5.6 X
Range quality 100.0 %
Test CRC C5FB7C6C
Copy CRC C5FB7C6C
Copy OK

No errors occurred


AccurateRip summary

Track 1 accurately ripped (confidence 33) [51F12B18] (AR v2)
Track 2 accurately ripped (confidence 33) [03756428] (AR v2)
Track 3 accurately ripped (confidence 33) [DE5D9AEF] (AR v2)
Track 4 accurately ripped (confidence 33) [AAC8F2C3] (AR v2)
Track 5 accurately ripped (confidence 33) [E2ACF43D] (AR v2)
Track 6 accurately ripped (confidence 33) [5B0E9E9E] (AR v2)
Track 7 accurately ripped (confidence 33) [87B52585] (AR v2)
Track 8 accurately ripped (confidence 33) [A2C431D0] (AR v2)
Track 9 accurately ripped (confidence 33) [4430D878] (AR v2)
Track 10 accurately ripped (confidence 33) [AE4D902A] (AR v2)
Track 11 accurately ripped (confidence 33) [45783C61] (AR v2)
Track 12 accurately ripped (confidence 33) [D11BA578] (AR v2)
Track 13 accurately ripped (confidence 33) [DD4957DB] (AR v2)
Track 14 accurately ripped (confidence 33) [7500C5CB] (AR v2)
Track 15 accurately ripped (confidence 33) [E58D2A79] (AR v2)

All tracks accurately ripped

End of status report

–– CUETools DB Plugin V2.1.3

[CTDB TOCID: SPqm3YmcWaHaI0gEx3Qm9wofnEs-] found, Submit result: discs with pregaps not supported in this protocol version
[9c202289] (83/83) Differs in 0 samples @
You can use CUETools to repair this rip.


==== Log checksum 6347BE209E49893B861DFD6EC30EE583BE4E01E0DDBC791815B1594E69D67042 ====


[CUETools log; Date: 31.12.2015 19:10:01; Version: 2.1.4]
Pregap length 00:01:00.
[CTDB TOCID: SPqm3YmcWaHaI0gEx3Qm9wofnEs-] found.
Track | CTDB Status
1 | (49/50) Accurately ripped
2 | (49/50) Accurately ripped
3 | (49/50) Accurately ripped
4 | (49/50) Accurately ripped
5 | (50/50) Accurately ripped
6 | (50/50) Accurately ripped
7 | (49/50) Accurately ripped
8 | (50/50) Accurately ripped
9 | (49/50) Accurately ripped
10 | (50/50) Accurately ripped
11 | (50/50) Accurately ripped
12 | (50/50) Accurately ripped
13 | (49/50) Accurately ripped
14 | (50/50) Accurately ripped
15 | (50/50) Accurately ripped
[AccurateRip ID: 001cee30-01475dd0-c80be20f] found.
Track [ CRC | V2 ] Status
01 [0fab6ebe|51f12b18] (078+048/137) Accurately ripped
02 [3090b5ad|03756428] (078+048/137) Accurately ripped
03 [c4039429|de5d9aef] (075+048/134) Accurately ripped
04 [f6142d67|aac8f2c3] (077+048/136) Accurately ripped
05 [53d4340f|e2acf43d] (077+048/136) Accurately ripped
06 [45d3ac55|5b0e9e9e] (077+048/136) Accurately ripped
07 [67fcd7d1|87b52585] (077+048/136) Accurately ripped
08 [d88533c3|a2c431d0] (077+048/136) Accurately ripped
09 [79147e57|4430d878] (078+048/137) Accurately ripped
10 [adf76540|ae4d902a] (078+048/137) Accurately ripped
11 [22f72ed5|45783c61] (078+048/137) Accurately ripped
12 [12d7515b|d11ba578] (077+048/136) Accurately ripped
13 [978343d0|dd4957db] (078+048/137) Accurately ripped
14 [18f79aef|7500c5cb] (078+048/137) Accurately ripped
15 [8052c118|e58d2a79] (076+048/135) Accurately ripped
Offsetted by -664:
01 [cbea1f68] (002/137) Accurately ripped
02 [bbd21ecf] (002/137) Accurately ripped
03 [93c21f00] (002/134) Accurately ripped
04 [11ca26d4] (002/136) Accurately ripped
05 [3b9ba1ac] (002/136) Accurately ripped
06 [dc0d8b33] (002/136) Accurately ripped
07 [04031c23] (002/136) Accurately ripped
08 [92f9eaed] (002/136) Accurately ripped
09 [751e83b0] (002/137) Accurately ripped
10 [2688f581] (002/137) Accurately ripped
11 [c70a61e2] (002/137) Accurately ripped
12 [97036e0a] (002/136) Accurately ripped
13 [fdae2df7] (002/137) Accurately ripped
14 [8f9552d7] (002/137) Accurately ripped
15 [41764de0] (002/135) Accurately ripped
Offsetted by -132:
01 [7390ce11] (003/137) Accurately ripped
02 [4016a7bb] (003/137) Accurately ripped
03 [bf88a7f9] (003/134) Accurately ripped
04 [7a79ccec] (003/136) Accurately ripped
05 [cca77bf7] (003/136) Accurately ripped
06 [b3532dbf] (003/136) Accurately ripped
07 [42e94031] (003/136) Accurately ripped
08 [874274db] (003/136) Accurately ripped
09 [937cf8e8] (003/137) Accurately ripped
10 [cf2ea7c3] (003/137) Accurately ripped
11 [a0954ccb] (003/137) Accurately ripped
12 [6ebd3835] (003/136) Accurately ripped
13 [a395ad9e] (003/137) Accurately ripped
14 [8b809a1e] (003/137) Accurately ripped
15 [04b26a9b] (003/135) Accurately ripped
Offsetted by -12:
01 [40aa34a2] (002/137) Accurately ripped
02 [0d9b22db] (002/137) Accurately ripped
03 [4b22bf19] (002/134) Accurately ripped
04 [707892e0] (002/136) Accurately ripped
05 [eb240508] (002/136) Accurately ripped
06 [736daa41] (002/136) Accurately ripped
07 [3bf09180] (002/136) Accurately ripped
08 [b9764ef2] (002/136) Accurately ripped
09 [43453170] (002/137) Accurately ripped
10 [faf911dd] (002/137) Accurately ripped
11 [6a8624bf] (002/137) Accurately ripped
12 [f6e701f7] (002/136) Accurately ripped
13 [d93d7c0e] (002/137) Accurately ripped
14 [8570421a] (002/137) Accurately ripped
15 [47b51799] (002/135) Accurately ripped
Offsetted by 540:
01 [40caa8be] (002/137) Accurately ripped
02 [31b31412] (002/137) Accurately ripped
03 [bb87931f] (002/134) Accurately ripped
04 [5f1f275f] (002/136) Accurately ripped
05 [2464cb24] (002/136) Accurately ripped
06 [c32aed4e] (002/136) Accurately ripped
07 [6be5c3c3] (002/136) Accurately ripped
08 [b7e1c839] (002/136) Accurately ripped
09 [d43ea739] (002/137) Accurately ripped
10 [017cb6a0] (002/137) Accurately ripped
11 [1d0363c4] (002/137) Accurately ripped
12 [ffa13145] (002/136) Accurately ripped
13 [e7d93d39] (002/137) Accurately ripped
14 [1f42ec4d] (002/137) Accurately ripped
15 [b90c3b99] (002/135) Accurately ripped
Offsetted by -670:
01 [fc8374d5] (000/137) No match (V2 was not tested)
02 [0378b9ff] (000/137) No match (V2 was not tested)
03 [966a764d] (000/134) No match (V2 was not tested)
04 [c1e96a30] (000/136) No match (V2 was not tested)
05 [1f6217f8] (000/136) No match (V2 was not tested)
06 [29288de5] (000/136) No match (V2 was not tested)
07 [a8883e59] (000/136) No match (V2 was not tested)
08 [0407f7ed] (000/136) No match (V2 was not tested)
09 [814ee77d] (000/137) No match (V2 was not tested)
10 [ec849416] (000/137) No match (V2 was not tested)
11 [1082b79a] (000/137) No match (V2 was not tested)
12 [91fdf2f3] (000/136) No match (V2 was not tested)
13 [02729e35] (000/137) No match (V2 was not tested)
14 [6f352303] (000/137) No match (V2 was not tested)
15 [cbcdbd3d] (000/135) No match (V2 was not tested)

Track Peak [ CRC32 ] [W/O NULL] [ LOG ]
– 100,0 [C5FB7C6C] [6D87E134] CRC32
01 100,0 [BBB0BEA8] [6AAB3762]
02 100,0 [05B572A4] [4F2E966C]
03 100,0 [2DD2CDBD] [18AF54D1]
04 99,8 [883FF7AE] [1E60D73C]
05 100,0 [74F44B23] [91E472B0]
06 100,0 [96051BFE] [D3BD6A13]
07 100,0 [90B57D6D] [F069622A]
08 100,0 [4CC4336B] [54384710]
09 100,0 [266F4273] [7481465E]
10 100,0 [64828DA0] [A22D163C]
11 100,0 [87365C5E] [DFAF9771]
12 100,0 [3115042D] [380D23B4]
13 100,0 [7B27392D] [92588435]
14 100,0 [26DA8B81] [35F6D8F4]
15 98,6 [FC08798A] [0C281107]


Tracklist BD:

01. Intro
02. We Will Rock You (fast)
03. Let Me Entertain You
04. Play The Game
05. Somebody To Love
06. Killer Queen
07. I'm In Love With My Car
08. Get Down Make Love
09. Save Me
10. Now I'm Here
11. Dragon Attack
12. Now I'm Here (reprise)
13. Love Of My Life
14. Under Pressure
15. Keep Yourself Alive
16. Drum & Timpani Solo
17. Guitar Solo
18. Crazy Little Thing Called Love
19. Jailhouse Rock
20. Bohemian Rhapsody
21. Tie Your Mother Down
22. Another One Bites The Dust
23. Sheer Heart Attack
24. We Will Rock You
25. We Are The Champions
26. God Save The Queen

Disc Title: Queen 2007 - Queen Rock Montreal BD
Disc Size: 24 132 477 761 bytes
Protection: AACS
BD-Java: No
BDInfo: 0.7.3.3

Notes:

BDINFO HOME:
Cinema Squid
http://www.cinemasquid.com/blu-ray/tools/bdinfo

INCLUDES FORUMS REPORT FOR:
AVS Forum Blu-ray Audio and Video Specifications Thread
http://www.avsforum.com/avs-vb/showthread.php?t=1155731

WARNING: Report is incomplete because: Scan has not been run.

********************
PLAYLIST: 00001.MPLS
********************

<–- BEGIN FORUMS PASTE –->
                                                                                                                Total   Video                                             
Title                                                           Codec   Length  Movie Size      Disc Size       Bitrate Bitrate Main Audio Track                          Secondary Audio Track
-----                                                           ------  ------- --------------  --------------  ------- ------- ------------------                        ---------------------
00001.MPLS                                                      VC-1    1:35:10 0               24 132 477 761  0,00    0,00    LPCM 2.0 2304Kbps (48kHz/24-bit)          DTS-HD Hi-Res 5.1 3018Kbps (96kHz/24-bit)


DISC INFO:

Disc Title:     Queen 2007 - Queen Rock Montreal BD
Disc Size:      24 132 477 761 bytes
Protection:     AACS
BD-Java:        No
BDInfo:         0.7.3.3

PLAYLIST REPORT:

Name:                   00001.MPLS
Length:                 1:35:10.705 (h:m:s.ms)
Size:                   0 bytes
Total Bitrate:          0,00 Mbps

VIDEO:

Codec                   Bitrate             Description     
-----                   -------             -----------     
VC-1 Video              0 kbps              1080p / 23,976 fps / 16:9 / Advanced Profile 3

AUDIO:

Codec                           Language        Bitrate         Description     
-----                           --------        -------         -----------     
LPCM Audio                      English         2304 kbps       2.0 / 48 kHz / 2304 kbps / 24-bit
DTS-HD High-Res Audio           English         3018 kbps       5.1 / 96 kHz / 3018 kbps / 24-bit (DTS Core: 5.1 / 48 kHz / 1509 kbps / 24-bit)
Dolby Digital Audio             English         192 kbps        2.0 / 48 kHz / 192 kbps / DN -4dB

SUBTITLES:

Codec                           Language        Bitrate         Description     
-----                           --------        -------         -----------     
Presentation Graphics           German          0,000 kbps                      
Presentation Graphics           English         0,000 kbps                      
Presentation Graphics           Spanish         0,000 kbps                      
Presentation Graphics           French          0,000 kbps                      
Presentation Graphics           Italian         0,000 kbps                      
Presentation Graphics           Dutch           0,000 kbps                      
Presentation Graphics           Portuguese      0,000 kbps                      

FILES:

Name            Time In         Length          Size            Total Bitrate   
----            -------         ------          ----            -------------   
00000.M2TS      0:00:00.000     1:35:10.705     0               0               

CHAPTERS:

Number          Time In         Length          Avg Video Rate  Max 1-Sec Rate  Max 1-Sec Time  Max 5-Sec Rate  Max 5-Sec Time  Max 10Sec Rate  Max 10Sec Time  Avg Frame Size  Max Frame Size  Max Frame Time  
------          -------         ------          --------------  --------------  --------------  --------------  --------------  --------------  --------------  --------------  --------------  --------------  
1               0:00:00.000     0:02:04.791     0 kbps          0 kbps          00:00:00.000    0 kbps          00:00:00.000    0 kbps          00:00:00.000    0 bytes         0 bytes         00:00:00.000    
2               0:02:04.791     0:03:06.311     0 kbps          0 kbps          00:00:00.000    0 kbps          00:00:00.000    0 kbps          00:00:00.000    0 bytes         0 bytes         00:00:00.000    
3               0:05:11.102     0:03:03.349     0 kbps          0 kbps          00:00:00.000    0 kbps          00:00:00.000    0 kbps          00:00:00.000    0 bytes         0 bytes         00:00:00.000    
4               0:08:14.452     0:03:54.525     0 kbps          0 kbps          00:00:00.000    0 kbps          00:00:00.000    0 kbps          00:00:00.000    0 bytes         0 bytes         00:00:00.000    
5               0:12:08.978     0:07:38.958     0 kbps          0 kbps          00:00:00.000    0 kbps          00:00:00.000    0 kbps          00:00:00.000    0 bytes         0 bytes         00:00:00.000    
6               0:19:47.936     0:02:00.787     0 kbps          0 kbps          00:00:00.000    0 kbps          00:00:00.000    0 kbps          00:00:00.000    0 bytes         0 bytes         00:00:00.000    
7               0:21:48.724     0:02:03.039     0 kbps          0 kbps          00:00:00.000    0 kbps          00:00:00.000    0 kbps          00:00:00.000    0 bytes         0 bytes         00:00:00.000    
8               0:23:51.763     0:04:53.668     0 kbps          0 kbps          00:00:00.000    0 kbps          00:00:00.000    0 kbps          00:00:00.000    0 bytes         0 bytes         00:00:00.000    
9               0:28:45.432     0:04:07.705     0 kbps          0 kbps          00:00:00.000    0 kbps          00:00:00.000    0 kbps          00:00:00.000    0 bytes         0 bytes         00:00:00.000    
10              0:32:53.137     0:05:30.288     0 kbps          0 kbps          00:00:00.000    0 kbps          00:00:00.000    0 kbps          00:00:00.000    0 bytes         0 bytes         00:00:00.000    
11              0:38:23.426     0:03:15.153     0 kbps          0 kbps          00:00:00.000    0 kbps          00:00:00.000    0 kbps          00:00:00.000    0 bytes         0 bytes         00:00:00.000    
12              0:41:38.579     0:02:00.995     0 kbps          0 kbps          00:00:00.000    0 kbps          00:00:00.000    0 kbps          00:00:00.000    0 bytes         0 bytes         00:00:00.000    
13              0:43:39.575     0:03:45.099     0 kbps          0 kbps          00:00:00.000    0 kbps          00:00:00.000    0 kbps          00:00:00.000    0 bytes         0 bytes         00:00:00.000    
14              0:47:24.675     0:03:42.305     0 kbps          0 kbps          00:00:00.000    0 kbps          00:00:00.000    0 kbps          00:00:00.000    0 bytes         0 bytes         00:00:00.000    
15              0:51:06.980     0:03:33.254     0 kbps          0 kbps          00:00:00.000    0 kbps          00:00:00.000    0 kbps          00:00:00.000    0 bytes         0 bytes         00:00:00.000    
16              0:54:40.235     0:03:02.098     0 kbps          0 kbps          00:00:00.000    0 kbps          00:00:00.000    0 kbps          00:00:00.000    0 bytes         0 bytes         00:00:00.000    
17              0:57:42.333     0:05:24.032     0 kbps          0 kbps          00:00:00.000    0 kbps          00:00:00.000    0 kbps          00:00:00.000    0 bytes         0 bytes         00:00:00.000    
18              1:03:06.365     0:04:17.090     0 kbps          0 kbps          00:00:00.000    0 kbps          00:00:00.000    0 kbps          00:00:00.000    0 bytes         0 bytes         00:00:00.000    
19              1:07:23.456     0:02:46.457     0 kbps          0 kbps          00:00:00.000    0 kbps          00:00:00.000    0 kbps          00:00:00.000    0 bytes         0 bytes         00:00:00.000    
20              1:10:09.914     0:05:30.997     0 kbps          0 kbps          00:00:00.000    0 kbps          00:00:00.000    0 kbps          00:00:00.000    0 bytes         0 bytes         00:00:00.000    
21              1:15:40.911     0:03:48.937     0 kbps          0 kbps          00:00:00.000    0 kbps          00:00:00.000    0 kbps          00:00:00.000    0 bytes         0 bytes         00:00:00.000    
22              1:19:29.848     0:04:02.158     0 kbps          0 kbps          00:00:00.000    0 kbps          00:00:00.000    0 kbps          00:00:00.000    0 bytes         0 bytes         00:00:00.000    
23              1:23:32.007     0:03:54.984     0 kbps          0 kbps          00:00:00.000    0 kbps          00:00:00.000    0 kbps          00:00:00.000    0 bytes         0 bytes         00:00:00.000    
24              1:27:26.991     0:02:11.131     0 kbps          0 kbps          00:00:00.000    0 kbps          00:00:00.000    0 kbps          00:00:00.000    0 bytes         0 bytes         00:00:00.000    
25              1:29:38.122     0:03:26.039     0 kbps          0 kbps          00:00:00.000    0 kbps          00:00:00.000    0 kbps          00:00:00.000    0 bytes         0 bytes         00:00:00.000    
26              1:33:04.161     0:02:06.543     0 kbps          0 kbps          00:00:00.000    0 kbps          00:00:00.000    0 kbps          00:00:00.000    0 bytes         0 bytes         00:00:00.000    

STREAM DIAGNOSTICS:

File            PID             Type            Codec           Language                Seconds                 Bitrate                 Bytes           Packets         
----            ---             ----            -----           --------                --------------          --------------          -------------   -----           
00000.M2TS      4113 (0x1011)   0xEA            VC-1                                    0                       0                       0               0               
00000.M2TS      4352 (0x1100)   0x80            LPCM            eng (English)           0                       0                       0               0               
00000.M2TS      4353 (0x1101)   0x85            DTS-HD HR       eng (English)           0                       0                       0               0               
00000.M2TS      4354 (0x1102)   0x81            AC3             eng (English)           0                       0                       0               0               
00000.M2TS      4608 (0x1200)   0x90            PGS             deu (German)            0                       0                       0               0               
00000.M2TS      4609 (0x1201)   0x90            PGS             eng (English)           0                       0                       0               0               
00000.M2TS      4610 (0x1202)   0x90            PGS             spa (Spanish)           0                       0                       0               0               
00000.M2TS      4611 (0x1203)   0x90            PGS             fra (French)            0                       0                       0               0               
00000.M2TS      4612 (0x1204)   0x90            PGS             ita (Italian)           0                       0                       0               0               
00000.M2TS      4613 (0x1205)   0x90            PGS             nld (Dutch)             0                       0                       0               0               
00000.M2TS      4614 (0x1206)   0x90            PGS             por (Portuguese)        0                       0                       0               0               

<–– END FORUMS PASTE ––>

QUICK SUMMARY:

Disc Title: Queen 2007 - Queen Rock Montreal BD
Disc Size: 24 132 477 761 bytes
Protection: AACS
BD-Java: No
Playlist: 00001.MPLS
Size: 0 bytes
Length: 1:35:10.705
Total Bitrate: 0,00 Mbps
Video: VC-1 Video / 0 kbps / 1080p / 23,976 fps / 16:9 / Advanced Profile 3
Audio: English / LPCM Audio / 2.0 / 48 kHz / 2304 kbps / 24-bit
Audio: English / DTS-HD High-Res Audio / 5.1 / 96 kHz / 3018 kbps / 24-bit (DTS Core: 5.1 / 48 kHz / 1509 kbps / 24-bit)
Audio: English / Dolby Digital Audio / 2.0 / 48 kHz / 192 kbps / DN -4dB
Subtitle: German / 0,000 kbps
Subtitle: English / 0,000 kbps
Subtitle: Spanish / 0,000 kbps
Subtitle: French / 0,000 kbps
Subtitle: Italian / 0,000 kbps
Subtitle: Dutch / 0,000 kbps
Subtitle: Portuguese / 0,000 kbps


********************
PLAYLIST: 00002.MPLS
********************

<–- BEGIN FORUMS PASTE –->
                                                                                                                Total   Video                                             
Title                                                           Codec   Length  Movie Size      Disc Size       Bitrate Bitrate Main Audio Track                          Secondary Audio Track
-----                                                           ------  ------- --------------  --------------  ------- ------- ------------------                        ---------------------
00002.MPLS                                                      MPEG-2  0:42:54 0               24 132 477 761  0,00    0,00    LPCM 2.0 2304Kbps (48kHz/24-bit)          DTS-HD Master 5.1 (48kHz/24-bit)


DISC INFO:

Disc Title:     Queen 2007 - Queen Rock Montreal BD
Disc Size:      24 132 477 761 bytes
Protection:     AACS
BD-Java:        No
BDInfo:         0.7.3.3

PLAYLIST REPORT:

Name:                   00002.MPLS
Length:                 0:42:54.572 (h:m:s.ms)
Size:                   0 bytes
Total Bitrate:          0,00 Mbps

VIDEO:

Codec                   Bitrate             Description     
-----                   -------             -----------     
MPEG-2 Video            0 kbps              480i / 29,970 fps / 4:3

AUDIO:

Codec                           Language        Bitrate         Description     
-----                           --------        -------         -----------     
LPCM Audio                      English         2304 kbps       2.0 / 48 kHz / 2304 kbps / 24-bit
DTS-HD Master Audio             English         0 kbps          5.1 / 48 kHz / 24-bit (DTS Core: 5.1 / 48 kHz / 1509 kbps / 24-bit)

SUBTITLES:

Codec                           Language        Bitrate         Description     
-----                           --------        -------         -----------     
Presentation Graphics           German          0,000 kbps                      
Presentation Graphics           English         0,000 kbps                      
Presentation Graphics           Spanish         0,000 kbps                      
Presentation Graphics           French          0,000 kbps                      
Presentation Graphics           Italian         0,000 kbps                      
Presentation Graphics           Dutch           0,000 kbps                      
Presentation Graphics           Portuguese      0,000 kbps                      

FILES:

Name            Time In         Length          Size            Total Bitrate   
----            -------         ------          ----            -------------   
00001.M2TS      0:00:00.000     0:25:11.510     0               0               
00002.M2TS      0:25:11.510     0:10:56.655     0               0               
00003.M2TS      0:36:08.166     0:06:46.406     0               0               

CHAPTERS:

Number          Time In         Length          Avg Video Rate  Max 1-Sec Rate  Max 1-Sec Time  Max 5-Sec Rate  Max 5-Sec Time  Max 10Sec Rate  Max 10Sec Time  Avg Frame Size  Max Frame Size  Max Frame Time  
------          -------         ------          --------------  --------------  --------------  --------------  --------------  --------------  --------------  --------------  --------------  --------------  
1               0:00:00.000     0:00:45.645     0 kbps          0 kbps          00:00:00.000    0 kbps          00:00:00.000    0 kbps          00:00:00.000    0 bytes         0 bytes         00:00:00.000    
2               0:00:45.645     0:02:04.624     0 kbps          0 kbps          00:00:00.000    0 kbps          00:00:00.000    0 kbps          00:00:00.000    0 bytes         0 bytes         00:00:00.000    
3               0:02:50.270     0:04:11.684     0 kbps          0 kbps          00:00:00.000    0 kbps          00:00:00.000    0 kbps          00:00:00.000    0 bytes         0 bytes         00:00:00.000    
4               0:07:01.954     0:00:42.742     0 kbps          0 kbps          00:00:00.000    0 kbps          00:00:00.000    0 kbps          00:00:00.000    0 bytes         0 bytes         00:00:00.000    
5               0:07:44.697     0:04:29.869     0 kbps          0 kbps          00:00:00.000    0 kbps          00:00:00.000    0 kbps          00:00:00.000    0 bytes         0 bytes         00:00:00.000    
6               0:12:14.567     0:03:56.369     0 kbps          0 kbps          00:00:00.000    0 kbps          00:00:00.000    0 kbps          00:00:00.000    0 bytes         0 bytes         00:00:00.000    
7               0:16:10.936     0:01:19.512     0 kbps          0 kbps          00:00:00.000    0 kbps          00:00:00.000    0 kbps          00:00:00.000    0 bytes         0 bytes         00:00:00.000    
8               0:17:30.449     0:03:45.191     0 kbps          0 kbps          00:00:00.000    0 kbps          00:00:00.000    0 kbps          00:00:00.000    0 bytes         0 bytes         00:00:00.000    
9               0:21:15.641     0:03:55.868     0 kbps          0 kbps          00:00:00.000    0 kbps          00:00:00.000    0 kbps          00:00:00.000    0 bytes         0 bytes         00:00:00.000    
10              0:25:11.510     0:10:56.656     0 kbps          0 kbps          00:00:00.000    0 kbps          00:00:00.000    0 kbps          00:00:00.000    0 bytes         0 bytes         00:00:00.000    
11              0:36:08.166     0:06:46.405     0 kbps          0 kbps          00:00:00.000    0 kbps          00:00:00.000    0 kbps          00:00:00.000    0 bytes         0 bytes         00:00:00.000    

STREAM DIAGNOSTICS:

File            PID             Type            Codec           Language                Seconds                 Bitrate                 Bytes           Packets         
----            ---             ----            -----           --------                --------------          --------------          -------------   -----           
00001.M2TS      4113 (0x1011)   0x02            MPEG-2                                  0                       0                       0               0               
00001.M2TS      4352 (0x1100)   0x80            LPCM            eng (English)           0                       0                       0               0               
00001.M2TS      4353 (0x1101)   0x86            DTS-HD MA       eng (English)           0                       0                       0               0               
00001.M2TS      4608 (0x1200)   0x90            PGS             deu (German)            0                       0                       0               0               
00001.M2TS      4609 (0x1201)   0x90            PGS             eng (English)           0                       0                       0               0               
00001.M2TS      4610 (0x1202)   0x90            PGS             spa (Spanish)           0                       0                       0               0               
00001.M2TS      4611 (0x1203)   0x90            PGS             fra (French)            0                       0                       0               0               
00001.M2TS      4612 (0x1204)   0x90            PGS             ita (Italian)           0                       0                       0               0               
00001.M2TS      4613 (0x1205)   0x90            PGS             nld (Dutch)             0                       0                       0               0               
00001.M2TS      4614 (0x1206)   0x90            PGS             por (Portuguese)        0                       0                       0               0               
00002.M2TS      4113 (0x1011)   0x02            MPEG-2                                  0                       0                       0               0               
00002.M2TS      4352 (0x1100)   0x80            LPCM            eng (English)           0                       0                       0               0               
00002.M2TS      4353 (0x1101)   0x80            LPCM            eng (English)           0                       0                       0               0               
00002.M2TS      4608 (0x1200)   0x90            PGS             deu (German)            0                       0                       0               0               
00002.M2TS      4609 (0x1201)   0x90            PGS             eng (English)           0                       0                       0               0               
00002.M2TS      4610 (0x1202)   0x90            PGS             spa (Spanish)           0                       0                       0               0               
00002.M2TS      4611 (0x1203)   0x90            PGS             fra (French)            0                       0                       0               0               
00002.M2TS      4612 (0x1204)   0x90            PGS             ita (Italian)           0                       0                       0               0               
00002.M2TS      4613 (0x1205)   0x90            PGS             nld (Dutch)             0                       0                       0               0               
00002.M2TS      4614 (0x1206)   0x90            PGS             por (Portuguese)        0                       0                       0               0               
00003.M2TS      4113 (0x1011)   0x02            MPEG-2                                  0                       0                       0               0               
00003.M2TS      4352 (0x1100)   0x81            AC3             eng (English)           0                       0                       0               0               
00003.M2TS      4353 (0x1101)   0x81            AC3             eng (English)           0                       0                       0               0               
00003.M2TS      4608 (0x1200)   0x90            PGS             deu (German)            0                       0                       0               0               
00003.M2TS      4609 (0x1201)   0x90            PGS             eng (English)           0                       0                       0               0               
00003.M2TS      4610 (0x1202)   0x90            PGS             spa (Spanish)           0                       0                       0               0               
00003.M2TS      4611 (0x1203)   0x90            PGS             fra (French)            0                       0                       0               0               
00003.M2TS      4612 (0x1204)   0x90            PGS             ita (Italian)           0                       0                       0               0               
00003.M2TS      4613 (0x1205)   0x90            PGS             nld (Dutch)             0                       0                       0               0               
00003.M2TS      4614 (0x1206)   0x90            PGS             por (Portuguese)        0                       0                       0               0               

<–– END FORUMS PASTE ––>

QUICK SUMMARY:

Disc Title: Queen 2007 - Queen Rock Montreal BD
Disc Size: 24 132 477 761 bytes
Protection: AACS
BD-Java: No
Playlist: 00002.MPLS
Size: 0 bytes
Length: 0:42:54.572
Total Bitrate: 0,00 Mbps
Video: MPEG-2 Video / 0 kbps / 480i / 29,970 fps / 4:3
Audio: English / LPCM Audio / 2.0 / 48 kHz / 2304 kbps / 24-bit
Audio: English / DTS-HD Master Audio / 5.1 / 48 kHz / 24-bit (DTS Core: 5.1 / 48 kHz / 1509 kbps / 24-bit)
Subtitle: German / 0,000 kbps
Subtitle: English / 0,000 kbps
Subtitle: Spanish / 0,000 kbps
Subtitle: French / 0,000 kbps
Subtitle: Italian / 0,000 kbps
Subtitle: Dutch / 0,000 kbps
Subtitle: Portuguese / 0,000 kbps


********************
PLAYLIST: 00003.MPLS
********************

<–- BEGIN FORUMS PASTE –->
                                                                                                                Total   Video                                             
Title                                                           Codec   Length  Movie Size      Disc Size       Bitrate Bitrate Main Audio Track                          Secondary Audio Track
-----                                                           ------  ------- --------------  --------------  ------- ------- ------------------                        ---------------------
00003.MPLS                                                      MPEG-2  0:25:11 0               24 132 477 761  0,00    0,00    LPCM 2.0 2304Kbps (48kHz/24-bit)          DTS-HD Master 5.1 (48kHz/24-bit)


DISC INFO:

Disc Title:     Queen 2007 - Queen Rock Montreal BD
Disc Size:      24 132 477 761 bytes
Protection:     AACS
BD-Java:        No
BDInfo:         0.7.3.3

PLAYLIST REPORT:

Name:                   00003.MPLS
Length:                 0:25:11.510 (h:m:s.ms)
Size:                   0 bytes
Total Bitrate:          0,00 Mbps

VIDEO:

Codec                   Bitrate             Description     
-----                   -------             -----------     
MPEG-2 Video            0 kbps              480i / 29,970 fps / 4:3

AUDIO:

Codec                           Language        Bitrate         Description     
-----                           --------        -------         -----------     
LPCM Audio                      English         2304 kbps       2.0 / 48 kHz / 2304 kbps / 24-bit
DTS-HD Master Audio             English         0 kbps          5.1 / 48 kHz / 24-bit (DTS Core: 5.1 / 48 kHz / 1509 kbps / 24-bit)

SUBTITLES:

Codec                           Language        Bitrate         Description     
-----                           --------        -------         -----------     
Presentation Graphics           German          0,000 kbps                      
Presentation Graphics           English         0,000 kbps                      
Presentation Graphics           Spanish         0,000 kbps                      
Presentation Graphics           French          0,000 kbps                      
Presentation Graphics           Italian         0,000 kbps                      
Presentation Graphics           Dutch           0,000 kbps                      
Presentation Graphics           Portuguese      0,000 kbps                      

FILES:

Name            Time In         Length          Size            Total Bitrate   
----            -------         ------          ----            -------------   
00001.M2TS      0:00:00.000     0:25:11.510     0               0               

CHAPTERS:

Number          Time In         Length          Avg Video Rate  Max 1-Sec Rate  Max 1-Sec Time  Max 5-Sec Rate  Max 5-Sec Time  Max 10Sec Rate  Max 10Sec Time  Avg Frame Size  Max Frame Size  Max Frame Time  
------          -------         ------          --------------  --------------  --------------  --------------  --------------  --------------  --------------  --------------  --------------  --------------  
1               0:00:00.000     0:00:45.645     0 kbps          0 kbps          00:00:00.000    0 kbps          00:00:00.000    0 kbps          00:00:00.000    0 bytes         0 bytes         00:00:00.000    
2               0:00:45.645     0:02:04.624     0 kbps          0 kbps          00:00:00.000    0 kbps          00:00:00.000    0 kbps          00:00:00.000    0 bytes         0 bytes         00:00:00.000    
3               0:02:50.270     0:04:11.684     0 kbps          0 kbps          00:00:00.000    0 kbps          00:00:00.000    0 kbps          00:00:00.000    0 bytes         0 bytes         00:00:00.000    
4               0:07:01.954     0:00:42.742     0 kbps          0 kbps          00:00:00.000    0 kbps          00:00:00.000    0 kbps          00:00:00.000    0 bytes         0 bytes         00:00:00.000    
5               0:07:44.697     0:04:29.869     0 kbps          0 kbps          00:00:00.000    0 kbps          00:00:00.000    0 kbps          00:00:00.000    0 bytes         0 bytes         00:00:00.000    
6               0:12:14.567     0:03:56.369     0 kbps          0 kbps          00:00:00.000    0 kbps          00:00:00.000    0 kbps          00:00:00.000    0 bytes         0 bytes         00:00:00.000    
7               0:16:10.936     0:01:19.512     0 kbps          0 kbps          00:00:00.000    0 kbps          00:00:00.000    0 kbps          00:00:00.000    0 bytes         0 bytes         00:00:00.000    
8               0:17:30.449     0:03:45.191     0 kbps          0 kbps          00:00:00.000    0 kbps          00:00:00.000    0 kbps          00:00:00.000    0 bytes         0 bytes         00:00:00.000    
9               0:21:15.641     0:03:55.868     0 kbps          0 kbps          00:00:00.000    0 kbps          00:00:00.000    0 kbps          00:00:00.000    0 bytes         0 bytes         00:00:00.000    

STREAM DIAGNOSTICS:

File            PID             Type            Codec           Language                Seconds                 Bitrate                 Bytes           Packets         
----            ---             ----            -----           --------                --------------          --------------          -------------   -----           
00001.M2TS      4113 (0x1011)   0x02            MPEG-2                                  0                       0                       0               0               
00001.M2TS      4352 (0x1100)   0x80            LPCM            eng (English)           0                       0                       0               0               
00001.M2TS      4353 (0x1101)   0x86            DTS-HD MA       eng (English)           0                       0                       0               0               
00001.M2TS      4608 (0x1200)   0x90            PGS             deu (German)            0                       0                       0               0               
00001.M2TS      4609 (0x1201)   0x90            PGS             eng (English)           0                       0                       0               0               
00001.M2TS      4610 (0x1202)   0x90            PGS             spa (Spanish)           0                       0                       0               0               
00001.M2TS      4611 (0x1203)   0x90            PGS             fra (French)            0                       0                       0               0               
00001.M2TS      4612 (0x1204)   0x90            PGS             ita (Italian)           0                       0                       0               0               
00001.M2TS      4613 (0x1205)   0x90            PGS             nld (Dutch)             0                       0                       0               0               
00001.M2TS      4614 (0x1206)   0x90            PGS             por (Portuguese)        0                       0                       0               0               

<–– END FORUMS PASTE ––>

QUICK SUMMARY:

Disc Title: Queen 2007 - Queen Rock Montreal BD
Disc Size: 24 132 477 761 bytes
Protection: AACS
BD-Java: No
Playlist: 00003.MPLS
Size: 0 bytes
Length: 0:25:11.510
Total Bitrate: 0,00 Mbps
Video: MPEG-2 Video / 0 kbps / 480i / 29,970 fps / 4:3
Audio: English / LPCM Audio / 2.0 / 48 kHz / 2304 kbps / 24-bit
Audio: English / DTS-HD Master Audio / 5.1 / 48 kHz / 24-bit (DTS Core: 5.1 / 48 kHz / 1509 kbps / 24-bit)
Subtitle: German / 0,000 kbps
Subtitle: English / 0,000 kbps
Subtitle: Spanish / 0,000 kbps
Subtitle: French / 0,000 kbps
Subtitle: Italian / 0,000 kbps
Subtitle: Dutch / 0,000 kbps
Subtitle: Portuguese / 0,000 kbps


********************
PLAYLIST: 00004.MPLS
********************

<–- BEGIN FORUMS PASTE –->
                                                                                                                Total   Video                                             
Title                                                           Codec   Length  Movie Size      Disc Size       Bitrate Bitrate Main Audio Track                          Secondary Audio Track
-----                                                           ------  ------- --------------  --------------  ------- ------- ------------------                        ---------------------
00004.MPLS                                                      MPEG-2  0:10:56 0               24 132 477 761  0,00    0,00    LPCM 2.0 2304Kbps (48kHz/24-bit)       			  		  		  	 			   			     		 	    	 			   		   	  		  		  			  	  	 			   		   	  		      		   				    LPCM 2.0 2304Kbps (48kHz/24-bit)


DISC INFO:

Disc Title:     Queen 2007 - Queen Rock Montreal BD
Disc Size:      24 132 477 761 bytes
Protection:     AACS
BD-Java:        No
BDInfo:         0.7.3.3

PLAYLIST REPORT:

Name:                   00004.MPLS
Length:                 0:10:56.655 (h:m:s.ms)
Size:                   0 bytes
Total Bitrate:          0,00 Mbps

VIDEO:

Codec                   Bitrate             Description     
-----                   -------             -----------     
MPEG-2 Video            0 kbps              480i / 29,970 fps / 4:3

AUDIO:

Codec                           Language        Bitrate         Description     
-----                           --------        -------         -----------     
LPCM Audio                      English         2304 kbps       2.0 / 48 kHz / 2304 kbps / 24-bit
LPCM Audio                      English         2304 kbps       2.0 / 48 kHz / 2304 kbps / 24-bit

SUBTITLES:

Codec                           Language        Bitrate         Description     
-----                           --------        -------         -----------     
Presentation Graphics           German          0,000 kbps                      
Presentation Graphics           English         0,000 kbps                      
Presentation Graphics           Spanish         0,000 kbps                      
Presentation Graphics           French          0,000 kbps                      
Presentation Graphics           Italian         0,000 kbps                      
Presentation Graphics           Dutch           0,000 kbps                      
Presentation Graphics           Portuguese      0,000 kbps                      

FILES:

Name            Time In         Length          Size            Total Bitrate   
----            -------         ------          ----            -------------   
00002.M2TS      0:00:00.000     0:10:56.655     0               0               

CHAPTERS:

Number          Time In         Length          Avg Video Rate  Max 1-Sec Rate  Max 1-Sec Time  Max 5-Sec Rate  Max 5-Sec Time  Max 10Sec Rate  Max 10Sec Time  Avg Frame Size  Max Frame Size  Max Frame Time  
------          -------         ------          --------------  --------------  --------------  --------------  --------------  --------------  --------------  --------------  --------------  --------------  
1               0:00:00.000     0:10:56.655     0 kbps          0 kbps          00:00:00.000    0 kbps          00:00:00.000    0 kbps          00:00:00.000    0 bytes         0 bytes         00:00:00.000    

STREAM DIAGNOSTICS:

File            PID             Type            Codec           Language                Seconds                 Bitrate                 Bytes           Packets         
----            ---             ----            -----           --------                --------------          --------------          -------------   -----           
00002.M2TS      4113 (0x1011)   0x02            MPEG-2                                  0                       0                       0               0               
00002.M2TS      4352 (0x1100)   0x80            LPCM            eng (English)           0                       0                       0               0               
00002.M2TS      4353 (0x1101)   0x80            LPCM            eng (English)           0                       0                       0               0               
00002.M2TS      4608 (0x1200)   0x90            PGS             deu (German)            0                       0                       0               0               
00002.M2TS      4609 (0x1201)   0x90            PGS             eng (English)           0                       0                       0               0               
00002.M2TS      4610 (0x1202)   0x90            PGS             spa (Spanish)           0                       0                       0               0               
00002.M2TS      4611 (0x1203)   0x90            PGS             fra (French)            0                       0                       0               0               
00002.M2TS      4612 (0x1204)   0x90            PGS             ita (Italian)           0                       0                       0               0               
00002.M2TS      4613 (0x1205)   0x90            PGS             nld (Dutch)             0                       0                       0               0               
00002.M2TS      4614 (0x1206)   0x90            PGS             por (Portuguese)        0                       0                       0               0               

<–– END FORUMS PASTE ––>

QUICK SUMMARY:

Disc Title: Queen 2007 - Queen Rock Montreal BD
Disc Size: 24 132 477 761 bytes
Protection: AACS
BD-Java: No
Playlist: 00004.MPLS
Size: 0 bytes
Length: 0:10:56.655
Total Bitrate: 0,00 Mbps
Video: MPEG-2 Video / 0 kbps / 480i / 29,970 fps / 4:3
Audio: English / LPCM Audio / 2.0 / 48 kHz / 2304 kbps / 24-bit
Audio: English / LPCM Audio / 2.0 / 48 kHz / 2304 kbps / 24-bit
Subtitle: German / 0,000 kbps
Subtitle: English / 0,000 kbps
Subtitle: Spanish / 0,000 kbps
Subtitle: French / 0,000 kbps
Subtitle: Italian / 0,000 kbps
Subtitle: Dutch / 0,000 kbps
Subtitle: Portuguese / 0,000 kbps


********************
PLAYLIST: 00005.MPLS
********************

<–- BEGIN FORUMS PASTE –->
                                                                                                                Total   Video                                             
Title                                                           Codec   Length  Movie Size      Disc Size       Bitrate Bitrate Main Audio Track                          Secondary Audio Track
-----                                                           ------  ------- --------------  --------------  ------- ------- ------------------                        ---------------------
00005.MPLS                                                      MPEG-2  0:06:46 0               24 132 477 761  0,00    0,00    DD AC3 2.0 192Kbps                        


DISC INFO:

Disc Title:     Queen 2007 - Queen Rock Montreal BD
Disc Size:      24 132 477 761 bytes
Protection:     AACS
BD-Java:        No
BDInfo:         0.7.3.3

PLAYLIST REPORT:

Name:                   00005.MPLS
Length:                 0:06:46.406 (h:m:s.ms)
Size:                   0 bytes
Total Bitrate:          0,00 Mbps

VIDEO:

Codec                   Bitrate             Description     
-----                   -------             -----------     
MPEG-2 Video            0 kbps              480i / 29,970 fps / 4:3

AUDIO:

Codec                           Language        Bitrate         Description     
-----                           --------        -------         -----------     
Dolby Digital Audio             English         192 kbps        2.0 / 48 kHz / 192 kbps / DN -4dB
Dolby Digital Audio             English         192 kbps        2.0 / 48 kHz / 192 kbps / DN -4dB

SUBTITLES:

Codec                           Language        Bitrate         Description     
-----                           --------        -------         -----------     
Presentation Graphics           German          0,000 kbps                      
Presentation Graphics           English         0,000 kbps                      
Presentation Graphics           Spanish         0,000 kbps                      
Presentation Graphics           French          0,000 kbps                      
Presentation Graphics           Italian         0,000 kbps                      
Presentation Graphics           Dutch           0,000 kbps                      
Presentation Graphics           Portuguese      0,000 kbps                      

FILES:

Name            Time In         Length          Size            Total Bitrate   
----            -------         ------          ----            -------------   
00003.M2TS      0:00:00.000     0:06:46.406     0               0               

CHAPTERS:

Number          Time In         Length          Avg Video Rate  Max 1-Sec Rate  Max 1-Sec Time  Max 5-Sec Rate  Max 5-Sec Time  Max 10Sec Rate  Max 10Sec Time  Avg Frame Size  Max Frame Size  Max Frame Time  
------          -------         ------          --------------  --------------  --------------  --------------  --------------  --------------  --------------  --------------  --------------  --------------  
1               0:00:00.000     0:06:46.406     0 kbps          0 kbps          00:00:00.000    0 kbps          00:00:00.000    0 kbps          00:00:00.000    0 bytes         0 bytes         00:00:00.000    

STREAM DIAGNOSTICS:

File            PID             Type            Codec           Language                Seconds                 Bitrate                 Bytes           Packets         
----            ---             ----            -----           --------                --------------          --------------          -------------   -----           
00003.M2TS      4113 (0x1011)   0x02            MPEG-2                                  0                       0                       0               0               
00003.M2TS      4352 (0x1100)   0x81            AC3             eng (English)           0                       0                       0               0               
00003.M2TS      4353 (0x1101)   0x81            AC3             eng (English)           0                       0                       0               0               
00003.M2TS      4608 (0x1200)   0x90            PGS             deu (German)            0                       0                       0               0               
00003.M2TS      4609 (0x1201)   0x90            PGS             eng (English)           0                       0                       0               0               
00003.M2TS      4610 (0x1202)   0x90            PGS             spa (Spanish)           0                       0                       0               0               
00003.M2TS      4611 (0x1203)   0x90            PGS             fra (French)            0                       0                       0               0               
00003.M2TS      4612 (0x1204)   0x90            PGS             ita (Italian)           0                       0                       0               0               
00003.M2TS      4613 (0x1205)   0x90            PGS             nld (Dutch)             0                       0                       0               0               
00003.M2TS      4614 (0x1206)   0x90            PGS             por (Portuguese)        0                       0                       0               0               

<–– END FORUMS PASTE ––>

QUICK SUMMARY:

Disc Title: Queen 2007 - Queen Rock Montreal BD
Disc Size: 24 132 477 761 bytes
Protection: AACS
BD-Java: No
Playlist: 00005.MPLS
Size: 0 bytes
Length: 0:06:46.406
Total Bitrate: 0,00 Mbps
Video: MPEG-2 Video / 0 kbps / 480i / 29,970 fps / 4:3
Audio: English / Dolby Digital Audio / 2.0 / 48 kHz / 192 kbps / DN -4dB
Audio: English / Dolby Digital Audio / 2.0 / 48 kHz / 192 kbps / DN -4dB
Subtitle: German / 0,000 kbps
Subtitle: English / 0,000 kbps
Subtitle: Spanish / 0,000 kbps
Subtitle: French / 0,000 kbps
Subtitle: Italian / 0,000 kbps
Subtitle: Dutch / 0,000 kbps
Subtitle: Portuguese / 0,000 kbps


********************
PLAYLIST: 00006.MPLS
********************

<–- BEGIN FORUMS PASTE –->
                                                                                                                Total   Video                                             
Title                                                           Codec   Length  Movie Size      Disc Size       Bitrate Bitrate Main Audio Track                          Secondary Audio Track
-----                                                           ------  ------- --------------  --------------  ------- ------- ------------------                        ---------------------
00006.MPLS                                                      VC-1    0:00:39 0               24 132 477 761  0,00    0,00                                              


DISC INFO:

Disc Title:     Queen 2007 - Queen Rock Montreal BD
Disc Size:      24 132 477 761 bytes
Protection:     AACS
BD-Java:        No
BDInfo:         0.7.3.3

PLAYLIST REPORT:

Name:                   00006.MPLS
Length:                 0:00:39.456 (h:m:s.ms)
Size:                   0 bytes
Total Bitrate:          0,00 Mbps

VIDEO:

Codec                   Bitrate             Description     
-----                   -------             -----------     
VC-1 Video              0 kbps              1080p / 23,976 fps / 16:9 / Advanced Profile 3

FILES:

Name            Time In         Length          Size            Total Bitrate   
----            -------         ------          ----            -------------   
00004.M2TS      0:00:00.000     0:00:39.456     0               0               

CHAPTERS:

Number          Time In         Length          Avg Video Rate  Max 1-Sec Rate  Max 1-Sec Time  Max 5-Sec Rate  Max 5-Sec Time  Max 10Sec Rate  Max 10Sec Time  Avg Frame Size  Max Frame Size  Max Frame Time  
------          -------         ------          --------------  --------------  --------------  --------------  --------------  --------------  --------------  --------------  --------------  --------------  
1               0:00:00.000     0:00:39.456     0 kbps          0 kbps          00:00:00.000    0 kbps          00:00:00.000    0 kbps          00:00:00.000    0 bytes         0 bytes         00:00:00.000    

STREAM DIAGNOSTICS:

File            PID             Type            Codec           Language                Seconds                 Bitrate                 Bytes           Packets         
----            ---             ----            -----           --------                --------------          --------------          -------------   -----           
00004.M2TS      4113 (0x1011)   0xEA            VC-1                                    0                       0                       0               0               

<–– END FORUMS PASTE ––>

QUICK SUMMARY:

Disc Title: Queen 2007 - Queen Rock Montreal BD
Disc Size: 24 132 477 761 bytes
Protection: AACS
BD-Java: No
Playlist: 00006.MPLS
Size: 0 bytes
Length: 0:00:39.456
Total Bitrate: 0,00 Mbps
Video: VC-1 Video / 0 kbps / 1080p / 23,976 fps / 16:9 / Advanced Profile 3



Tracklist DVD1:

01. Intro
02. We Will Rock You (fast)
03. Let Me Entertain You
04. Play The Game
05. Somebody To Love
06. Killer Queen
07. I'm In Love With My Car
08. Get Down Make Love
09. Save Me
10. Now I'm Here
11. Dragon Attack
12. Now I'm Here (reprise)
13. Love Of My Life
14. Under Pressure
15. Keep Yourself Alive
16. Drum & Timpani Solo
17. Guitar Solo
18. Crazy Little Thing Called Love
19. Jailhouse Rock
20. Bohemian Rhapsody
21. Tie Your Mother Down
22. Another One Bites The Dust
23. Sheer Heart Attack
24. We Will Rock You
25. We Are The Champions
26. God Save The Queen

Title: Queen 2007 - Queen Rock Montreal DVD1
Size: 6.54 Gb ( 6 860 064,00 KBytes ) - DVD-9
Enabled regions: 1, 2, 3, 4, 5, 6, 7, 8

VTS_01 :
Play Length: 00:00:00
Video: PAL 4:3 (720x576) VBR

VTS_02 :
Play Length: 01:35:22
Video: PAL 16:9 (720x576) VBR, Auto Letterboxed
Audio:
English (LinearPCM, 2 ch)
English (DTS, 6 ch)
English (Dolby AC3, 2 ch)
Subtitles:
Deutsch
English
Espanol
Francais
Italiano
Nederlands
Portugues
English
English


Tracklist DVD2:

1. «Bohemian Rhapsody»
2. «Radio Ga Ga»
3. «Hammer to Fall»
4. «Crazy Little Thing Called Love»
5. «We Will Rock You»
6. «We Are the Champions»
7. «Is This the World We Created …?»

Title: Queen 2007 - Queen Rock Montreal DVD2
Size: 2.87 Gb ( 3 010 552,00 KBytes ) - DVD-5
Enabled regions: 1, 2, 3, 4, 5, 6, 7, 8

VTS_01 :
Play Length: 00:00:00
Video: PAL 4:3 (720x576) VBR

VTS_02 :
Play Length: 00:25:11
Video: PAL 4:3 (720x576) VBR
Audio:
English (LinearPCM, 2 ch)
English (DTS, 6 ch)

VTS_03 :
Play Length: 00:10:56
Video: PAL 4:3 (720x576) VBR
Audio:
English (LinearPCM, 2 ch)
Subtitles:
Deutsch
English
Espanol
Francais
Italiano
Nederlands
Portugues

VTS_04 :
Play Length: 00:06:47
Video: PAL 4:3 (720x576) VBR
Audio:
English (Dolby AC3, 2 ch)
Subtitles:
Deutsch
English
Espanol
Francais
Italiano
Nederlands
Portugues


Queen - Queen Rock Montreal (2007) [2CD + 2DVD + Blu-ray]

Queen - Queen Rock Montreal (2007) [2CD + 2DVD + Blu-ray]

Queen - Queen Rock Montreal (2007) [2CD + 2DVD + Blu-ray]

Queen - Queen Rock Montreal (2007) [2CD + 2DVD + Blu-ray]

Queen - Queen Rock Montreal (2007) [2CD + 2DVD + Blu-ray]

Queen - Queen Rock Montreal (2007) [2CD + 2DVD + Blu-ray]

All thanks go to the original releasers

Queen in my Blog

Download Queen - Queen Rock Montreal (2007):