Subcategories

Victor Julien Laferrière & Yuya Okamoto - Queen Elisabeth Competition: Cello 2017 (Live) (2017)

Posted By: SERTiL
Victor Julien Laferrière & Yuya Okamoto - Queen Elisabeth Competition: Cello 2017 (Live) (2017)

Victor Julien Laferrière & Yuya Okamoto - Queen Elisabeth Competition: Cello 2017 (Live)
EAC Rip | FLAC (tracks)+cue, log, m3u, d. booklet | 296:53 min | 1.16 GB
Label: Queen Elisabeth Competition – QEC2017 | Tracks: 39 | Rls.date: 2017
Classical

Live performances of the laureates of the 2017 first Queen Elisabeth Cello Competition. This album contains orchestral performances of the final with the Brussels Philharmonic, conducted by Stéphane Denève, as well as Haydn’s Cello concertos of the semi-final session with the Orchestre Royal de Chambre de Wallonie conducted by Frank Braley. Chamber music performances during the first round and the semi-final session can also be heard, solo or with piano / cello accompaniment. The 2017 Queen Elisabeth Cello Competition was won by the French cellist Victor Julien-Laferrière, the Japanese Yuya Okamoto was ranked 2nd and the Columbian Santiago Cañón-Valencia 3rd; they are followed in the ranking by Aurélien Pascal (France, 4th Prize), Ivan Karizna (Belarus, 5th Prize) and Brannon Cho (USA, 6th Prize). The 6 other laureates, as well as 3 semi-finalists, are completing the program of this album.

TRACKLIST

CD1
1. Victor Julien-Laferrière, Brussels Philharmonic & Stéphane Denève – Dmitry Shostakovich: Cello Concerto No. 1 In E-Flat Major, Op. 107: I. Allegretto (Live) (06:22)
2. Victor Julien-Laferrière, Brussels Philharmonic & Stéphane Denève – Dmitry Shostakovich: Cello Concerto No. 1 In E-Flat Major, Op. 107: II. Moderato (Live) (12:29)
3. Victor Julien-Laferrière, Brussels Philharmonic & Stéphane Denève – Dmitry Shostakovich: Cello Concerto No. 1 In E-Flat Major, Op. 107: III. Cadenza (Live) (06:28)
4. Victor Julien-Laferrière, Brussels Philharmonic & Stéphane Denève – Dmitry Shostakovich: Cello Concerto No. 1 In E-Flat Major, Op. 107: IV. Allegro Con Moto (Live) (05:14)
5. Yuya Okamoto, Brussels Philharmonic & Stéphane Denève – Antonin Dvorak: Cello Concerto No. 2 In B Minor, Op. 104, B. 191: I. Allegro (Live) (15:33)
6. Yuya Okamoto, Brussels Philharmonic & Stéphane Denève – Antonin Dvorak: Cello Concerto No. 2 In B Minor, Op. 104, B. 191: II. Adagio Ma Non Troppo (Live) (11:33)
7. Yuya Okamoto, Brussels Philharmonic & Stéphane Denève – Antonin Dvorak: Cello Concerto No. 2 In B Minor, Op. 104, B. 191: III. Allegro Moderato (Live) (12:56)

CD2
1. Victor Julien-Laferrière & Théo Fouchenneret – Johannes Brahms: Cello Sonata No. 2 In F Major, Op. 99: I. Allegro Vivace (Live) (06:43)
2. Victor Julien-Laferrière & Théo Fouchenneret – Johannes Brahms: Cello Sonata No. 2 In F Major, Op. 99: II. Adagio Affettuoso (Live) (06:33)
3. Victor Julien-Laferrière & Théo Fouchenneret – Johannes Brahms: Cello Sonata No. 2 In F Major, Op. 99: III. Allegro Passionato (Live) (06:22)
4. Victor Julien-Laferrière & Théo Fouchenneret – Johannes Brahms: Cello Sonata No. 2 In F Major, Op. 99: IV. Allegro (Live) (04:46)
5. Brannon Cho & Victor Santiago – Sergey Prokofiev: Cello Sonata In C Major, Op. 119: I. Andante Grave (Live) (11:30)
6. Brannon Cho & Victor Santiago – Sergey Prokofiev: Cello Sonata In C Major, Op. 119: II. Moderato (Live) (05:13)
7. Brannon Cho & Victor Santiago – Sergey Prokofiev: Cello Sonata In C Major, Op. 119: III. Allegro Ma Non Troppo (Live) (08:50)
8. Aurélien Pascal & Anna Naretto – Francis Poulenc: Cello Sonata, FP 143: I. Allegro. Tempo Di Marcia (Live) (06:06)
9. Aurélien Pascal & Anna Naretto – Francis Poulenc: Cello Sonata, FP 143: II. Cavatine (Live) (06:48)
10. Aurélien Pascal & Anna Naretto – Francis Poulenc: Cello Sonata, FP 143: III. Ballabile (Live) (03:28)
11. Aurélien Pascal & Anna Naretto – Francis Poulenc: Cello Sonata, FP 143: IV. Finale (Live) (06:48)

CD3
1. Santiago Cañón-Valencia, Orchestre Royal de Chambre de Wallonie & Frank Braley – Joseph Haydn: Cello Concerto No. 1 In C Major, Hob. VIIb1 I. Moderato (Live) (09:47)
2. Santiago Cañón-Valencia, Orchestre Royal de Chambre de Wallonie & Frank Braley – Joseph Haydn: Cello Concerto No. 1 In C Major, Hob. VIIb1 II. Adagio (Live) (08:12)
3. Santiago Cañón-Valencia, Orchestre Royal de Chambre de Wallonie & Frank Braley – Joseph Haydn: Cello Concerto No. 1 In C Major, Hob. VIIb1 III. Allegro Molto (Live) (06:39)
4. Ivan Karizna & Lidy Blijdorp – Luigi Boccherini: Cello Sonata In C Major, G. 17: I. Allegro (Live) (04:05)
5. Ivan Karizna & Lidy Blijdorp – Luigi Boccherini: Cello Sonata In C Major, G. 17: II. Largo Assai (Live) (02:59)
6. Ivan Karizna & Lidy Blijdorp – Luigi Boccherini: Cello Sonata In C Major, G. 17: III. Rondo Allegro (Live) (03:46)
7. Ivan Karizna & Tadashi Sato – Robert Schumann: Fünf Stücke Im Volkston, Op. 102: Mit Humor (Live) (02:52)
8. Ivan Karizna & Tadashi Sato – Robert Schumann: Fünf Stücke Im Volkston, Op. 102: Langsam (Live) (03:39)
9. Maciej Kułakowski & Keiko Tamura – Annelies Van Parys: Chacun(E) Sa Chaconne (Live) (06:37)
10. Ivan Karizna – Eugène Ysaÿe: Sonata For Solo Cello In C Minor, Op. 28: Grave (Live) (04:59)
11. Seungmin Kang, Stéphane Denève & Brussels Philharmonic – Toshio Hosokawa: Sublimation (Live) (13:36)

CD4

1. Bruno Philippe – Johann Sebastian Bach: Cello Suite No. 4 In E-Flat Major, BWV 1010: Prelude (Live) (03:56)
2. Shizuka Mitsui, Frank Braley & Orchestre Royal de Chambre de Wallonie – Joseph Haydn: Cello Concerto No. 2 In D Major, Hob. VIIb:2: I. Allegro Moderato (Live) (15:07)
3. Shizuka Mitsui, Frank Braley & Orchestre Royal de Chambre de Wallonie – Joseph Haydn: Cello Concerto No. 2 In D Major, Hob. VIIb:2: II. Adagio (Live) (05:13)
4. Shizuka Mitsui, Frank Braley & Orchestre Royal de Chambre de Wallonie – Joseph Haydn: Cello Concerto No. 2 In D Major, Hob. VIIb:2: III. Allegro (Live) (05:26)
5. Astrig Siranossian & Julien Gernay – Antonin Dvorak: Rondo In G Minor, Op. 94 (Live) (07:22)
6. Julia Hagen & Naoko Sonoda – Robert Schumann: Fünf Stücke Im Volkston, Op. 102: Stark Und Markiert (Live) (03:11)
7. Sihao He & Victor Santiago – Max Bruch: Kol Nidrei, Op. 47 (Live) (11:07)
8. JeongHyoun Lee & Dana Protopopescu – Franz Schubert: Cello Sonata In A Minor, D. 821 "Arpeggione": Allegro Moderato (Live) (08:55)
9. Yan Levionnois & Anna Naretto – Gabriel Fauré: Papillon, Op. 77 (Live) (02:50)
10. Bruno Philippe & Tanguy De Williencourt – David Popper: Elfentanz, Op. 39 (Live) (03:06)

PERSONNEL
Victor Julien Laferriere, cello
Yuya Okamoto, cello
Santiago Canon-Valencia, cello
Aurelien Pascal, cello
Ivan Karizna, cello
Brannon Cho, cello

Exact Audio Copy V1.3 from 2. September 2016

EAC extraction logfile from 9. October 2017, 21:19

Victor Julien Laferrière, Yuya Okamoto, Santiago Cañón-Valencia, Aurélien Pascal, Ivan Karizna And Brannon Cho / Queen Elisabeth Competition - Cello 2017

Used drive : HL-DT-STDVDRAM GP57EB40 Adapter: 1 ID: 0

Read mode : Secure
Utilize accurate stream : Yes
Defeat audio cache : Yes
Make use of C2 pointers : No

Read offset correction : 6
Overread into Lead-In and Lead-Out : No
Fill up missing offset samples with silence : Yes
Delete leading and trailing silent blocks : No
Null samples used in CRC calculations : Yes
Used interface : Native Win32 interface for Win NT & 2000
Gap handling : Appended to previous track

Used output format : User Defined Encoder
Selected bitrate : 1024 kBit/s
Quality : High
Add ID3 tag : No
Command line compressor : E:\Program Files (x86)\Exact Audio Copy\Flac\flac.exe
Additional command line options : -8 -e -p -V -T "ARTIST=%artist%" -T "TITLE=%title%" -T "ALBUM=%albumtitle%" -T "DATE=%year%" -T "TRACKNUMBER=%tracknr%" -T "GENRE=%genre%" -T "PERFORMER=%albuminterpret%" -T "COMPOSER=%composer%" %haslyrics%–tag-from-file=LYRICS="%lyricsfile%"%haslyrics% -T "ALBUMARTIST=%albumartist%" -T "DISCNUMBER=%cdnumber%" -T "TOTALDISCS=%totalcds%" -T "TOTALTRACKS=%numtracks%" -T "COMMENT=%comment%" %source% -o %dest%


TOC of the extracted CD

Track | Start | Length | Start sector | End sector
––––––––––––––––––––––––––––-
1 | 0:00.00 | 6:22.01 | 0 | 28650
2 | 6:22.01 | 12:29.36 | 28651 | 84861
3 | 18:51.37 | 6:28.09 | 84862 | 113970
4 | 25:19.46 | 5:14.70 | 113971 | 137590
5 | 30:34.41 | 15:33.31 | 137591 | 207596
6 | 46:07.72 | 11:33.34 | 207597 | 259605
7 | 57:41.31 | 12:56.63 | 259606 | 317868


Track 1

Filename R:\Music\Queen Elisabeth Competition - Cello 2017 [FLAC] - 2017\CD1\01 - Victor Julien Laferrière; Brussels Philharmonic; Stéphane Denève - Dmitry Shostakovich- Cello Concerto No. 1 In E-Flat Major, Op. 107- I. Allegretto (Live).wav

Pre-gap length 0:00:02.00

Peak level 92.7 %
Extraction speed 3.2 X
Track quality 100.0 %
Test CRC A2B4CF39
Copy CRC A2B4CF39
Accurately ripped (confidence 1) [6764F5B1] (AR v2)
Copy OK

Track 2

Filename R:\Music\Queen Elisabeth Competition - Cello 2017 [FLAC] - 2017\CD1\02 - Victor Julien Laferrière; Brussels Philharmonic; Stéphane Denève - Dmitry Shostakovich- Cello Concerto No. 1 In E-Flat Major, Op. 107- II. Moderato (Live).wav

Peak level 98.9 %
Extraction speed 3.9 X
Track quality 100.0 %
Test CRC F019CC15
Copy CRC F019CC15
Accurately ripped (confidence 1) [8625BE12] (AR v2)
Copy OK

Track 3

Filename R:\Music\Queen Elisabeth Competition - Cello 2017 [FLAC] - 2017\CD1\03 - Victor Julien Laferrière; Brussels Philharmonic; Stéphane Denève - Dmitry Shostakovich- Cello Concerto No. 1 In E-Flat Major, Op. 107- III. Cadenza (Live).wav

Peak level 45.5 %
Extraction speed 3.8 X
Track quality 99.9 %
Test CRC 2C189228
Copy CRC 2C189228
Accurately ripped (confidence 1) [B460CF4C] (AR v2)
Copy OK

Track 4

Filename R:\Music\Queen Elisabeth Competition - Cello 2017 [FLAC] - 2017\CD1\04 - Victor Julien Laferrière; Brussels Philharmonic; Stéphane Denève - Dmitry Shostakovich- Cello Concerto No. 1 In E-Flat Major, Op. 107- IV. Allegro Con Moto (Live).wav

Peak level 99.0 %
Extraction speed 4.5 X
Track quality 100.0 %
Test CRC C95BCBD9
Copy CRC C95BCBD9
Accurately ripped (confidence 1) [07425A15] (AR v2)
Copy OK

Track 5

Filename R:\Music\Queen Elisabeth Competition - Cello 2017 [FLAC] - 2017\CD1\05 - Yuya Okamoto; Brussels Philharmonic; Stéphane Denève - Antonin Dvorak- Cello Concerto No. 2 In B Minor, Op. 104, B. 191- I. Allegro (Live).wav

Peak level 86.3 %
Extraction speed 5.2 X
Track quality 100.0 %
Test CRC A1AB54A2
Copy CRC A1AB54A2
Accurately ripped (confidence 1) [E7A64007] (AR v2)
Copy OK

Track 6

Filename R:\Music\Queen Elisabeth Competition - Cello 2017 [FLAC] - 2017\CD1\06 - Yuya Okamoto; Brussels Philharmonic; Stéphane Denève - Antonin Dvorak- Cello Concerto No. 2 In B Minor, Op. 104, B. 191- II. Adagio Ma Non Troppo (Live).wav

Peak level 86.1 %
Extraction speed 5.7 X
Track quality 100.0 %
Test CRC 2336E16B
Copy CRC 2336E16B
Accurately ripped (confidence 1) [F7B89CEC] (AR v2)
Copy OK

Track 7

Filename R:\Music\Queen Elisabeth Competition - Cello 2017 [FLAC] - 2017\CD1\07 - Yuya Okamoto; Brussels Philharmonic; Stéphane Denève - Antonin Dvorak- Cello Concerto No. 2 In B Minor, Op. 104, B. 191- III. Allegro Moderato (Live).wav

Peak level 87.6 %
Extraction speed 6.0 X
Track quality 100.0 %
Test CRC 76F8FF96
Copy CRC 76F8FF96
Accurately ripped (confidence 1) [6A25280A] (AR v2)
Copy OK


All tracks accurately ripped

No errors occurred

End of status report

–– CUETools DB Plugin V2.1.6

[CTDB TOCID: NjdpxTL9kCeBVXiG.WlOYX31gqs-] found
Submit result: NjdpxTL9kCeBVXiG.WlOYX31gqs- has been confirmed
Track | CTDB Status
1 | (3/3) Accurately ripped
2 | (3/3) Accurately ripped
3 | (3/3) Accurately ripped
4 | (3/3) Accurately ripped
5 | (3/3) Accurately ripped
6 | (3/3) Accurately ripped
7 | (3/3) Accurately ripped


==== Log checksum 0087463DFF7B6175321FD7C5D30D557C2F5F7766F3846F4DB120662C377898FA ====

Exact Audio Copy V1.3 from 2. September 2016

EAC extraction logfile from 9. October 2017, 21:09

Victor Julien Laferrière, Yuya Okamoto, Santiago Cañón-Valencia, Aurélien Pascal, Ivan Karizna And Brannon Cho / Queen Elisabeth Competition - Cello 2017

Used drive : TSSTcorpCDDVDW SH-S223L Adapter: 1 ID: 1

Read mode : Secure
Utilize accurate stream : Yes
Defeat audio cache : Yes
Make use of C2 pointers : No

Read offset correction : 6
Overread into Lead-In and Lead-Out : No
Fill up missing offset samples with silence : Yes
Delete leading and trailing silent blocks : No
Null samples used in CRC calculations : Yes
Used interface : Native Win32 interface for Win NT & 2000
Gap handling : Appended to previous track

Used output format : User Defined Encoder
Selected bitrate : 1024 kBit/s
Quality : High
Add ID3 tag : No
Command line compressor : E:\Program Files (x86)\Exact Audio Copy\Flac\flac.exe
Additional command line options : -8 -e -p -V -T "ARTIST=%artist%" -T "TITLE=%title%" -T "ALBUM=%albumtitle%" -T "DATE=%year%" -T "TRACKNUMBER=%tracknr%" -T "GENRE=%genre%" -T "PERFORMER=%albuminterpret%" -T "COMPOSER=%composer%" %haslyrics%–tag-from-file=LYRICS="%lyricsfile%"%haslyrics% -T "ALBUMARTIST=%albumartist%" -T "DISCNUMBER=%cdnumber%" -T "TOTALDISCS=%totalcds%" -T "TOTALTRACKS=%numtracks%" -T "COMMENT=%comment%" %source% -o %dest%


TOC of the extracted CD

Track | Start | Length | Start sector | End sector
––––––––––––––––––––––––––––-
1 | 0:00.00 | 6:42.40 | 0 | 30189
2 | 6:42.40 | 6:33.01 | 30190 | 59665
3 | 13:15.41 | 6:22.02 | 59666 | 88317
4 | 19:37.43 | 4:45.53 | 88318 | 109745
5 | 24:23.21 | 11:30.30 | 109746 | 161525
6 | 35:53.51 | 5:13.01 | 161526 | 185001
7 | 41:06.52 | 8:49.58 | 185002 | 224734
8 | 49:56.35 | 6:05.67 | 224735 | 252176
9 | 56:02.27 | 6:48.09 | 252177 | 282785
10 | 62:50.36 | 3:27.58 | 282786 | 298368
11 | 66:18.19 | 6:47.71 | 298369 | 328964


Track 1

Filename R:\Music\Queen Elisabeth Competition - Cello 2017 [FLAC] - 2017\CD2\01 - Victor Julien Laferrière And Théo Fouchenneret - Johannes Brahms- Cello Sonata No. 2 In F Major, Op. 99- I. Allegro Vivace (Live).wav

Pre-gap length 0:00:02.00

Peak level 98.9 %
Extraction speed 5.1 X
Track quality 100.0 %
Test CRC 575E11EF
Copy CRC 575E11EF
Accurately ripped (confidence 1) [5EA28B6C] (AR v2)
Copy OK

Track 2

Filename R:\Music\Queen Elisabeth Competition - Cello 2017 [FLAC] - 2017\CD2\02 - Victor Julien Laferrière And Théo Fouchenneret - Johannes Brahms- Cello Sonata No. 2 In F Major, Op. 99- II. Adagio Affettuoso (Live).wav

Peak level 98.8 %
Extraction speed 5.8 X
Track quality 100.0 %
Test CRC EC14F094
Copy CRC EC14F094
Accurately ripped (confidence 1) [A33D0449] (AR v2)
Copy OK

Track 3

Filename R:\Music\Queen Elisabeth Competition - Cello 2017 [FLAC] - 2017\CD2\03 - Victor Julien Laferrière And Théo Fouchenneret - Johannes Brahms- Cello Sonata No. 2 In F Major, Op. 99- III. Allegro Passionato (Live).wav

Peak level 91.6 %
Extraction speed 6.3 X
Track quality 100.0 %
Test CRC 66F6B9C5
Copy CRC 66F6B9C5
Accurately ripped (confidence 1) [B61C5E65] (AR v2)
Copy OK

Track 4

Filename R:\Music\Queen Elisabeth Competition - Cello 2017 [FLAC] - 2017\CD2\04 - Victor Julien Laferrière And Théo Fouchenneret - Johannes Brahms- Cello Sonata No. 2 In F Major, Op. 99- IV. Allegro (Live).wav

Peak level 79.7 %
Extraction speed 6.6 X
Track quality 100.0 %
Test CRC E3609198
Copy CRC E3609198
Accurately ripped (confidence 1) [75BF0A59] (AR v2)
Copy OK

Track 5

Filename R:\Music\Queen Elisabeth Competition - Cello 2017 [FLAC] - 2017\CD2\05 - Brannon Cho And Victor Santiago Asuncion - Sergey Prokofiev- Cello Sonata In C Major, Op. 119- I. Andante Grave (Live).wav

Peak level 89.4 %
Extraction speed 7.7 X
Track quality 100.0 %
Test CRC 7A558381
Copy CRC 7A558381
Accurately ripped (confidence 1) [199423F3] (AR v2)
Copy OK

Track 6

Filename R:\Music\Queen Elisabeth Competition - Cello 2017 [FLAC] - 2017\CD2\06 - Brannon Cho And Victor Santiago Asuncion - Sergey Prokofiev- Cello Sonata In C Major, Op. 119- II. Moderato (Live).wav

Peak level 82.2 %
Extraction speed 7.7 X
Track quality 100.0 %
Test CRC FA8391C7
Copy CRC FA8391C7
Accurately ripped (confidence 1) [82A0A020] (AR v2)
Copy OK

Track 7

Filename R:\Music\Queen Elisabeth Competition - Cello 2017 [FLAC] - 2017\CD2\07 - Brannon Cho And Victor Santiago Asuncion - Sergey Prokofiev- Cello Sonata In C Major, Op. 119- III. Allegro Ma Non Troppo (Live).wav

Peak level 98.9 %
Extraction speed 8.5 X
Track quality 100.0 %
Test CRC 333F92AC
Copy CRC 333F92AC
Accurately ripped (confidence 1) [B117C4DB] (AR v2)
Copy OK

Track 8

Filename R:\Music\Queen Elisabeth Competition - Cello 2017 [FLAC] - 2017\CD2\08 - Aurélien Pascal And Anna Naretto - Francis Poulenc- Cello Sonata, FP 143- I. Allegro. Tempo Di Marcia (Live).wav

Peak level 81.9 %
Extraction speed 8.5 X
Track quality 100.0 %
Test CRC CD16C80D
Copy CRC CD16C80D
Accurately ripped (confidence 1) [56669280] (AR v2)
Copy OK

Track 9

Filename R:\Music\Queen Elisabeth Competition - Cello 2017 [FLAC] - 2017\CD2\09 - Aurélien Pascal And Anna Naretto - Francis Poulenc- Cello Sonata, FP 143- II. Cavatine (Live).wav

Peak level 61.2 %
Extraction speed 8.9 X
Track quality 100.0 %
Test CRC DB708103
Copy CRC DB708103
Accurately ripped (confidence 1) [97B5602B] (AR v2)
Copy OK

Track 10

Filename R:\Music\Queen Elisabeth Competition - Cello 2017 [FLAC] - 2017\CD2\10 - Aurélien Pascal And Anna Naretto - Francis Poulenc- Cello Sonata, FP 143- III. Ballabile (Live).wav

Peak level 91.5 %
Extraction speed 8.1 X
Track quality 100.0 %
Test CRC 131E9B53
Copy CRC 131E9B53
Accurately ripped (confidence 1) [C6E73F31] (AR v2)
Copy OK

Track 11

Filename R:\Music\Queen Elisabeth Competition - Cello 2017 [FLAC] - 2017\CD2\11 - Aurélien Pascal And Anna Naretto - Francis Poulenc- Cello Sonata, FP 143- IV. Finale (Live).wav

Peak level 98.9 %
Extraction speed 8.8 X
Track quality 100.0 %
Test CRC 7DCE0184
Copy CRC 7DCE0184
Accurately ripped (confidence 1) [F8C663D6] (AR v2)
Copy OK


All tracks accurately ripped

No errors occurred

End of status report

–– CUETools DB Plugin V2.1.6

[CTDB TOCID: s6R_rvRiC6CXHflgLisyOtQj_9U-] found
Submit result: s6R_rvRiC6CXHflgLisyOtQj_9U- has been confirmed
Track | CTDB Status
1 | (3/3) Accurately ripped
2 | (3/3) Accurately ripped
3 | (3/3) Accurately ripped
4 | (3/3) Accurately ripped
5 | (3/3) Accurately ripped
6 | (3/3) Accurately ripped
7 | (3/3) Accurately ripped
8 | (3/3) Accurately ripped
9 | (3/3) Accurately ripped
10 | (3/3) Accurately ripped
11 | (3/3) Accurately ripped


==== Log checksum 04E4FE4FFC7CF87F0773D818FD6886C2CCD3725D0737A8DAE9C3D2FF22504893 ====

Exact Audio Copy V1.3 from 2. September 2016

EAC extraction logfile from 10. October 2017, 19:01

Victor Julien Laferrière, Yuya Okamoto, Santiago Cañón-Valencia, Aurélien Pascal, Ivan Karizna And Brannon Cho / Queen Elisabeth Competition - Cello 2017

Used drive : TSSTcorpCDDVDW SH-S223L Adapter: 1 ID: 1

Read mode : Secure
Utilize accurate stream : Yes
Defeat audio cache : Yes
Make use of C2 pointers : No

Read offset correction : 6
Overread into Lead-In and Lead-Out : No
Fill up missing offset samples with silence : Yes
Delete leading and trailing silent blocks : No
Null samples used in CRC calculations : Yes
Used interface : Native Win32 interface for Win NT & 2000
Gap handling : Appended to previous track

Used output format : User Defined Encoder
Selected bitrate : 1024 kBit/s
Quality : High
Add ID3 tag : No
Command line compressor : E:\Program Files (x86)\Exact Audio Copy\Flac\flac.exe
Additional command line options : -8 -e -p -V -T "ARTIST=%artist%" -T "TITLE=%title%" -T "ALBUM=%albumtitle%" -T "DATE=%year%" -T "TRACKNUMBER=%tracknr%" -T "GENRE=%genre%" -T "PERFORMER=%albuminterpret%" -T "COMPOSER=%composer%" %haslyrics%–tag-from-file=LYRICS="%lyricsfile%"%haslyrics% -T "ALBUMARTIST=%albumartist%" -T "DISCNUMBER=%cdnumber%" -T "TOTALDISCS=%totalcds%" -T "TOTALTRACKS=%numtracks%" -T "COMMENT=%comment%" %source% -o %dest%


TOC of the extracted CD

Track | Start | Length | Start sector | End sector
––––––––––––––––––––––––––––-
1 | 0:00.00 | 9:47.06 | 0 | 44030
2 | 9:47.06 | 8:12.35 | 44031 | 80965
3 | 17:59.41 | 6:38.61 | 80966 | 110876
4 | 24:38.27 | 4:04.50 | 110877 | 129226
5 | 28:43.02 | 2:59.13 | 129227 | 142664
6 | 31:42.15 | 3:46.22 | 142665 | 159636
7 | 35:28.37 | 2:52.23 | 159637 | 172559
8 | 38:20.60 | 3:39.16 | 172560 | 189000
9 | 42:00.01 | 6:36.59 | 189001 | 218759
10 | 48:36.60 | 4:58.45 | 218760 | 241154
11 | 53:35.30 | 13:35.68 | 241155 | 302347


Track 1

Filename R:\Music\Queen Elisabeth Competition - Cello 2017\CD3\01 - Santiago Cañón-Valencia, Orchestre Royal De Chambre De Wallonie And Frank Braley - Joseph Haydn- Cello Concerto No. 1 In C Major, Hob. VIIb-1- I. Moderato (Live).wav

Pre-gap length 0:00:02.00

Peak level 61.9 %
Extraction speed 4.9 X
Track quality 100.0 %
Test CRC B3A0D058
Copy CRC B3A0D058
Accurately ripped (confidence 1) [A7A5BAC0] (AR v2)
Copy OK

Track 2

Filename R:\Music\Queen Elisabeth Competition - Cello 2017\CD3\02 - Santiago Cañón-Valencia, Frank Braley And Orchestre Royal De Chambre De Wallonie - Joseph Haydn- Cello Concerto No. 1 In C Major, Hob. VIIb-1- II. Adagio (Live).wav

Peak level 41.9 %
Extraction speed 5.5 X
Track quality 100.0 %
Test CRC A956D641
Copy CRC A956D641
Accurately ripped (confidence 1) [3A835BFF] (AR v2)
Copy OK

Track 3

Filename R:\Music\Queen Elisabeth Competition - Cello 2017\CD3\03 - Santiago Cañón-Valencia, Orchestre Royal De Chambre De Wallonie And Frank Braley - Joseph Haydn- Cello Concerto No. 1 In C Major, Hob. VIIb-1- III. Allegro Molto (Live).wav

Peak level 90.7 %
Extraction speed 6.0 X
Track quality 100.0 %
Test CRC 7E1C03C9
Copy CRC 7E1C03C9
Accurately ripped (confidence 1) [2D09B045] (AR v2)
Copy OK

Track 4

Filename R:\Music\Queen Elisabeth Competition - Cello 2017\CD3\04 - Ivan Karizna And Lidy Blijdorp - Luigi Boccherini- Cello Sonata In C Major, G. 17- I. Allegro (Live).wav

Peak level 44.2 %
Extraction speed 4.8 X
Track quality 99.9 %
Test CRC 23B4EDEE
Copy CRC 23B4EDEE
Accurately ripped (confidence 1) [2200E9EC] (AR v2)
Copy OK

Track 5

Filename R:\Music\Queen Elisabeth Competition - Cello 2017\CD3\05 - Ivan Karizna And Lidy Blijdorp - Luigi Boccherini- Cello Sonata In C Major, G. 17- II. Largo Assai (Live).wav

Peak level 30.5 %
Extraction speed 5.9 X
Track quality 100.0 %
Test CRC 615415DC
Copy CRC 615415DC
Accurately ripped (confidence 1) [1D85B815] (AR v2)
Copy OK

Track 6

Filename R:\Music\Queen Elisabeth Competition - Cello 2017\CD3\06 - Ivan Karizna And Lidy Blijdorp - Luigi Boccherini- Cello Sonata In C Major, G. 17- III. Rondo Allegro (Live).wav

Peak level 63.3 %
Extraction speed 6.3 X
Track quality 100.0 %
Test CRC 01618432
Copy CRC 01618432
Accurately ripped (confidence 1) [7F6EE914] (AR v2)
Copy OK

Track 7

Filename R:\Music\Queen Elisabeth Competition - Cello 2017\CD3\07 - Ivan Karizna And Takashi Sato - Robert Schumann- Fünf Stücke Im Volkston, Op. 102- Mit Humor (Live).wav

Peak level 66.2 %
Extraction speed 4.8 X
Track quality 99.9 %
Test CRC 0B901FEF
Copy CRC 0B901FEF
Accurately ripped (confidence 1) [B9FAC816] (AR v2)
Copy OK

Track 8

Filename R:\Music\Queen Elisabeth Competition - Cello 2017\CD3\08 - Ivan Karizna And Takashi Sato - Robert Schumann- Fünf Stücke Im Volkston, Op. 102- Langsam (Live).wav

Peak level 50.3 %
Extraction speed 6.5 X
Track quality 100.0 %
Test CRC 29A036B2
Copy CRC 29A036B2
Accurately ripped (confidence 1) [F2677AA8] (AR v2)
Copy OK

Track 9

Filename R:\Music\Queen Elisabeth Competition - Cello 2017\CD3\09 - Maciej Kułakowski And Keiko Tamura - Annelies Van Parys- Chacun(E) Sa Chaconne (Live).wav

Peak level 89.9 %
Extraction speed 7.2 X
Track quality 100.0 %
Test CRC 5EEF5B73
Copy CRC 5EEF5B73
Accurately ripped (confidence 1) [7398D18C] (AR v2)
Copy OK

Track 10

Filename R:\Music\Queen Elisabeth Competition - Cello 2017\CD3\10 - Ivan Karizna - Eugène Ysaÿe- Sonata For Solo Cello In C Minor, Op. 28- Grave (Live).wav

Peak level 49.6 %
Extraction speed 7.0 X
Track quality 100.0 %
Test CRC A724E084
Copy CRC A724E084
Accurately ripped (confidence 1) [EC56074E] (AR v2)
Copy OK

Track 11

Filename R:\Music\Queen Elisabeth Competition - Cello 2017\CD3\11 - Seungmin Kang, Stéphane Denève And Brussels Philharmonic - Toshio Hosokawa- Sublimation (Live).wav

Peak level 98.8 %
Extraction speed 7.8 X
Track quality 100.0 %
Test CRC AD4D53A6
Copy CRC AD4D53A6
Accurately ripped (confidence 1) [B4F97486] (AR v2)
Copy OK


All tracks accurately ripped

No errors occurred

End of status report

–– CUETools DB Plugin V2.1.6

[CTDB TOCID: kxObwM35benuM_OUY9NZ0UOIP1w-] found
Submit result: already submitted
Track | CTDB Status
1 | (3/3) Accurately ripped
2 | (3/3) Accurately ripped
3 | (3/3) Accurately ripped
4 | (3/3) Accurately ripped
5 | (3/3) Accurately ripped
6 | (3/3) Accurately ripped
7 | (3/3) Accurately ripped
8 | (3/3) Accurately ripped
9 | (3/3) Accurately ripped
10 | (3/3) Accurately ripped
11 | (3/3) Accurately ripped


==== Log checksum 11D654DA45BB38B602CE9BF4204D1B9EB1AE612EBFA9A6CA2E965980563BEAF8 ====

Exact Audio Copy V1.3 from 2. September 2016

EAC extraction logfile from 10. October 2017, 7:44

Victor Julien Laferrière, Yuya Okamoto, Santiago Cañón-Valencia, Aurélien Pascal, Ivan Karizna And Brannon Cho / Queen Elisabeth Competition - Cello 2017

Used drive : HL-DT-STDVDRAM GP57EB40 Adapter: 1 ID: 0

Read mode : Secure
Utilize accurate stream : Yes
Defeat audio cache : Yes
Make use of C2 pointers : No

Read offset correction : 6
Overread into Lead-In and Lead-Out : No
Fill up missing offset samples with silence : Yes
Delete leading and trailing silent blocks : No
Null samples used in CRC calculations : Yes
Used interface : Native Win32 interface for Win NT & 2000
Gap handling : Appended to previous track

Used output format : User Defined Encoder
Selected bitrate : 1024 kBit/s
Quality : High
Add ID3 tag : No
Command line compressor : E:\Program Files (x86)\Exact Audio Copy\Flac\flac.exe
Additional command line options : -8 -e -p -V -T "ARTIST=%artist%" -T "TITLE=%title%" -T "ALBUM=%albumtitle%" -T "DATE=%year%" -T "TRACKNUMBER=%tracknr%" -T "GENRE=%genre%" -T "PERFORMER=%albuminterpret%" -T "COMPOSER=%composer%" %haslyrics%–tag-from-file=LYRICS="%lyricsfile%"%haslyrics% -T "ALBUMARTIST=%albumartist%" -T "DISCNUMBER=%cdnumber%" -T "TOTALDISCS=%totalcds%" -T "TOTALTRACKS=%numtracks%" -T "COMMENT=%comment%" %source% -o %dest%


TOC of the extracted CD

Track | Start | Length | Start sector | End sector
––––––––––––––––––––––––––––-
1 | 0:00.00 | 3:55.60 | 0 | 17684
2 | 3:55.60 | 15:07.13 | 17685 | 85722
3 | 19:02.73 | 5:13.01 | 85723 | 109198
4 | 24:15.74 | 5:25.73 | 109199 | 133646
5 | 29:41.72 | 7:22.20 | 133647 | 166816
6 | 37:04.17 | 3:11.06 | 166817 | 181147
7 | 40:15.23 | 11:07.10 | 181148 | 231182
8 | 51:22.33 | 8:55.07 | 231183 | 271314
9 | 60:17.40 | 2:50.03 | 271315 | 284067
10 | 63:07.43 | 3:06.17 | 284068 | 298034


Track 1

Filename R:\Music\Queen Elisabeth Competition - Cello 2017 [FLAC] - 2017\CD4\01 - Bruno Philippe - Johann Sebastian Bach- Cello Suite No. 4 In E-Flat Major, BWV 1010- Prelude (Live).wav

Pre-gap length 0:00:02.00

Peak level 42.8 %
Extraction speed 1.2 X
Track quality 100.0 %
Test CRC 808C5EFA
Copy CRC 808C5EFA
Accurately ripped (confidence 1) [822391C7] (AR v2)
Copy OK

Track 2

Filename R:\Music\Queen Elisabeth Competition - Cello 2017 [FLAC] - 2017\CD4\02 - Shizuka Mitsui, Frank Braley And Orchestre Royal De Chambre De Wallonie - Joseph Haydn- Cello Concerto No. 2 In D Major, Hob. VIIb-2- I. Allegro Moderato (Live).wav

Peak level 79.0 %
Extraction speed 1.6 X
Track quality 100.0 %
Test CRC 988AEE6F
Copy CRC 988AEE6F
Accurately ripped (confidence 1) [54076645] (AR v2)
Copy OK

Track 3

Filename R:\Music\Queen Elisabeth Competition - Cello 2017 [FLAC] - 2017\CD4\03 - Shizuka Mitsui, Orchestre Royal De Chambre De Wallonie And Frank Braley - Joseph Haydn- Cello Concerto No. 2 In D Major, Hob. VIIb-2- II. Adagio (Live).wav

Peak level 55.1 %
Extraction speed 1.8 X
Track quality 100.0 %
Test CRC 352C0395
Copy CRC 352C0395
Accurately ripped (confidence 1) [783EFC60] (AR v2)
Copy OK

Track 4

Filename R:\Music\Queen Elisabeth Competition - Cello 2017 [FLAC] - 2017\CD4\04 - Shizuka Mitsui, Orchestre Royal De Chambre De Wallonie And Frank Braley - Joseph Haydn- Cello Concerto No. 2 In D Major, Hob. VIIb-2- III. Allegro (Live).wav

Peak level 75.2 %
Extraction speed 1.7 X
Track quality 99.9 %
Test CRC DE260D58
Copy CRC DE260D58
Accurately ripped (confidence 1) [91866629] (AR v2)
Copy OK

Track 5

Filename R:\Music\Queen Elisabeth Competition - Cello 2017 [FLAC] - 2017\CD4\05 - Astrig Siranossian And Julien Gernay - Antonin Dvorak- Rondo In G Minor, Op. 94 (Live).wav

Peak level 74.0 %
Extraction speed 2.1 X
Track quality 100.0 %
Test CRC 384D94A4
Copy CRC 384D94A4
Accurately ripped (confidence 1) [04851E0F] (AR v2)
Copy OK

Track 6

Filename R:\Music\Queen Elisabeth Competition - Cello 2017 [FLAC] - 2017\CD4\06 - Julia Hagen And Naoko Sonoda - Robert Schumann- Fünf Stücke Im Volkston, Op. 102- Stark Und Markiert (Live).wav

Peak level 67.9 %
Extraction speed 2.0 X
Track quality 100.0 %
Test CRC 452EF063
Copy CRC 452EF063
Accurately ripped (confidence 1) [51FF450A] (AR v2)
Copy OK

Track 7

Filename R:\Music\Queen Elisabeth Competition - Cello 2017 [FLAC] - 2017\CD4\07 - Sihao He And Victor Santiago Asuncion - Max Bruch- Kol Nidrei, Op. 47 (Live).wav

Peak level 71.1 %
Extraction speed 2.4 X
Track quality 100.0 %
Test CRC 0B98F29E
Copy CRC 0B98F29E
Accurately ripped (confidence 1) [78238971] (AR v2)
Copy OK

Track 8

Filename R:\Music\Queen Elisabeth Competition - Cello 2017 [FLAC] - 2017\CD4\08 - Christine JeongHyoun Lee And Dana Protopopescu - Franz Schubert- Cello Sonata In A Minor, D. 821 ''Arpeggione''- Allegro Moderato (Live).wav

Peak level 63.0 %
Extraction speed 2.5 X
Track quality 100.0 %
Test CRC 81A42711
Copy CRC 81A42711
Accurately ripped (confidence 1) [66F28188] (AR v2)
Copy OK

Track 9

Filename R:\Music\Queen Elisabeth Competition - Cello 2017 [FLAC] - 2017\CD4\09 - Yan Levionnois And Anna Naretto - Gabriel Fauré- Papillon, Op. 77 (Live).wav

Pre-gap length 0:00:00.24

Peak level 57.0 %
Extraction speed 2.3 X
Track quality 100.0 %
Test CRC 5A67102D
Copy CRC 5A67102D
Accurately ripped (confidence 1) [DB1E6AF4] (AR v2)
Copy OK

Track 10

Filename R:\Music\Queen Elisabeth Competition - Cello 2017 [FLAC] - 2017\CD4\10 - Bruno Philippe And Tanguy De Williencourt - David Popper- Elfentanz, Op. 39 (Live).wav

Peak level 63.1 %
Extraction speed 2.4 X
Track quality 100.0 %
Test CRC 0AE4A5C6
Copy CRC 0AE4A5C6
Accurately ripped (confidence 1) [92C24CAB] (AR v2)
Copy OK


All tracks accurately ripped

No errors occurred

End of status report

–– CUETools DB Plugin V2.1.6

[CTDB TOCID: SYW7l3vqGuS127R7xGlatijcBYE-] found
Submit result: SYW7l3vqGuS127R7xGlatijcBYE- has been confirmed
Track | CTDB Status
1 | (2/2) Accurately ripped
2 | (2/2) Accurately ripped
3 | (2/2) Accurately ripped
4 | (2/2) Accurately ripped
5 | (2/2) Accurately ripped
6 | (2/2) Accurately ripped
7 | (2/2) Accurately ripped
8 | (2/2) Accurately ripped
9 | (2/2) Accurately ripped
10 | (2/2) Accurately ripped


==== Log checksum E01C881C8D012DF0CDB33F31689008E59B0185CE13B6EA91CC592B5AFCC7822D ====


Thanks to the Original customer.