Subcategories

Quincy Jones - Explores the Music of Henry Mancini (1964) [Reissue 2009] (Repost)

Posted By: gribovar
Quincy Jones - Explores the Music of Henry Mancini (1964) [Reissue 2009] (Repost)

Quincy Jones - Explores the Music of Henry Mancini (1964) [Reissue 2009]
EAC Rip | FLAC (tracks+.cue+log) - 236 MB | MP3 CBR 320 kbps (LAME 3.93) - 96 MB | Covers (5 MB) included
Genre: Jazz | RAR 3% Rec. | Label: Verve Records (0602517995741)

As modern big-band leaders go, Quincy Jones in the '60s would be first choice for many composers who wrote for a television series or the cinema. Though not the original themes, Jones was quite able to produce a full album featuring Henry Mancini's famous songs from movies and the small screen. This collection of the familiar and obscure Mancini done in 1964, preceded famed epic scores written by Jones from films The Pawnbroker and The Deadly Affair. It comprises several well-known hit tunes and a smattering of cuts not easily identifiable as the hummable and memorable Mancini classics. Taken from three separate sessions, the bands assembled by Jones are loaded, including Jerome Richardson, Billy Byers, Urbie Green, Clark Terry, Ernie Royal, Snooky Young, Mundell Lowe, Zoot Sims, Phil Woods, and Seldon Powell, Drummer Osie Johnson plays on all tracks, pianist Bobby Scott is a central figure, as are bassists Milt Hinton and Major Holley. A young saxophonist and flutist named Roland Kirk appears on four tracks, and the emerging vibraphonist Gary Burton is on another eight. A burgeoning talent, Jones was 31 when these recordings were made, and gaining momentum for his talents in Hollywood and Los Angeles. Though everybody knows "Baby Elephant Walk," they might not have heard the thorny electric guitar, staccato bells, and bowed bass and vocals via Holley and Hinton that Jones inserts into this version. Where the cool and slinky theme from "Pink Panther" also has the bassists jiving vocally and using their arco techniques under flutes and finger snaps, "Mr. Lucky" is the epitome of Count Basie like cool, while the spy music of "Peter Gunn" retains the bassists trickery as Burton's electrically echoed marimba and a Phil Woods alto sax solo broaden the scope of "Peter Gunn"'s field. "Dreamsville" is a luscious ballad with harp and piano featured, "Days of Wine & Roses" starts typically pristine but runs into detailed, progressive interpretations, and "Moon River" is completely changed up into a waltz with Kirk's irresistible small saxello solo. The very hip, easy swinging "Odd Ball" is certainly the least-known Mancini piece not related to any cinematic connection, as quickened horns contrast against the slower beat and the choppy chords of Scott. The obscure "Charade" is really a jewel of the brilliance in re-arrangement Jones proffers, and perfectly deserving of its title. As slowed 3/4 in quicker 6/8 time signatures surface via an obtuse ostinato bassline, the horns accent fully juxtaposing lines swinging amongst a bit of psychedelia. A cute waltz is "Bird Brain," bouncy and fun with the flutes ricocheting off the walls, while "And Don't You Forget It" is a cowboy samba appropriate for any spaghetti western. Harmonicist Toots Thielemans is featured on one track, the ballad "Soldier in the Rain," with the sighing horns as the precipitation. How Jones is able to interpret Mancini's music with such diversity and new ideas is positively amazing, providing a unique listening experience for even the staunchest Q fan.
Tracklist:
01. Baby Elephant Walk
02. Charade
03. Dreamsville
04. Bird Brain
05. Days Of Wine And Roses
06. Mr. Lucky
07. Pink Panther
08. (I Love You) And Don't You Forget It
09. Soldier In The Rain
10. Odd Ball
11. Moon River
12. Peter Gunn

Total time: 37:40

Exact Audio Copy V0.99 prebeta 5 from 4. May 2009

EAC extraction logfile from 26. October 2009, 22:39

Quincy Jones / Explores The Music Of Henry Mancini

Used drive : PLEXTOR CD-R PREMIUM2 Adapter: 1 ID: 1

Read mode : Secure
Utilize accurate stream : Yes
Defeat audio cache : Yes
Make use of C2 pointers : No

Read offset correction : 30
Overread into Lead-In and Lead-Out : No
Fill up missing offset samples with silence : Yes
Delete leading and trailing silent blocks : No
Null samples used in CRC calculations : Yes
Used interface : Installed external ASPI interface
Gap handling : Appended to previous track

Used output format : User Defined Encoder
Selected bitrate : 32 kBit/s
Quality : High
Add ID3 tag : No
Command line compressor : C:\Programmi\FLAC\flac.exe
Additional command line options : -8 -V -T "ARTIST=%a" -T "TITLE=%t" -T "ALBUM=%g" -T "DATE=%y" -T "TRACKNUMBER=%n" -T "GENRE=%m" -T "COMMENT=EAC FLAC -8" %s


TOC of the extracted CD

Track | Start | Length | Start sector | End sector
––––––––––––––––––––––––––––-
1 | 0:00.00 | 2:54.36 | 0 | 13085
2 | 2:54.36 | 3:18.52 | 13086 | 27987
3 | 6:13.13 | 3:51.15 | 27988 | 45327
4 | 10:04.28 | 4:08.69 | 45328 | 63996
5 | 14:13.22 | 2:45.52 | 63997 | 76423
6 | 16:58.74 | 2:28.55 | 76424 | 87578
7 | 19:27.54 | 3:26.43 | 87579 | 103071
8 | 22:54.22 | 2:53.61 | 103072 | 116107
9 | 25:48.08 | 3:12.64 | 116108 | 130571
10 | 29:00.72 | 3:48.36 | 130572 | 147707
11 | 32:49.33 | 2:35.30 | 147708 | 159362
12 | 35:24.63 | 2:55.28 | 159363 | 172515


Track 1

Filename D:\My Rip\01 - Baby Elephant Walk.wav

Pre-gap length 0:00:02.00

Peak level 98.9 %
Track quality 100.0 %
Test CRC 7C5860C5
Copy CRC 7C5860C5
Accurately ripped (confidence 2) [8BF47C0D]
Copy OK

Track 2

Filename D:\My Rip\02 - Charade.wav

Peak level 97.3 %
Track quality 100.0 %
Test CRC 947A6FB4
Copy CRC 947A6FB4
Accurately ripped (confidence 2) [A7E3C363]
Copy OK

Track 3

Filename D:\My Rip\03 - Dreamsville.wav

Peak level 96.7 %
Track quality 100.0 %
Test CRC 3D428513
Copy CRC 3D428513
Accurately ripped (confidence 2) [DFD79313]
Copy OK

Track 4

Filename D:\My Rip\04 - Bird Brain.wav

Peak level 74.1 %
Track quality 100.0 %
Test CRC 39DF1D4A
Copy CRC 39DF1D4A
Accurately ripped (confidence 2) [E17F5531]
Copy OK

Track 5

Filename D:\My Rip\05 - The Days Of Wine And Roses.wav

Peak level 100.0 %
Track quality 99.9 %
Test CRC 32C957D7
Copy CRC 32C957D7
Accurately ripped (confidence 2) [8DF37875]
Copy OK

Track 6

Filename D:\My Rip\06 - Mr. Lucky.wav

Peak level 91.9 %
Track quality 99.9 %
Test CRC 243BEB4F
Copy CRC 243BEB4F
Accurately ripped (confidence 2) [ECD305D4]
Copy OK

Track 7

Filename D:\My Rip\07 - Pink Panther.wav

Peak level 98.9 %
Track quality 100.0 %
Test CRC C239463A
Copy CRC C239463A
Accurately ripped (confidence 2) [3D98DB07]
Copy OK

Track 8

Filename D:\My Rip\08 - (I Love You) And Don't You Forget It.wav

Peak level 97.0 %
Track quality 100.0 %
Test CRC 58851229
Copy CRC 58851229
Accurately ripped (confidence 2) [C7281E1F]
Copy OK

Track 9

Filename D:\My Rip\09 - Soldier In The Rain.wav

Peak level 60.0 %
Track quality 100.0 %
Test CRC F5D80F0F
Copy CRC F5D80F0F
Accurately ripped (confidence 2) [670D89B6]
Copy OK

Track 10

Filename D:\My Rip\10 - Odd Ball.wav

Peak level 86.7 %
Track quality 99.9 %
Test CRC 9E0896EC
Copy CRC 9E0896EC
Accurately ripped (confidence 2) [33C5FA4B]
Copy OK

Track 11

Filename D:\My Rip\11 - Moon River.wav

Peak level 100.0 %
Track quality 99.9 %
Test CRC E748F889
Copy CRC E748F889
Accurately ripped (confidence 2) [D15E70E6]
Copy OK

Track 12

Filename D:\My Rip\12 - Peter Gunn.wav

Peak level 99.7 %
Track quality 100.0 %
Test CRC AA3E8F00
Copy CRC AA3E8F00
Accurately ripped (confidence 2) [CCA2DD8C]
Copy OK


All tracks accurately ripped

No errors occurred

End of status report

[CUETools log; Date: 18.11.2017 16:57:31; Version: 2.1.4]
[CTDB TOCID: cQ1ZQ2DICoRvwrYCO6O3di_RUIs-] found.
Track | CTDB Status
1 | (24/24) Accurately ripped
2 | (24/24) Accurately ripped
3 | (24/24) Accurately ripped
4 | (24/24) Accurately ripped
5 | (24/24) Accurately ripped
6 | (24/24) Accurately ripped
7 | (24/24) Accurately ripped
8 | (24/24) Accurately ripped
9 | (24/24) Accurately ripped
10 | (24/24) Accurately ripped
11 | (24/24) Accurately ripped
12 | (24/24) Accurately ripped
[AccurateRip ID: 001173bd-00a25347-9808fc0c] found.
Track [ CRC | V2 ] Status
01 [8bf47c0d|5d70d2c3] (13+19/32) Accurately ripped
02 [a7e3c363|32426361] (12+20/32) Accurately ripped
03 [dfd79313|9c7921ec] (12+20/32) Accurately ripped
04 [e17f5531|f66050ae] (12+20/32) Accurately ripped
05 [8df37875|c2854b55] (12+19/31) Accurately ripped
06 [ecd305d4|296a429b] (12+19/31) Accurately ripped
07 [3d98db07|7c6a948d] (13+20/33) Accurately ripped
08 [c7281e1f|6a593d33] (12+20/32) Accurately ripped
09 [670d89b6|3bba46fa] (12+20/32) Accurately ripped
10 [33c5fa4b|c4de47d3] (12+20/32) Accurately ripped
11 [d15e70e6|c2a8a79d] (12+20/32) Accurately ripped
12 [cca2dd8c|c71e7975] (12+20/32) Accurately ripped

Track Peak [ CRC32 ] [W/O NULL] [ LOG ]
– 100,0 [241522C0] [2DC37ADF]
01 98,9 [7C5860C5] [9201C6B3] CRC32
02 97,3 [947A6FB4] [70256204] CRC32
03 96,7 [3D428513] [1BB5D82C] CRC32
04 74,1 [39DF1D4A] [3501C642] CRC32
05 100,0 [32C957D7] [2388CD58] CRC32
06 91,8 [243BEB4F] [AB364016] CRC32
07 98,9 [C239463A] [60D91A33] CRC32
08 97,0 [58851229] [7373E2EC] CRC32
09 60,0 [F5D80F0F] [B94F9F31] CRC32
10 86,7 [9E0896EC] [C0500C79] CRC32
11 99,9 [E748F889] [8E4FBB98] CRC32
12 99,7 [AA3E8F00] [2A7CA3E7] CRC32

Thanks to the original releaser