Subcategories

Roberto Colombo - Sfogatevi Bestie (1976) {2004 Ultima Spiaggia/BMG Italy}

Posted By: TestTickles
Roberto Colombo - Sfogatevi Bestie (1976) {2004 Ultima Spiaggia/BMG Italy}

Roberto Colombo - Sfogatevi Bestie (1976) {2004 Ultima Spiaggia/BMG Italy}
EAC Rip | FLAC with CUE and log | no scans | 232 mb
MP3 CBR 320kbps | RAR | 86 mb
Genre: progressive rock

Sfogatevi Bestie is the 1976 album by Italian artist Roberto Colombo. This pressing is a remaster from 2004, released by Ultima Spiaggia via BMG Italy.

Roberto Colombo is an artistic producer and has worked with bands such as Le Orme, PFM, Finisterre and many other prominent Italian musicians. In 1976 his first solo album is relesead, "Sfogatevi bestie" which includes collaborations from notable instrumentalists such as Walter Calloni (PFM), Ricky Belloni (Nuova Idea, New Trolls), Paulo Donnarumma (together with Eugenio Finardi former member of Pacco and till today esteemed session man), Claudio Fasoli (Perigeo). It´s a good quality piece of work, well received by the press and still regarded as one of the most wanted items by numerous record collectors.

Roberto Colombo - Sfogatevi Bestie (1976) {2004 Ultima Spiaggia/BMG Italy}

1. Sono pronto (2:19)
2. Caccia alla volpe (10:20)
3. Entreneuse (6:35)
4. Sfogatevi bestie (4:23)
5. Assurdo parte I (1:57)
6. Metronomo 138 (8:26)
7. Assurdo parte II (4:33)

Roberto Colombo-metronom, keyboards, vocals (tracks 6 and 7)
Pepe Gagliardi-piano (track 6)
Alberto Mompellin-violin, organ, Moog
Claudio Fasoli-saxes
Gigi Belloni-bass
Paolo Donnarumma-bass (tracks 1 and 4)
Flaviano Cuffari-drums (tracks 1, 4 and 5)
Walter Calloni-drums (tracks 2, 3 and 6)
Mario Lamberti-percussions
Maurizio Martelli-guitar
Ricky Belloni-guitar (track 4)
Gianni Zilioli-xylophone (track 6)
Marco Ferradini-vocals (tracks 5 and 6)
Nanni Ricordi-vocals (track 6)

EAC extraction logfile from 23. November 2005, 7:10 for CD
Roberto Colombo / Sfogatevi Bestie

Used drive : PIONEER DVD-ROM DVD-114F Adapter: 0 ID: 1
Read mode : Secure with NO C2, accurate stream, disable cache
Read offset correction : 696
Overread into Lead-In and Lead-Out : Yes

Used output format : Internal WAV Routines
44.100 Hz; 16 Bit; Stereo

Other options :
Fill up missing offset samples with silence : Yes
Delete leading and trailing silent blocks : No
Installed external ASPI interface


Track 1
Filename C:\Documenti\Fabio\Musica\Roberto Colombo - Sfogatevi Bestie (1976) [FLAC] {2004 Ultima Spiaggia, BMG Italy}\01 - Sono pronto.wav

Pre-gap length 0:00:02.00

Peak level 99.9 %
Track quality 99.9 %
Test CRC 25CCB7FC
Copy CRC 25CCB7FC
Copy OK

Track 2
Filename C:\Documenti\Fabio\Musica\Roberto Colombo - Sfogatevi Bestie (1976) [FLAC] {2004 Ultima Spiaggia, BMG Italy}\02 - Caccia alla volpe.wav

Pre-gap length 0:00:02.00

Peak level 100.0 %
Track quality 100.0 %
Test CRC 341BD3B7
Copy CRC 341BD3B7
Copy OK

Track 3
Filename C:\Documenti\Fabio\Musica\Roberto Colombo - Sfogatevi Bestie (1976) [FLAC] {2004 Ultima Spiaggia, BMG Italy}\03 - Entreneuse.wav

Pre-gap length 0:00:02.00

Peak level 100.0 %
Track quality 100.0 %
Test CRC ADF64DF8
Copy CRC ADF64DF8
Copy OK

Track 4
Filename C:\Documenti\Fabio\Musica\Roberto Colombo - Sfogatevi Bestie (1976) [FLAC] {2004 Ultima Spiaggia, BMG Italy}\04 - Sfogatevi bestie.wav

Pre-gap length 0:00:02.00

Peak level 99.9 %
Track quality 100.0 %
Test CRC 0AC060D2
Copy CRC 0AC060D2
Copy OK

Track 5
Filename C:\Documenti\Fabio\Musica\Roberto Colombo - Sfogatevi Bestie (1976) [FLAC] {2004 Ultima Spiaggia, BMG Italy}\05 - Assurdo parte I.wav

Pre-gap length 0:00:02.00

Peak level 100.0 %
Track quality 100.0 %
Test CRC D24AF5B5
Copy CRC D24AF5B5
Copy OK

Track 6
Filename C:\Documenti\Fabio\Musica\Roberto Colombo - Sfogatevi Bestie (1976) [FLAC] {2004 Ultima Spiaggia, BMG Italy}\06 - Metronomo 138.wav

Pre-gap length 0:00:02.00

Peak level 100.0 %
Track quality 100.0 %
Test CRC 3748EA9F
Copy CRC 3748EA9F
Copy OK

Track 7
Filename C:\Documenti\Fabio\Musica\Roberto Colombo - Sfogatevi Bestie (1976) [FLAC] {2004 Ultima Spiaggia, BMG Italy}\07 - Assurdo parte II.wav

Pre-gap length 0:00:02.00

Peak level 100.0 %
Track quality 99.9 %
Test CRC 78189DD3
Copy CRC 78189DD3
Copy OK

No errors occured


End of status report


Roberto Colombo - Sfogatevi Bestie (1976) {2004 Ultima Spiaggia/BMG Italy}


Thank you to the original uploader.