Subcategories
Tags
Language
Tags

Rodrigo y Gabriela - s/t (2006) {Capitol} **[RE-UP]**

Posted By: TestTickles
Rodrigo y Gabriela - s/t (2006) {Capitol} **[RE-UP]**

Rodrigo y Gabriela - s/t (2006) {Capitol}
EAC Rip | FLAC with CUE and log | scans | 501 mb
MP3 CBR 320kbps | RAR | 330 mb
DVD rip | MP4: Advanced Audio Codec (Main@L4) (720 x 482, 1057 Kbps) | Audio: MP3 (160 Kbps) | 48 min | English | 505 mb
Genre: acoustic, world, acoustic rock

Rodrigo y Gabriela is the 2006 major label debut by Mexican guitarists Rodrigo Sanchez and Gabriela Quintero. After releasing two independent albums, they were "discovered" by Capitol and became a worldwide phenomenon. The album features covers of Led Zeppelin's "Stairway To Heaven" and Metallica's "Orion". This is the CD/DVD edition and the content of the DVD were ripped into MP4 files, all of which can be downloaded on their own.

Rodrigo y Gabriela - s/t (2006) {Capitol} **[RE-UP]**

1. Tamacun
2. Diablo Rojo
3. Vikingman
4. Satori
5. Ixtapa
6. Stairway To Heaven
7. Orion
8. Juan Loco
9. PPA


Exact Audio Copy V0.99 prebeta 4 from 23. January 2008

EAC extraction logfile from 6. August 2008, 11:14

Rodrigo y Gabriela / Rodrigo y Gabriela

Used drive : TSSTcorpDVD+-RW TS-H653B Adapter: 2 ID: 0

Read mode : Secure
Utilize accurate stream : Yes
Defeat audio cache : Yes
Make use of C2 pointers : No

Read offset correction : 6
Overread into Lead-In and Lead-Out : No
Fill up missing offset samples with silence : Yes
Delete leading and trailing silent blocks : No
Null samples used in CRC calculations : Yes
Used interface : Native Win32 interface for Win NT & 2000
Gap handling : Appended to previous track

Used output format : Internal WAV Routines
Sample format : 44.100 Hz; 16 Bit; Stereo


TOC of the extracted CD

Track | Start | Length | Start sector | End sector
––––––––––––––––––––––––––––-
1 | 0:00.00 | 3:25.60 | 0 | 15434
2 | 3:25.60 | 4:56.60 | 15435 | 37694
3 | 8:22.45 | 4:03.24 | 37695 | 55943
4 | 12:25.69 | 5:04.30 | 55944 | 78773
5 | 17:30.24 | 5:13.73 | 78774 | 102321
6 | 22:44.22 | 4:44.15 | 102322 | 123636
7 | 27:28.37 | 7:44.00 | 123637 | 158436
8 | 35:12.37 | 3:27.31 | 158437 | 173992
9 | 38:39.68 | 4:12.26 | 173993 | 192918


Track 1

Filename C:\FLAC\Rodrigo y Gabriela - s-t (2006) [FLAC] {Capitol}\01 - Tamacun.wav

Pre-gap length 0:00:02.00

Peak level 100.0 %
Track quality 100.0 %
Test CRC D1A971BD
Copy CRC D1A971BD
Accurately ripped (confidence 69) [6771A825]
Copy OK

Track 2

Filename C:\FLAC\Rodrigo y Gabriela - s-t (2006) [FLAC] {Capitol}\02 - Diablo Rojo.wav

Pre-gap length 0:00:02.00

Peak level 100.0 %
Track quality 100.0 %
Test CRC 79D8D9A3
Copy CRC 79D8D9A3
Accurately ripped (confidence 71) [397A880B]
Copy OK

Track 3

Filename C:\FLAC\Rodrigo y Gabriela - s-t (2006) [FLAC] {Capitol}\03 - Vikingman.wav

Pre-gap length 0:00:02.00

Peak level 100.0 %
Track quality 100.0 %
Test CRC 059768B8
Copy CRC 059768B8
Accurately ripped (confidence 70) [7FDE394C]
Copy OK

Track 4

Filename C:\FLAC\Rodrigo y Gabriela - s-t (2006) [FLAC] {Capitol}\04 - Satori.wav

Pre-gap length 0:00:02.00

Peak level 100.0 %
Track quality 100.0 %
Test CRC D9283F6B
Copy CRC D9283F6B
Accurately ripped (confidence 71) [A6689718]
Copy OK

Track 5

Filename C:\FLAC\Rodrigo y Gabriela - s-t (2006) [FLAC] {Capitol}\05 - Ixtapa.wav

Pre-gap length 0:00:02.00

Peak level 100.0 %
Track quality 100.0 %
Test CRC 702249FD
Copy CRC 702249FD
Accurately ripped (confidence 71) [4A3B7490]
Copy OK

Track 6

Filename C:\FLAC\Rodrigo y Gabriela - s-t (2006) [FLAC] {Capitol}\06 - Stairway To Heaven.wav

Pre-gap length 0:00:02.00

Peak level 100.0 %
Track quality 100.0 %
Test CRC 2C8526EE
Copy CRC 2C8526EE
Accurately ripped (confidence 71) [7C2C02F7]
Copy OK

Track 7

Filename C:\FLAC\Rodrigo y Gabriela - s-t (2006) [FLAC] {Capitol}\07 - Orion.wav

Pre-gap length 0:00:01.45

Peak level 100.0 %
Track quality 100.0 %
Test CRC 98CC51B7
Copy CRC 98CC51B7
Accurately ripped (confidence 70) [3CA399B8]
Copy OK

Track 8

Filename C:\FLAC\Rodrigo y Gabriela - s-t (2006) [FLAC] {Capitol}\08 - Juan Loco.wav

Pre-gap length 0:00:02.00

Peak level 100.0 %
Track quality 100.0 %
Test CRC 082F9BC8
Copy CRC 082F9BC8
Accurately ripped (confidence 72) [869C0776]
Copy OK

Track 9

Filename C:\FLAC\Rodrigo y Gabriela - s-t (2006) [FLAC] {Capitol}\09 - PPA.wav

Pre-gap length 0:00:02.00

Peak level 100.0 %
Track quality 99.9 %
Test CRC E3E32E1B
Copy CRC E3E32E1B
Accurately ripped (confidence 67) [D9F01113]
Copy OK


All tracks accurately ripped

No errors occurred

End of status report


Rodrigo y Gabriela - s/t (2006) {Capitol} **[RE-UP]**

DVD (Videos)
1. Story
2. Stairway To Heaven
3. Tamacun
4. Diablo Rojo
5. Tutorial

General
Complete name : C:\Users\cuntfist\Desktop\MP3 Lab\Rodrigo y Gabriela - s-t (2006) [bonus DVD]\01 - Rodrigo u Gabriela - Story.mp4
Format : MPEG-4
Format profile : Base Media / Version 2
Codec ID : mp42
File size : 210 MiB
Duration : 23mn 59s
Overall bit rate mode : Variable
Overall bit rate : 1 223 Kbps
Writing application : HandBrake 0.10.1 2015030800

Video
ID : 1
Format : AVC
Format/Info : Advanced Video Codec
Format profile : Main@L4
Format settings, CABAC : Yes
Format settings, ReFrames : 4 frames
Codec ID : avc1
Codec ID/Info : Advanced Video Coding
Duration : 23mn 59s
Bit rate : 1 057 Kbps
Width : 720 pixels
Height : 482 pixels
Display aspect ratio : 16:9
Frame rate mode : Constant
Frame rate : 29.970 fps
Color space : YUV
Chroma subsampling : 4:2:0
Bit depth : 8 bits
Scan type : Progressive
Bits/(Pixel*Frame) : 0.102
Stream size : 181 MiB (86%)
Writing library : x264 core 142 r2479 dd79a61
Encoding settings : cabac=1 / ref=1 / deblock=1:0:0 / analyse=0x1:0x111 / me=hex / subme=2 / psy=1 / psy_rd=1.00:0.00 / mixed_ref=0 / me_range=16 / chroma_me=1 / trellis=0 / 8x8dct=0 / cqm=0 / deadzone=21,11 / fast_pskip=1 / chroma_qp_offset=0 / threads=3 / lookahead_threads=1 / sliced_threads=0 / nr=0 / decimate=1 / interlaced=0 / bluray_compat=0 / constrained_intra=0 / bframes=3 / b_pyramid=2 / b_adapt=1 / b_bias=0 / direct=1 / weightb=1 / open_gop=0 / weightp=1 / keyint=300 / keyint_min=30 / scenecut=40 / intra_refresh=0 / rc_lookahead=10 / rc=crf / mbtree=1 / crf=20.0 / qcomp=0.60 / qpmin=0 / qpmax=69 / qpstep=4 / vbv_maxrate=20000 / vbv_bufsize=25000 / crf_max=0.0 / nal_hrd=none / filler=0 / ip_ratio=1.40 / aq=1:1.00
Color range : Limited
Color primaries : BT.601 NTSC
Transfer characteristics : BT.709
Matrix coefficients : BT.601

Audio
ID : 2
Format : AAC
Format/Info : Advanced Audio Codec
Format profile : LC
Codec ID : 40
Duration : 23mn 59s
Bit rate mode : Variable
Bit rate : 160 Kbps
Channel(s) : 2 channels
Channel positions : Front: L R
Sampling rate : 48.0 KHz
Compression mode : Lossy
Stream size : 27.5 MiB (13%)
Title : Stereo / Stereo


Rodrigo y Gabriela - s/t (2006) {Capitol} **[RE-UP]**