Subcategories

The Rolling Stones - Never Stop (2CD) (2001) {A Vinyl Gang Product} **[RE-UP]**

Posted By: TestTickles
The Rolling Stones - Never Stop (2CD) (2001) {A Vinyl Gang Product} **[RE-UP]**

The Rolling Stones - Never Stop (2CD) (2001) {A Vinyl Gang Product}
EAC Rip | FLAC with CUE and log | scans | 766 mb
MP3 CBR 320kbps | RAR | 277 mb
Genre: rock, rock'n'roll, classic rock

Released in 2001, Never Stop is a live bootleg album by The Rolling Stones as part of their Tattoo You tour. Originally released as One More Time.. Stones Live Göteborg '82, Never Stop was recorded in Gothenburg, Sweden at Ullevi Stadium on 19 June, 1982. If there is anything unusual about this album, it's the audience cheering for the group in between songs as if they want more, even at the start of their performance. This is maybe how they do it in Sweden but I always liked this for the energy of the group. "LIttle T&A" is announced in full as "Little Tits & Ass". A Vinyl Gang Product made this possible.

DISC 1
1. (Take The 'A' Train - Intro) (0:50)
2. Under My Thumb (4:07)
3. When The Whip Comes Down (4:48)
4. Let's Spend The Night Together (4:14)
5. Shattered (4:27)
6. Neighbours (4:49)
7. Black Limousine (3:00)
8. Just My Imagination (Running Away With Me) (9:52)
9. Twenty Flight Rock (2:07)
10. Going To A Go-Go (3:26)
11. Chantilly Lace (4:00)
12. Let Me Go (4:57)
13. Time Is On My Side (3:58)
14. Beast Of Burden (8:13)

DISC 2
1. Let It Bleed (7:52)
2. You Can't Always Get What You Want (12:53)
3. Little T&A (3:18)
4. Tumbling Dice (4:27)
5. She's So Cold (4:32)
6. Hang Fire (2:49)
7. Miss You (8:14)
8. Honky Tonk Women (3:46)
9. Brown Sugar (3:59)
10. Start Me Up (4:44)
11. Jumpin' Jack Flash (7:57)
12. (I Can't Get No) Satisfaction (6:08)
13. (Overture 1812 - Outro) (2:36)

Exact Audio Copy V1.0 beta 3 from 29. August 2011

EAC extraction logfile from 24. June 2014, 2:09

The Rolling Stones / Never Stop Bootleg

Used drive : HL-DT-STDVDRAM GSA-T40N Adapter: 0 ID: 0

Read mode : Secure
Utilize accurate stream : Yes
Defeat audio cache : Yes
Make use of C2 pointers : No

Read offset correction : 667
Overread into Lead-In and Lead-Out : No
Fill up missing offset samples with silence : Yes
Delete leading and trailing silent blocks : No
Null samples used in CRC calculations : Yes
Used interface : Native Win32 interface for Win NT & 2000
Gap handling : Appended to previous track

Used output format : User Defined Encoder
Selected bitrate : 896 kBit/s
Quality : High
Add ID3 tag : No
Command line compressor : C:\Program Files\Exact Audio Copy\FLAC\FLAC.EXE
Additional command line options : -8 -V -T "ARTIST=%artist%" -T "TITLE=%title%" -T "ALBUM=%albumtitle%" -T "DATE=%year%" -T "TRACKNUMBER=%tracknr%" -T "GENRE=%genre%" -T "COMMENT=%comment%" -T "BAND=%albuminterpret%" -T "ALBUMARTIST=%albuminterpret%" -T "COMPOSER=%composer%" %haslyrics%–tag-from-file=LYRICS="%lyricsfile%"%haslyrics% -T "DISCNUMBER=%cdnumber%" -T "TOTALDISCS=%totalcds%" -T "TOTALTRACKS=%numtracks%" %hascover%–picture="%coverfile%"%hascover% %source% -o %dest%


TOC of the extracted CD

Track | Start | Length | Start sector | End sector
––––––––––––––––––––––––––––-
1 | 0:00.32 | 0:54.60 | 32 | 4141
2 | 0:55.17 | 4:02.70 | 4142 | 22361
3 | 4:58.12 | 4:50.20 | 22362 | 44131
4 | 9:48.32 | 4:14.53 | 44132 | 63234
5 | 14:03.10 | 4:48.07 | 63235 | 84841
6 | 18:51.17 | 4:39.08 | 84842 | 105774
7 | 23:30.25 | 2:47.35 | 105775 | 118334
8 | 26:17.60 | 10:13.12 | 118335 | 164321
9 | 36:30.72 | 2:01.28 | 164322 | 173424
10 | 38:32.25 | 3:26.62 | 173425 | 188936
11 | 41:59.12 | 3:52.28 | 188937 | 206364
12 | 45:51.40 | 5:00.10 | 206365 | 228874
13 | 50:51.50 | 3:54.67 | 228875 | 246491
14 | 54:46.42 | 8:08.25 | 246492 | 283116


Track 1

Filename H:\FLAC\The Rolling Stones - Never Stop (2CD) (2001) [FLAC] {A Vinyl Gang Product}\Disc 1\(1) Thake The A Trein - The Rolling Stones.flac

Pre-gap length 0:00:02.42

Peak level 80.7 %
Extraction speed 0.7 X
Track quality 100.0 %
Test CRC 30DA505B
Copy CRC 30DA505B
Accurately ripped (confidence 1) [E17E5A0D] (AR v2)
Copy OK

Track 2

Filename H:\FLAC\The Rolling Stones - Never Stop (2CD) (2001) [FLAC] {A Vinyl Gang Product}\Disc 1\(2) Under My Tumb - The Rolling Stones.flac

Peak level 97.1 %
Extraction speed 2.2 X
Track quality 100.0 %
Test CRC F5C46E1B
Copy CRC F5C46E1B
Accurately ripped (confidence 1) [7F36D26B] (AR v2)
Copy OK

Track 3

Filename H:\FLAC\The Rolling Stones - Never Stop (2CD) (2001) [FLAC] {A Vinyl Gang Product}\Disc 1\(3) When The Whip Comes Down - The Rolling Stones.flac

Peak level 74.1 %
Extraction speed 2.5 X
Track quality 100.0 %
Test CRC EFB8E21D
Copy CRC EFB8E21D
Accurately ripped (confidence 1) [716C8D67] (AR v2)
Copy OK

Track 4

Filename H:\FLAC\The Rolling Stones - Never Stop (2CD) (2001) [FLAC] {A Vinyl Gang Product}\Disc 1\(4) Let s Spend The Night Together - The Rolling Stones.flac

Peak level 70.7 %
Extraction speed 2.6 X
Track quality 100.0 %
Test CRC D5DB1BFC
Copy CRC D5DB1BFC
Accurately ripped (confidence 1) [FD491F24] (AR v2)
Copy OK

Track 5

Filename H:\FLAC\The Rolling Stones - Never Stop (2CD) (2001) [FLAC] {A Vinyl Gang Product}\Disc 1\(5) Shattered - The Rolling Stones.flac

Peak level 65.1 %
Extraction speed 2.8 X
Track quality 100.0 %
Test CRC 9D0436D0
Copy CRC 9D0436D0
Accurately ripped (confidence 1) [98D07C11] (AR v2)
Copy OK

Track 6

Filename H:\FLAC\The Rolling Stones - Never Stop (2CD) (2001) [FLAC] {A Vinyl Gang Product}\Disc 1\(6) Neighbours - The Rolling Stones.flac

Peak level 95.6 %
Extraction speed 2.9 X
Track quality 100.0 %
Test CRC E9E105C5
Copy CRC E9E105C5
Accurately ripped (confidence 1) [CB4FC166] (AR v2)
Copy OK

Track 7

Filename H:\FLAC\The Rolling Stones - Never Stop (2CD) (2001) [FLAC] {A Vinyl Gang Product}\Disc 1\(7) Blac Limosuine - The Rolling Stones.flac

Peak level 81.4 %
Extraction speed 2.9 X
Track quality 100.0 %
Test CRC C7B91DD6
Copy CRC C7B91DD6
Accurately ripped (confidence 1) [ABAA0535] (AR v2)
Copy OK

Track 8

Filename H:\FLAC\The Rolling Stones - Never Stop (2CD) (2001) [FLAC] {A Vinyl Gang Product}\Disc 1\(8) Just My Imagination - The Rolling Stones.flac

Peak level 86.1 %
Extraction speed 3.0 X
Track quality 99.9 %
Test CRC A6C252A0
Copy CRC A6C252A0
Accurately ripped (confidence 1) [63BAF338] (AR v2)
Copy OK

Track 9

Filename H:\FLAC\The Rolling Stones - Never Stop (2CD) (2001) [FLAC] {A Vinyl Gang Product}\Disc 1\(9) 20 Flight Rock - The Rolling Stones.flac

Peak level 64.5 %
Extraction speed 3.0 X
Track quality 100.0 %
Test CRC BBE5A96B
Copy CRC BBE5A96B
Accurately ripped (confidence 1) [5B268A57] (AR v2)
Copy OK

Track 10

Filename H:\FLAC\The Rolling Stones - Never Stop (2CD) (2001) [FLAC] {A Vinyl Gang Product}\Disc 1\(10) Going To A Go Go - The Rolling Stones.flac

Peak level 75.3 %
Extraction speed 3.0 X
Track quality 99.9 %
Test CRC D287D0DC
Copy CRC D287D0DC
Accurately ripped (confidence 1) [53A789BE] (AR v2)
Copy OK

Track 11

Filename H:\FLAC\The Rolling Stones - Never Stop (2CD) (2001) [FLAC] {A Vinyl Gang Product}\Disc 1\(11) Chantily Lace - The Rolling Stones.flac

Peak level 94.9 %
Extraction speed 3.1 X
Track quality 99.9 %
Test CRC A4230EDF
Copy CRC A4230EDF
Accurately ripped (confidence 1) [5E8FD730] (AR v2)
Copy OK

Track 12

Filename H:\FLAC\The Rolling Stones - Never Stop (2CD) (2001) [FLAC] {A Vinyl Gang Product}\Disc 1\(12) Let Me Go - The Rolling Stones.flac

Peak level 93.1 %
Extraction speed 1.9 X
Track quality 99.9 %
Test CRC 52BF4BED
Copy CRC 52BF4BED
Accurately ripped (confidence 1) [1769BA80] (AR v2)
Copy OK

Track 13

Filename H:\FLAC\The Rolling Stones - Never Stop (2CD) (2001) [FLAC] {A Vinyl Gang Product}\Disc 1\(13) Time Is On My Side - The Rolling Stones.flac

Peak level 83.1 %
Extraction speed 2.1 X
Track quality 100.0 %
Test CRC BB94F8F8
Copy CRC BB94F8F8
Accurately ripped (confidence 1) [16700FBE] (AR v2)
Copy OK

Track 14

Filename H:\FLAC\The Rolling Stones - Never Stop (2CD) (2001) [FLAC] {A Vinyl Gang Product}\Disc 1\(14) Beast Of Burden - The Rolling Stones.flac

Peak level 73.4 %
Extraction speed 2.3 X
Track quality 100.0 %
Test CRC CEBA3DB8
Copy CRC CEBA3DB8
Accurately ripped (confidence 1) [61ECC282] (AR v2)
Copy OK


All tracks accurately ripped

No errors occurred

End of status report

==== Log checksum 76A47F160372956F8DFACE3606F5F8844B14AAE15FECC6D1202D1503DA86B2B7 ====







Exact Audio Copy V1.0 beta 3 from 29. August 2011

EAC extraction logfile from 24. June 2014, 4:43

The Rolling Stones / Never Stop Bootleg Cd2

Used drive : HL-DT-STDVDRAM GSA-T40N Adapter: 0 ID: 0

Read mode : Secure
Utilize accurate stream : Yes
Defeat audio cache : Yes
Make use of C2 pointers : No

Read offset correction : 667
Overread into Lead-In and Lead-Out : No
Fill up missing offset samples with silence : Yes
Delete leading and trailing silent blocks : No
Null samples used in CRC calculations : Yes
Used interface : Native Win32 interface for Win NT & 2000
Gap handling : Appended to previous track

Used output format : User Defined Encoder
Selected bitrate : 896 kBit/s
Quality : High
Add ID3 tag : No
Command line compressor : C:\Program Files\Exact Audio Copy\FLAC\FLAC.EXE
Additional command line options : -8 -V -T "ARTIST=%artist%" -T "TITLE=%title%" -T "ALBUM=%albumtitle%" -T "DATE=%year%" -T "TRACKNUMBER=%tracknr%" -T "GENRE=%genre%" -T "COMMENT=%comment%" -T "BAND=%albuminterpret%" -T "ALBUMARTIST=%albuminterpret%" -T "COMPOSER=%composer%" %haslyrics%–tag-from-file=LYRICS="%lyricsfile%"%haslyrics% -T "DISCNUMBER=%cdnumber%" -T "TOTALDISCS=%totalcds%" -T "TOTALTRACKS=%numtracks%" %hascover%–picture="%coverfile%"%hascover% %source% -o %dest%


TOC of the extracted CD

Track | Start | Length | Start sector | End sector
––––––––––––––––––––––––––––-
1 | 0:00.33 | 8:06.65 | 33 | 36547
2 | 8:07.23 | 12:38.05 | 36548 | 93402
3 | 20:45.28 | 3:18.22 | 93403 | 108274
4 | 24:03.50 | 4:32.28 | 108275 | 128702
5 | 28:36.03 | 4:21.27 | 128703 | 148304
6 | 32:57.30 | 2:36.60 | 148305 | 160064
7 | 35:34.15 | 8:14.70 | 160065 | 197184
8 | 43:49.10 | 3:46.00 | 197185 | 214134
9 | 47:35.10 | 3:59.18 | 214135 | 232077
10 | 51:34.28 | 4:44.57 | 232078 | 253434
11 | 56:19.10 | 7:57.23 | 253435 | 289232
12 | 64:16.33 | 6:08.10 | 289233 | 316842
13 | 70:24.43 | 2:36.27 | 316843 | 328569


Track 1

Filename H:\FLAC\The Rolling Stones - Never Stop (2CD) (2001) [FLAC] {A Vinyl Gang Product}\Disc 2\(1) Let It Bleed - The Rolling Stones.flac

Pre-gap length 0:00:02.44

Peak level 99.6 %
Extraction speed 2.4 X
Track quality 100.0 %
Test CRC 61C13F8F
Copy CRC 61C13F8F
Accurately ripped (confidence 1) [CB33A587] (AR v2)
Copy OK

Track 2

Filename H:\FLAC\The Rolling Stones - Never Stop (2CD) (2001) [FLAC] {A Vinyl Gang Product}\Disc 2\(2) You can t Alwais Get What You Want - The Rolling Stones.flac

Peak level 71.6 %
Extraction speed 2.9 X
Track quality 100.0 %
Test CRC 2D2B45B3
Copy CRC 2D2B45B3
Accurately ripped (confidence 1) [F316C317] (AR v2)
Copy OK

Track 3

Filename H:\FLAC\The Rolling Stones - Never Stop (2CD) (2001) [FLAC] {A Vinyl Gang Product}\Disc 2\(3) Little Tits And Ass - The Rolling Stones.flac

Peak level 46.2 %
Extraction speed 2.9 X
Track quality 100.0 %
Test CRC 49E7BE84
Copy CRC 49E7BE84
Accurately ripped (confidence 1) [C4534AE1] (AR v2)
Copy OK

Track 4

Filename H:\FLAC\The Rolling Stones - Never Stop (2CD) (2001) [FLAC] {A Vinyl Gang Product}\Disc 2\(4) Tumbling Dice - The Rolling Stones.flac

Pre-gap length 0:00:01.00

Peak level 79.0 %
Extraction speed 3.1 X
Track quality 100.0 %
Test CRC 55A50C57
Copy CRC 55A50C57
Accurately ripped (confidence 1) [BE84BD4B] (AR v2)
Copy OK

Track 5

Filename H:\FLAC\The Rolling Stones - Never Stop (2CD) (2001) [FLAC] {A Vinyl Gang Product}\Disc 2\(5) She s so Cold - The Rolling Stones.flac

Peak level 80.1 %
Extraction speed 2.6 X
Track quality 100.0 %
Test CRC 90CFB001
Copy CRC 90CFB001
Accurately ripped (confidence 1) [E24A3F47] (AR v2)
Copy OK

Track 6

Filename H:\FLAC\The Rolling Stones - Never Stop (2CD) (2001) [FLAC] {A Vinyl Gang Product}\Disc 2\(6) Hang Fire - The Rolling Stones.flac

Peak level 65.6 %
Extraction speed 2.5 X
Track quality 100.0 %
Test CRC C9E9B245
Copy CRC C9E9B245
Accurately ripped (confidence 1) [1D66CAA8] (AR v2)
Copy OK

Track 7

Filename H:\FLAC\The Rolling Stones - Never Stop (2CD) (2001) [FLAC] {A Vinyl Gang Product}\Disc 2\(7) Miss You - The Rolling Stones.flac

Peak level 56.9 %
Extraction speed 2.9 X
Track quality 100.0 %
Test CRC 06217C84
Copy CRC 06217C84
Accurately ripped (confidence 1) [C3DE32B5] (AR v2)
Copy OK

Track 8

Filename H:\FLAC\The Rolling Stones - Never Stop (2CD) (2001) [FLAC] {A Vinyl Gang Product}\Disc 2\(8) Honky Tonk Women - The Rolling Stones.flac

Peak level 57.8 %
Extraction speed 2.7 X
Track quality 100.0 %
Test CRC 71186588
Copy CRC 71186588
Accurately ripped (confidence 1) [BDEF2DD3] (AR v2)
Copy OK

Track 9

Filename H:\FLAC\The Rolling Stones - Never Stop (2CD) (2001) [FLAC] {A Vinyl Gang Product}\Disc 2\(9) Brown Sugar - The Rolling Stones.flac

Peak level 97.4 %
Extraction speed 3.0 X
Track quality 100.0 %
Test CRC 3999A42A
Copy CRC 3999A42A
Accurately ripped (confidence 1) [0DD3D4F6] (AR v2)
Copy OK

Track 10

Filename H:\FLAC\The Rolling Stones - Never Stop (2CD) (2001) [FLAC] {A Vinyl Gang Product}\Disc 2\(10) Start Me Up - The Rolling Stones.flac

Peak level 78.0 %
Extraction speed 3.1 X
Track quality 100.0 %
Test CRC DD6AD5FB
Copy CRC DD6AD5FB
Accurately ripped (confidence 1) [40021817] (AR v2)
Copy OK

Track 11

Filename H:\FLAC\The Rolling Stones - Never Stop (2CD) (2001) [FLAC] {A Vinyl Gang Product}\Disc 2\(11) Jumping Jack Flash - The Rolling Stones.flac

Peak level 67.0 %
Extraction speed 3.3 X
Track quality 100.0 %
Test CRC 1500E65A
Copy CRC 1500E65A
Accurately ripped (confidence 1) [2667C9AC] (AR v2)
Copy OK

Track 12

Filename H:\FLAC\The Rolling Stones - Never Stop (2CD) (2001) [FLAC] {A Vinyl Gang Product}\Disc 2\(12) I can gat No - Satisfaction - The Rolling Stones.flac

Peak level 61.6 %
Extraction speed 2.8 X
Track quality 99.9 %
Test CRC 41F7FD59
Copy CRC 41F7FD59
Accurately ripped (confidence 1) [DB57BC10] (AR v2)
Copy OK

Track 13

Filename H:\FLAC\The Rolling Stones - Never Stop (2CD) (2001) [FLAC] {A Vinyl Gang Product}\Disc 2\(13) Overture 1812 - The Rolling Stones.flac

Peak level 65.7 %
Extraction speed 2.4 X
Track quality 99.9 %
Test CRC 8D351C70
Copy CRC 8D351C70
Accurately ripped (confidence 1) [A99E996A] (AR v2)
Copy OK


All tracks accurately ripped

No errors occurred

End of status report

==== Log checksum A9DA07BB8804E7663E1A165CA22C17A12C24EA304A1820441E52DCF7B1D3FA9F ====


The Rolling Stones - Never Stop (2CD) (2001) {A Vinyl Gang Product} **[RE-UP]**


Thank you to the original uploader.