Subcategories

The Red Garland Quintet - All Mornin' Long (1957) {2001 20bit K2 Super Coding} **[RE-UP]**

Posted By: TestTickles
The Red Garland Quintet - All Mornin' Long (1957) {2001 20bit K2 Super Coding} **[RE-UP]**

The Red Garland Quintet - All Mornin' Long (1957) {2001 20bit K2 Super Coding}
EAC Rip | FLAC with CUE and log | scans | 152 mb
MP3 CBR 320kbps | RAR | 81 mb
Genre: jazz

All Mornin' Long is the 1957 album by The Red Garland Quintet. Along with Red Gerland, the quintet consists of John Coltrane, Donald Byrd, Arthur Taylor, and George Joyner. This is from a 2001 CD pressing made by Prestige/Fantasy Jazz, pressed with 20bit K2 Super Coding. Only 10,000 copies were made of this pressing.
On November 15, 1957, a quintet headed by pianist Red Garland recorded enough material for two records. This CD (whose companion is Soul Junction) has a 20-minute version of "All Mornin' Long," along with briefer renditions of "They Can't Take That Away from Me" (a mere ten minutes) and Tadd Dameron's "Our Delight." More important than the material is that, in addition to Garland, the main soloists are John Coltrane and trumpeter Donald Byrd. Byrd was on his way to getting his sound together, while Trane, very much in his sheets-of-sound period, was already blazing a new path for jazz to follow. An excellent and often quite colorful jam session-flavored hard bop set.

The Red Garland Quintet - All Mornin' Long (1957) {2001 20bit K2 Super Coding} **[RE-UP]**

1. All Mornin' Long (20:17)
2. They Can't Take That Away From Me (10:25)
3. Our Delight (6:18)

EAC extraction logfile from 15. September 2007, 16:11 for CD
The Red Garland Quintet / All Mornin' Long

Used drive : LITE-ON DVDRW SOHW-1633S Adapter: 0 ID: 0
Read mode : Secure with NO C2, accurate stream, disable cache
Read offset correction : 12
Overread into Lead-In and Lead-Out : No

Used output format : Internal WAV Routines
44.100 Hz; 16 Bit; Stereo

Other options :
Fill up missing offset samples with silence : Yes
Delete leading and trailing silent blocks : No
Installed external ASPI interface


Track 1
Filename D:\FLAC\The Red Garland Quintet - All Mornin' Long (1957) [FLAC] {2001 20bit K2 Super Coding}\01 - All Mornin' Long.wav

Pre-gap length 0:00:02.00

Peak level 98.0 %
Track quality 99.9 %
Test CRC 68CFA83C
Copy CRC 68CFA83C
Copy OK

Track 2
Filename D:\FLAC\The Red Garland Quintet - All Mornin' Long (1957) [FLAC] {2001 20bit K2 Super Coding}\02 - They Can't Take That Away From Me.wav

Pre-gap length 0:00:02.46

Peak level 98.0 %
Track quality 100.0 %
Test CRC 284243F0
Copy CRC 284243F0
Copy OK

Track 3
Filename D:\FLAC\The Red Garland Quintet - All Mornin' Long (1957) [FLAC] {2001 20bit K2 Super Coding}\03 - Our Delight.wav

Pre-gap length 0:00:02.46

Peak level 98.0 %
Track quality 100.0 %
Test CRC 8FE59038
Copy CRC 8FE59038
Copy OK

No errors occured


End of status report


The Red Garland Quintet - All Mornin' Long (1957) {2001 20bit K2 Super Coding} **[RE-UP]**