VA - Relativity/Combat/In-Effect Sampler (3CD) (1990)

Posted By: TestTickles
VA - Relativity/Combat/In-Effect Sampler (3CD) (1990)

VA - Relativity/Combat/In-Effect Sampler (3CD) (1990)
EAC Rip | FLAC with CUE and log | scans | 1.05 gb (550 mb + 495 mb)
MP3 CBR 320kbps | RAR | 398 mb
Genre: alternative, indie rock, heavy metal, thrash metal, speed metal, hard rock, heavy metal, showtunes

Relativity/Combat/In-Effect Sampler is a 3CD sampler set released in 1990. It comes from the Relativity label and two of its subsidiaries, the heavy metal label Combat Records and the then-brand new In-Effect Records, focusing on black funk, black rock, hardcore and punk. Each disc focuses on a different label.

VA - Relativity/Combat/In-Effect Sampler (3CD) (1990)

DISC 1: Relativity
01. Joe Satriani - Flying In A Blue Dream
02. Joe Satriani - Can't Slow Down
03. Steve Vai - The Audience Is Listening
04. Steve Vai - I Would Love To
05. Stuart Hamm - I Want To Know
06. Stuart Hamm - Black Ice
07. Scott Henderson - Nomad
08. Scott Henderson - No, No, No
09. Les Misérables Ensemble - One Day More!
10. Colm Wilkinson - Bring Him Home

DISC 2: Compact
01. Forbidden - Tossed Away
02. Forbidden - Step By Step
03. Two-Bit Thief - Hard Times
04. Two-Bit Thief - Industry
05. C.I.A. - Turn To Stone
06. C.I.A. - N.A.S.A.
07. Dark Angel - We Have Arrived (Live)
08. Dark Angel - The Burning Of Sodom (Live)
09. Death - Spiritual Healing
10. Death - Defensive Personalities
11. Forced Entry - Bludgeon
12. Forced Entry - Morgulon
13. Devastation - Signs Of Life
14. D.B.C. - Genesis Explosion

DISC 3: In-Effect
01. 24-7 Spyz - Don't Break My Heart
02. 24-7 Spyz - Deathstyle
03. Scatterbrain - Mr. Johnson & The Juice Crew
04. Scatterbrain - Down With The Ship (Slight Return)
05. Limbomaniacs - Shake It
06. Limbomaniacs - Maniac
07. Nuclear Assault - Trail Of Tears
08. Nuclear Assault - Surgery
09. Sick Of It All - G.I. Joe Headstomp
10. Sick Of It All - Alone
11. Killing Time - Fools Die
12. Killing Time - What I Want

EAC extraction logfile from 1. March 2017, 11:10 for CD
Various / Relativity/Combat/In-Effect Sampler (Disc 1)

Used drive : TSSTcorpDVD+-RW TS-H653B Adapter: 2 ID: 0
Read mode : Secure with NO C2, accurate stream, disable cache
Read offset correction : 6
Overread into Lead-In and Lead-Out : No

Used output format : Internal WAV Routines
44.100 Hz; 16 Bit; Stereo

Other options :
Fill up missing offset samples with silence : Yes
Delete leading and trailing silent blocks : No
Native Win32 interface for Win NT & 2000


Track 1
Filename C:\Documents and Settings\John Book\Desktop\VA - Relativity, Combat, In-Effect Sampler (3CD) (1990) [FLAC]\Disc 1\01 - Joe Satriani - Flying In A Blue Dream.wav

Pre-gap length 0:00:02.20

Peak level 82.4 %
Track quality 99.9 %
Test CRC 5CB6CA0C
Copy CRC 5CB6CA0C
Copy OK

Track 2
Filename C:\Documents and Settings\John Book\Desktop\VA - Relativity, Combat, In-Effect Sampler (3CD) (1990) [FLAC]\Disc 1\02 - Joe Satriani - Can't Slow Down.wav

Pre-gap length 0:00:02.64

Peak level 80.5 %
Track quality 100.0 %
Test CRC 8BE745E7
Copy CRC 8BE745E7
Copy OK

Track 3
Filename C:\Documents and Settings\John Book\Desktop\VA - Relativity, Combat, In-Effect Sampler (3CD) (1990) [FLAC]\Disc 1\03 - Steve Vai - The Audience Is Listening.wav

Pre-gap length 0:00:01.93

Peak level 55.3 %
Track quality 99.9 %
Test CRC CEFC7A7C
Copy CRC CEFC7A7C
Copy OK

Track 4
Filename C:\Documents and Settings\John Book\Desktop\VA - Relativity, Combat, In-Effect Sampler (3CD) (1990) [FLAC]\Disc 1\04 - Steve Vai - I Would Love To.wav

Peak level 56.9 %
Track quality 100.0 %
Test CRC A9B61367
Copy CRC A9B61367
Copy OK

Track 5
Filename C:\Documents and Settings\John Book\Desktop\VA - Relativity, Combat, In-Effect Sampler (3CD) (1990) [FLAC]\Disc 1\05 - Stuart Hamm - I Want To Know.wav

Pre-gap length 0:00:01.80

Peak level 84.7 %
Track quality 100.0 %
Test CRC 11FC2899
Copy CRC 11FC2899
Copy OK

Track 6
Filename C:\Documents and Settings\John Book\Desktop\VA - Relativity, Combat, In-Effect Sampler (3CD) (1990) [FLAC]\Disc 1\06 - Stuart Hamm - Black Ice.wav

Pre-gap length 0:00:02.20

Peak level 81.1 %
Track quality 100.0 %
Test CRC 323B16DE
Copy CRC 323B16DE
Copy OK

Track 7
Filename C:\Documents and Settings\John Book\Desktop\VA - Relativity, Combat, In-Effect Sampler (3CD) (1990) [FLAC]\Disc 1\07 - Scott Henderson - Nomad.wav

Pre-gap length 0:00:01.86

Peak level 94.3 %
Track quality 99.9 %
Test CRC 08AB7BDE
Copy CRC 08AB7BDE
Copy OK

Track 8
Filename C:\Documents and Settings\John Book\Desktop\VA - Relativity, Combat, In-Effect Sampler (3CD) (1990) [FLAC]\Disc 1\08 - Scott Henderson - No, No, No.wav

Pre-gap length 0:00:02.64

Peak level 88.0 %
Track quality 100.0 %
Test CRC 2111C87E
Copy CRC 2111C87E
Copy OK

Track 9
Filename C:\Documents and Settings\John Book\Desktop\VA - Relativity, Combat, In-Effect Sampler (3CD) (1990) [FLAC]\Disc 1\09 - Les Miserables, The Complete Symphonic

Recording - One Day More!.wav

Pre-gap length 0:00:02.30

Peak level 91.3 %
Track quality 100.0 %
Test CRC 0B59A32D
Copy CRC 0B59A32D
Copy OK

Track 10
Filename C:\Documents and Settings\John Book\Desktop\VA - Relativity, Combat, In-Effect Sampler (3CD) (1990) [FLAC]\Disc 1\10 - Les Miserables, The Complete Symphonic

Recording - Bring Him Home.wav

Pre-gap length 0:00:02.16

Peak level 82.4 %
Track quality 100.0 %
Test CRC A666A5A1
Copy CRC A666A5A1
Copy OK

No errors occured


End of status report







EAC extraction logfile from 1. March 2017, 9:15 for CD
Various / Relativity/Combat/In-Effect Sampler (Disc 2)

Used drive : TSSTcorpDVD+-RW TS-H653B Adapter: 2 ID: 0
Read mode : Secure with NO C2, accurate stream, disable cache
Read offset correction : 6
Overread into Lead-In and Lead-Out : No

Used output format : Internal WAV Routines
44.100 Hz; 16 Bit; Stereo

Other options :
Fill up missing offset samples with silence : Yes
Delete leading and trailing silent blocks : No
Native Win32 interface for Win NT & 2000


Track 1
Filename C:\Documents and Settings\John Book\Desktop\VA - Relativity, Combat, In-Effect Sampler (3CD) (1990) [FLAC]\Disc 2\01 - Forbidden - Tossed Away.wav

Pre-gap length 0:00:02.49

Peak level 97.1 %
Track quality 100.0 %
Test CRC AE8A1ACE
Copy CRC AE8A1ACE
Copy OK

Track 2
Filename C:\Documents and Settings\John Book\Desktop\VA - Relativity, Combat, In-Effect Sampler (3CD) (1990) [FLAC]\Disc 2\02 - Forbidden - Step By Step.wav

Pre-gap length 0:00:01.80

Peak level 88.0 %
Track quality 100.0 %
Test CRC A1598C39
Copy CRC A1598C39
Copy OK

Track 3
Filename C:\Documents and Settings\John Book\Desktop\VA - Relativity, Combat, In-Effect Sampler (3CD) (1990) [FLAC]\Disc 2\03 - Two-Bit Thief - Hard Times.wav

Pre-gap length 0:00:01.97

Peak level 100.0 %
Track quality 100.0 %
Test CRC C34B4ABA
Copy CRC C34B4ABA
Copy OK

Track 4
Filename C:\Documents and Settings\John Book\Desktop\VA - Relativity, Combat, In-Effect Sampler (3CD) (1990) [FLAC]\Disc 2\04 - Two-Bit Thief - Industry.wav

Pre-gap length 0:00:01.93

Peak level 99.2 %
Track quality 100.0 %
Test CRC 0CCF930E
Copy CRC 0CCF930E
Copy OK

Track 5
Filename C:\Documents and Settings\John Book\Desktop\VA - Relativity, Combat, In-Effect Sampler (3CD) (1990) [FLAC]\Disc 2\05 - C.I.A. - Turn To Stone.wav

Pre-gap length 0:00:01.40

Peak level 78.9 %
Track quality 99.9 %
Test CRC 78286646
Copy CRC 78286646
Copy OK

Track 6
Filename C:\Documents and Settings\John Book\Desktop\VA - Relativity, Combat, In-Effect Sampler (3CD) (1990) [FLAC]\Disc 2\06 - C.I.A. - N.A.S.A..wav

Pre-gap length 0:00:01.89

Peak level 78.2 %
Track quality 100.0 %
Test CRC 2589B147
Copy CRC 2589B147
Copy OK

Track 7
Filename C:\Documents and Settings\John Book\Desktop\VA - Relativity, Combat, In-Effect Sampler (3CD) (1990) [FLAC]\Disc 2\07 - Dark Angel - We Have Arrived (Live).wav

Pre-gap length 0:00:01.06

Peak level 91.4 %
Track quality 99.9 %
Test CRC 76720DAC
Copy CRC 3DA5663E
Copy OK

Track 8
Filename C:\Documents and Settings\John Book\Desktop\VA - Relativity, Combat, In-Effect Sampler (3CD) (1990) [FLAC]\Disc 2\08 - Dark Angel - The Burning Of Sodom (Live).wav

Peak level 95.3 %
Track quality 99.9 %
Test CRC 8329133F
Copy CRC 8329133F
Copy OK

Track 9
Filename C:\Documents and Settings\John Book\Desktop\VA - Relativity, Combat, In-Effect Sampler (3CD) (1990) [FLAC]\Disc 2\09 - Death - Spiritual Healing.wav

Pre-gap length 0:00:02.26

Peak level 91.5 %
Track quality 99.9 %
Test CRC 16164EBB
Copy CRC 16164EBB
Copy OK

Track 10
Filename C:\Documents and Settings\John Book\Desktop\VA - Relativity, Combat, In-Effect Sampler (3CD) (1990) [FLAC]\Disc 2\10 - Death - Defensive Personalities.wav

Pre-gap length 0:00:01.40

Peak level 88.0 %
Track quality 100.0 %
Test CRC DD281F5C
Copy CRC DD281F5C
Copy OK

Track 11
Filename C:\Documents and Settings\John Book\Desktop\VA - Relativity, Combat, In-Effect Sampler (3CD) (1990) [FLAC]\Disc 2\11 - Forced Entry - Bludgeon.wav

Pre-gap length 0:00:01.40

Peak level 90.7 %
Track quality 100.0 %
Test CRC E8A3A75E
Copy CRC E8A3A75E
Copy OK

Track 12
Filename C:\Documents and Settings\John Book\Desktop\VA - Relativity, Combat, In-Effect Sampler (3CD) (1990) [FLAC]\Disc 2\12 - Forced Entry - Morgulon.wav

Pre-gap length 0:00:02.20

Peak level 100.0 %
Track quality 100.0 %
Test CRC 7714785B
Copy CRC 7714785B
Copy OK

Track 13
Filename C:\Documents and Settings\John Book\Desktop\VA - Relativity, Combat, In-Effect Sampler (3CD) (1990) [FLAC]\Disc 2\13 - Devastation - Signs Of Life.wav

Pre-gap length 0:00:01.02

Peak level 75.2 %
Track quality 100.0 %
Test CRC 902A3DAE
Copy CRC 902A3DAE
Copy OK

Track 14
Filename C:\Documents and Settings\John Book\Desktop\VA - Relativity, Combat, In-Effect Sampler (3CD) (1990) [FLAC]\Disc 2\14 - D.B.C. - Genesis Explosion.wav

Pre-gap length 0:00:02.26

Peak level 100.0 %
Track quality 100.0 %
Test CRC F0BF4A9D
Copy CRC F0BF4A9D
Copy OK

No errors occured


End of status report







EAC extraction logfile from 1. March 2017, 10:48 for CD
Various Artists / Relativity/Combat/In-Effect Sampler (Disc 3)

Used drive : TSSTcorpDVD+-RW TS-H653B Adapter: 2 ID: 0
Read mode : Secure with NO C2, accurate stream, disable cache
Read offset correction : 6
Overread into Lead-In and Lead-Out : No

Used output format : Internal WAV Routines
44.100 Hz; 16 Bit; Stereo

Other options :
Fill up missing offset samples with silence : Yes
Delete leading and trailing silent blocks : No
Native Win32 interface for Win NT & 2000


Track 1
Filename C:\Documents and Settings\John Book\Desktop\VA - Relativity, Combat, In-Effect Sampler (3CD) (1990) [FLAC]\Disc 3\01 - 24-7 Spyz - Don't Break My Heart.wav

Pre-gap length 0:00:02.66

Peak level 93.3 %
Track quality 99.9 %
Test CRC B444C4E9
Copy CRC B444C4E9
Copy OK

Track 2
Filename C:\Documents and Settings\John Book\Desktop\VA - Relativity, Combat, In-Effect Sampler (3CD) (1990) [FLAC]\Disc 3\02 - 24-7 Spyz - Deathstyle.wav

Pre-gap length 0:00:01.96

Peak level 95.5 %
Track quality 100.0 %
Test CRC D3F99BAA
Copy CRC D3F99BAA
Copy OK

Track 3
Filename C:\Documents and Settings\John Book\Desktop\VA - Relativity, Combat, In-Effect Sampler (3CD) (1990) [FLAC]\Disc 3\03 - Scatterbrain - Mr. Johnson & The Juice

Crew.wav

Pre-gap length 0:00:01.50

Peak level 93.3 %
Track quality 100.0 %
Test CRC DE1D220F
Copy CRC DE1D220F
Copy OK

Track 4
Filename C:\Documents and Settings\John Book\Desktop\VA - Relativity, Combat, In-Effect Sampler (3CD) (1990) [FLAC]\Disc 3\04 - Scatterbrain - Down With The Ship (Slight

Return).wav

Pre-gap length 0:00:02.09

Peak level 86.5 %
Track quality 100.0 %
Test CRC F081F0B4
Copy CRC F081F0B4
Copy OK

Track 5
Filename C:\Documents and Settings\John Book\Desktop\VA - Relativity, Combat, In-Effect Sampler (3CD) (1990) [FLAC]\Disc 3\05 - Limbomaniacs - Shake It.wav

Pre-gap length 0:00:02.40

Peak level 92.6 %
Track quality 100.0 %
Test CRC 3A7D8500
Copy CRC 3A7D8500
Copy OK

Track 6
Filename C:\Documents and Settings\John Book\Desktop\VA - Relativity, Combat, In-Effect Sampler (3CD) (1990) [FLAC]\Disc 3\06 - Limbomaniacs - Maniac.wav

Pre-gap length 0:00:02.04

Peak level 95.0 %
Track quality 100.0 %
Test CRC D73CDF1E
Copy CRC D73CDF1E
Copy OK

Track 7
Filename C:\Documents and Settings\John Book\Desktop\VA - Relativity, Combat, In-Effect Sampler (3CD) (1990) [FLAC]\Disc 3\07 - Nuclear Assault - Trail Of Tears.wav

Pre-gap length 0:00:02.24

Peak level 99.9 %
Track quality 100.0 %
Test CRC 8F8B9C33
Copy CRC 8F8B9C33
Copy OK

Track 8
Filename C:\Documents and Settings\John Book\Desktop\VA - Relativity, Combat, In-Effect Sampler (3CD) (1990) [FLAC]\Disc 3\08 - Nuclear Assault - Surgery.wav

Pre-gap length 0:00:01.69

Peak level 90.5 %
Track quality 100.0 %
Test CRC 653C05E6
Copy CRC 653C05E6
Copy OK

Track 9
Filename C:\Documents and Settings\John Book\Desktop\VA - Relativity, Combat, In-Effect Sampler (3CD) (1990) [FLAC]\Disc 3\09 - Sick Of It All - G.I. Joe Headstomp.wav

Pre-gap length 0:00:02.20

Peak level 100.0 %
Track quality 100.0 %
Test CRC 3F1C3797
Copy CRC 3F1C3797
Copy OK

Track 10
Filename C:\Documents and Settings\John Book\Desktop\VA - Relativity, Combat, In-Effect Sampler (3CD) (1990) [FLAC]\Disc 3\10 - Sick Of It All - Alone.wav

Peak level 100.0 %
Track quality 100.0 %
Test CRC 0B76ABE5
Copy CRC 0B76ABE5
Copy OK

Track 11
Filename C:\Documents and Settings\John Book\Desktop\VA - Relativity, Combat, In-Effect Sampler (3CD) (1990) [FLAC]\Disc 3\11 - Killing Time - Fools Die.wav

Pre-gap length 0:00:01.86

Peak level 78.6 %
Track quality 100.0 %
Test CRC EBA07A60
Copy CRC EBA07A60
Copy OK

Track 12
Filename C:\Documents and Settings\John Book\Desktop\VA - Relativity, Combat, In-Effect Sampler (3CD) (1990) [FLAC]\Disc 3\12 - Killing Time - What I Want.wav

Pre-gap length 0:00:01.60

Peak level 78.5 %
Track quality 100.0 %
Test CRC 741D4EF5
Copy CRC 741D4EF5
Copy OK

No errors occured


End of status report


VA - Relativity/Combat/In-Effect Sampler (3CD) (1990)