Subcategories

Rahul Sharma - Music Of The Himalayas (2002) {RealWorld} **[RE-UP]**

Posted By: TestTickles
Rahul Sharma - Music Of The Himalayas (2002) {RealWorld} **[RE-UP]**

Rahul Sharma - Music Of The Himalayas (2002) {RealWorld}
EAC Rip | FLAC with CUE and log | scans | 414mb
MP3 CBR 320kbps | RAR | 190mb
Genre: Indian classical, world

Music Of The Himalayas is a 2002 CD by Rahul Sharma, who plays the santoor. He is joined by Ustad Shafat Ahmed Khan on tabla and Pandit Bhawani Shankar on pakjawaj, hudka, and ghungroo (folk percussion). This was recorded live at Festival Settembre Musica, Turin, Italy on 13 September, 2000. The CD was released by Real World.
Rahul Kumar Sharma is a master of the santoor, India's oldest stringed instrument and an ancestor of the hammered dulcimer, and this live album shows the extent of his virtuosity. Accompanied by a tabla player, he shimmers over the melodies (which come from the region of the Himalayas – hence the title), letting the sounds ebb and flow. Whether tracing a slow tune or spiraling into a ravishing, dizzying improvisation , his command is complete – as is his communication with his musical partner. The way they work together on the long 'Melody of Kashmir in Contemporary Music' is nothing less than stunning; both together and alone they create a total sound, pushing each other along, and taking solos that seem to defy the possibilities of their instruments. It's a tour de force – but that's true of the entire disc, an object lesson in both the santoor and the playing of ragas and folk tunes.

Rahul Sharma - Music Of The Himalayas (2002) {RealWorld} **[RE-UP]**

1. Maqam-E-Navaa (Sufyana Musiqi)
2. Melody Of Kashmir
3. Melody Of Jammu & Kashmir
4. Melody Of Kashmir In Contemporary Music

EAC extraction logfile from 16. November 2006, 0:41 for CD
Rahul Sharma / Music Of The Himalayas

Used drive : LITE-ON DVDRW SOHW-1633S Adapter: 0 ID: 0
Read mode : Secure with NO C2, accurate stream, disable cache
Read offset correction : 12
Overread into Lead-In and Lead-Out : No

Used output format : Internal WAV Routines
44.100 Hz; 16 Bit; Stereo

Other options :
Fill up missing offset samples with silence : Yes
Delete leading and trailing silent blocks : No
Installed external ASPI interface


Track 1
Filename D:\FLAC\Rahul Sharma - Music Of The Himalayas (2002) [FLAC] {RealWorld}\01 - Maqam-E-Navaa (Sufyana Musiqi).wav

Pre-gap length 0:00:02.00

Peak level 99.1 %
Track quality 100.0 %
Test CRC 82ACAE70
Copy CRC 82ACAE70
Copy OK

Track 2
Filename D:\FLAC\Rahul Sharma - Music Of The Himalayas (2002) [FLAC] {RealWorld}\02 - Melody Of Kashmir.wav

Pre-gap length 0:00:03.02

Peak level 99.4 %
Track quality 100.0 %
Test CRC 9AC533B2
Copy CRC 9AC533B2
Copy OK

Track 3
Filename D:\FLAC\Rahul Sharma - Music Of The Himalayas (2002) [FLAC] {RealWorld}\03 - Melody Of Jammu & Kashmir.wav

Pre-gap length 0:00:02.94

Peak level 99.4 %
Track quality 99.9 %
Test CRC B604B22D
Copy CRC B604B22D
Copy OK

Track 4
Filename D:\FLAC\Rahul Sharma - Music Of The Himalayas (2002) [FLAC] {RealWorld}\04 - Melody Of Kashmir In Contemporary Music.wav

Pre-gap length 0:00:00.38

Peak level 99.4 %
Track quality 100.0 %
Test CRC C4550F38
Copy CRC C4550F38
Copy OK

No errors occured


End of status report


Rahul Sharma - Music Of The Himalayas (2002) {RealWorld} **[RE-UP]**


Check out other titles in my Avaxhome blog