Subcategories

Randy Graves - Your Mixed Up Didjeridu Companion (2003) {Ginger Root} **[RE-UP]**

Posted By: TestTickles
Randy Graves - Your Mixed Up Didjeridu Companion (2003) {Ginger Root} **[RE-UP]**

Randy Graves - Your Mixed Up Didjeridu Companion (2003) {Ginger Root}
EAC Rip | FLAC with CUE and log | scans | 371 mb
MP3 CBR 320kbps | RAR | 177 mb
Genre: world, instructional

Your Mixed Up Didjeridu Companion is a 2003 instructional CD by American didjeridu master Randy Graves. It features examples of his playing plus deep songs for listening pleasure. This was released by Ginger Root Records.

Randy Graves - Your Mixed Up Didjeridu Companion (2003) {Ginger Root} **[RE-UP]**

1. Introduction to Basic Variations
2. Variation A Slow - Dow ' taka dow
3. Variation A Fast - Dow ' taka dow
4. Variation B Slow - Dow dow ' taka
5. Variation B Fast - Dow dow ' taka
6. Variation C Slow - taka dow dow '
7. Variation C Fast - taka dow dow '
8. Variation D Slow - ' taka dow dow
9. Variation D Fast - ' taka dow dow
10. Intro to Double-Length Rhythms
11. A+B Slow - Dow ' taka dow Dow dow ' taka
12. A+B Fast - Dow ' taka dow Dow dow ' taka
13. A+C Slow - Dow ' taka dow Taka dow dow '
14. A+C Fast - Dow ' taka dow Taka dow dow '
15. A+D Slow - Dow ' taka dow ' taka dow dow
16. A+D Fast - Dow ' taka dow ' taka dow dow
17. B+C Slow - Dow dow ' taka Taka dow dow '
18. B+C Fast - Dow dow ' taka Taka dow dow '
19. B+D Slow - Dow dow ' taka ' taka dow dow
20. B+D Fast - Dow dow ' taka ' taka dow dow
21. Intro to Quadruple-Length Rhythm
22. DCBASlow-'taka dow dow Taka dow dow' Dow dow' taka Dow' taka dow
23. DCBAFast-'taka dow dow Taka dow dow' Dow dow' taka Dow' taka dow
24. Intro to Triple-Length Rhythm
25. A+B+C Slow - Dow ' taka dow Dow dow ' taka Taka dow dow '
26. A+B+C Fast - Dow ' taka dow Dow dow ' taka Taka dow dow '
27. Intro to Alternating Double/Triple Tongue Rhythms
28. Slow - Dow ' taka dow Dow ' takada takada
29. Fast - Dow ' taka dow Dow ' takada takada
30. Intro to Alternating Triple Tongue/Variation C Rhythm
31. Slow - Dow ' takada takada Taka dow dow '
32. Fast - Dow ' takada takada Taka dow dow '
33. Intro to Alternating Variation A/Diaphragm Rhythm 2 Exercise
34. Slow - Dow ' taka dow Dow ' haha '
35. Fast - Dow ' taka dow Dow ' haha '
36. Intro to Alternating Bounce Breath/Variation A Rhythm
37. Slow - Ha' dada Ha' dow Ha' dada Dow ' taka dow
38. Fast - Ha' dada Ha' dow Ha' dada Dow ' taka dow
39. Intro to Alternating Retroflexed Tongue/Diaphragm Rhythm 2
40. Slow - Giddle ha' ha; Dow ' haha '
41. Fast - Giddle ha' ha; Dow ' haha '
42. Intro to Didgeridoo Improvs with the Techniques
43. Just Jamming Slow
44. Just Jamming Fast

Exact Audio Copy V1.1 from 23. June 2015

EAC extraction logfile from 27. November 2016, 11:11

Randy Graves / Your Mixed Up Didjeridu Companion

Used drive : TEAC DVD-ROM DV-28SW Adapter: 1 ID: 0

Read mode : Secure
Utilize accurate stream : Yes
Defeat audio cache : Yes
Make use of C2 pointers : No

Read offset correction : 6
Overread into Lead-In and Lead-Out : No
Fill up missing offset samples with silence : Yes
Delete leading and trailing silent blocks : No
Null samples used in CRC calculations : Yes
Used interface : Native Win32 interface for Win NT & 2000
Gap handling : Appended to previous track

Used output format : Internal WAV Routines
Sample format : 44.100 Hz; 16 Bit; Stereo


TOC of the extracted CD

Track | Start | Length | Start sector | End sector
––––––––––––––––––––––––––––-
1 | 0:00.00 | 3:31.38 | 0 | 15862
2 | 3:31.38 | 1:35.01 | 15863 | 22988
3 | 5:06.39 | 1:56.05 | 22989 | 31693
4 | 7:02.44 | 2:04.05 | 31694 | 40998
5 | 9:06.49 | 2:03.10 | 40999 | 50233
6 | 11:09.59 | 2:04.18 | 50234 | 59551
7 | 13:14.02 | 2:02.43 | 59552 | 68744
8 | 15:16.45 | 2:03.67 | 68745 | 78036
9 | 17:20.37 | 2:03.33 | 78037 | 87294
10 | 19:23.70 | 1:38.44 | 87295 | 94688
11 | 21:02.39 | 2:04.13 | 94689 | 104001
12 | 23:06.52 | 1:59.15 | 104002 | 112941
13 | 25:05.67 | 2:04.22 | 112942 | 122263
14 | 27:10.14 | 2:01.17 | 122264 | 131355
15 | 29:11.31 | 2:04.02 | 131356 | 140657
16 | 31:15.33 | 2:00.74 | 140658 | 149731
17 | 33:16.32 | 2:03.49 | 149732 | 159005
18 | 35:20.06 | 2:01.17 | 159006 | 168097
19 | 37:21.23 | 2:03.10 | 168098 | 177332
20 | 39:24.33 | 2:00.35 | 177333 | 186367
21 | 41:24.68 | 0:55.68 | 186368 | 190560
22 | 42:20.61 | 2:00.21 | 190561 | 199581
23 | 44:21.07 | 2:05.60 | 199582 | 209016
24 | 46:26.67 | 0:22.66 | 209017 | 210732
25 | 46:49.58 | 1:54.70 | 210733 | 219352
26 | 48:44.53 | 1:58.48 | 219353 | 228250
27 | 50:43.26 | 1:16.26 | 228251 | 233976
28 | 51:59.52 | 2:04.12 | 233977 | 243288
29 | 54:03.64 | 2:01.22 | 243289 | 252385
30 | 56:05.11 | 0:57.33 | 252386 | 256693
31 | 57:02.44 | 2:05.02 | 256694 | 266070
32 | 59:07.46 | 2:02.01 | 266071 | 275221
33 | 61:09.47 | 0:27.23 | 275222 | 277269
34 | 61:36.70 | 2:05.61 | 277270 | 286705
35 | 63:42.56 | 2:03.29 | 286706 | 295959
36 | 65:46.10 | 0:38.74 | 295960 | 298883
37 | 66:25.09 | 2:00.04 | 298884 | 307887
38 | 68:25.13 | 2:04.56 | 307888 | 317243
39 | 70:29.69 | 0:29.29 | 317244 | 319447
40 | 70:59.23 | 2:05.45 | 319448 | 328867
41 | 73:04.68 | 2:01.39 | 328868 | 337981
42 | 75:06.32 | 0:44.02 | 337982 | 341283
43 | 75:50.34 | 2:05.12 | 341284 | 350670
44 | 77:55.46 | 2:01.24 | 350671 | 359769


Track 1

Filename C:\My Documents\My FLAC\Randy Graves - Your Mixed Up Didjeridu Companion (2003) [FLAC] {Ginger Root}\01 - Introduction to Basic Variations.wav

Pre-gap length 0:00:02.00

Peak level 78.0 %
Extraction speed 2.2 X
Track quality 99.9 %
Test CRC 7478EB21
Copy CRC 7478EB21
Track not present in AccurateRip database
Copy OK

Track 2

Filename C:\My Documents\My FLAC\Randy Graves - Your Mixed Up Didjeridu Companion (2003) [FLAC] {Ginger Root}\02 - Variation A Slow - Dow ' taka dow.wav

Pre-gap length 0:00:02.00

Peak level 99.9 %
Extraction speed 2.4 X
Track quality 100.0 %
Test CRC 75AD1F78
Copy CRC 75AD1F78
Track not present in AccurateRip database
Copy OK

Track 3

Filename C:\My Documents\My FLAC\Randy Graves - Your Mixed Up Didjeridu Companion (2003) [FLAC] {Ginger Root}\03 - Variation A Fast - Dow ' taka dow.wav

Pre-gap length 0:00:02.00

Peak level 99.9 %
Extraction speed 2.6 X
Track quality 100.0 %
Test CRC DB4DB742
Copy CRC DB4DB742
Track not present in AccurateRip database
Copy OK

Track 4

Filename C:\My Documents\My FLAC\Randy Graves - Your Mixed Up Didjeridu Companion (2003) [FLAC] {Ginger Root}\04 - Variation B Slow - Dow dow ' taka.wav

Pre-gap length 0:00:02.00

Peak level 99.8 %
Extraction speed 2.7 X
Track quality 100.0 %
Test CRC F6392007
Copy CRC F6392007
Track not present in AccurateRip database
Copy OK

Track 5

Filename C:\My Documents\My FLAC\Randy Graves - Your Mixed Up Didjeridu Companion (2003) [FLAC] {Ginger Root}\05 - Variation B Fast - Dow dow ' taka.wav

Pre-gap length 0:00:02.00

Peak level 99.9 %
Extraction speed 2.1 X
Track quality 99.9 %
Test CRC F91B12AC
Copy CRC F91B12AC
Track not present in AccurateRip database
Copy OK

Track 6

Filename C:\My Documents\My FLAC\Randy Graves - Your Mixed Up Didjeridu Companion (2003) [FLAC] {Ginger Root}\06 - Variation C Slow - taka dow dow '.wav

Pre-gap length 0:00:02.00

Peak level 99.9 %
Extraction speed 2.9 X
Track quality 100.0 %
Test CRC 99FC1782
Copy CRC 99FC1782
Track not present in AccurateRip database
Copy OK

Track 7

Filename C:\My Documents\My FLAC\Randy Graves - Your Mixed Up Didjeridu Companion (2003) [FLAC] {Ginger Root}\07 - Variation C Fast - taka dow dow '.wav

Pre-gap length 0:00:02.00

Peak level 99.9 %
Extraction speed 3.0 X
Track quality 100.0 %
Test CRC 2701DE1C
Copy CRC 2701DE1C
Track not present in AccurateRip database
Copy OK

Track 8

Filename C:\My Documents\My FLAC\Randy Graves - Your Mixed Up Didjeridu Companion (2003) [FLAC] {Ginger Root}\08 - Variation D Slow - ' taka dow dow.wav

Pre-gap length 0:00:02.00

Peak level 99.9 %
Extraction speed 3.1 X
Track quality 100.0 %
Test CRC BE510ECE
Copy CRC BE510ECE
Track not present in AccurateRip database
Copy OK

Track 9

Filename C:\My Documents\My FLAC\Randy Graves - Your Mixed Up Didjeridu Companion (2003) [FLAC] {Ginger Root}\09 - Variation D Fast - ' taka dow dow.wav

Pre-gap length 0:00:02.00

Peak level 99.9 %
Extraction speed 3.2 X
Track quality 100.0 %
Test CRC 9A062534
Copy CRC 9A062534
Track not present in AccurateRip database
Copy OK

Track 10

Filename C:\My Documents\My FLAC\Randy Graves - Your Mixed Up Didjeridu Companion (2003) [FLAC] {Ginger Root}\10 - Intro to Double-Length Rhythms.wav

Pre-gap length 0:00:02.00

Peak level 91.9 %
Extraction speed 2.2 X
Track quality 99.8 %
Test CRC 54A8F0EF
Copy CRC 54A8F0EF
Track not present in AccurateRip database
Copy OK

Track 11

Filename C:\My Documents\My FLAC\Randy Graves - Your Mixed Up Didjeridu Companion (2003) [FLAC] {Ginger Root}\11 - A+B Slow - Dow ' taka dow Dow dow ' taka.wav

Pre-gap length 0:00:02.00

Peak level 98.7 %
Extraction speed 2.1 X
Track quality 99.9 %
Test CRC E877697F
Copy CRC E877697F
Track not present in AccurateRip database
Copy OK

Track 12

Filename C:\My Documents\My FLAC\Randy Graves - Your Mixed Up Didjeridu Companion (2003) [FLAC] {Ginger Root}\12 - A+B Fast - Dow ' taka dow Dow dow ' taka.wav

Pre-gap length 0:00:02.00

Peak level 99.9 %
Extraction speed 2.5 X
Track quality 99.9 %
Test CRC 81C04A1B
Copy CRC 81C04A1B
Track not present in AccurateRip database
Copy OK

Track 13

Filename C:\My Documents\My FLAC\Randy Graves - Your Mixed Up Didjeridu Companion (2003) [FLAC] {Ginger Root}\13 - A+C Slow - Dow ' taka dow Taka dow dow '.wav

Pre-gap length 0:00:02.00

Peak level 99.9 %
Extraction speed 3.4 X
Track quality 100.0 %
Test CRC CF17D886
Copy CRC CF17D886
Track not present in AccurateRip database
Copy OK

Track 14

Filename C:\My Documents\My FLAC\Randy Graves - Your Mixed Up Didjeridu Companion (2003) [FLAC] {Ginger Root}\14 - A+C Fast - Dow ' taka dow Taka dow dow '.wav

Pre-gap length 0:00:02.00

Peak level 99.9 %
Extraction speed 3.5 X
Track quality 100.0 %
Test CRC C2B1312E
Copy CRC C2B1312E
Track not present in AccurateRip database
Copy OK

Track 15

Filename C:\My Documents\My FLAC\Randy Graves - Your Mixed Up Didjeridu Companion (2003) [FLAC] {Ginger Root}\15 - A+D Slow - Dow ' taka dow ' taka dow dow.wav

Pre-gap length 0:00:02.00

Peak level 99.7 %
Extraction speed 3.2 X
Track quality 100.0 %
Test CRC 6F0F0504
Copy CRC 6F0F0504
Track not present in AccurateRip database
Copy OK

Track 16

Filename C:\My Documents\My FLAC\Randy Graves - Your Mixed Up Didjeridu Companion (2003) [FLAC] {Ginger Root}\16 - A+D Fast - Dow ' taka dow ' taka dow dow.wav

Pre-gap length 0:00:02.00

Peak level 99.9 %
Extraction speed 2.4 X
Track quality 100.0 %
Test CRC 8745ACD9
Copy CRC 8745ACD9
Track not present in AccurateRip database
Copy OK

Track 17

Filename C:\My Documents\My FLAC\Randy Graves - Your Mixed Up Didjeridu Companion (2003) [FLAC] {Ginger Root}\17 - B+C Slow - Dow dow ' taka Taka dow dow '.wav

Pre-gap length 0:00:02.00

Peak level 99.9 %
Extraction speed 2.6 X
Track quality 100.0 %
Test CRC 61A6159B
Copy CRC 61A6159B
Track not present in AccurateRip database
Copy OK

Track 18

Filename C:\My Documents\My FLAC\Randy Graves - Your Mixed Up Didjeridu Companion (2003) [FLAC] {Ginger Root}\18 - B+C Fast - Dow dow ' taka Taka dow dow '.wav

Pre-gap length 0:00:02.00

Peak level 99.9 %
Extraction speed 3.2 X
Track quality 100.0 %
Test CRC DAE4F674
Copy CRC DAE4F674
Track not present in AccurateRip database
Copy OK

Track 19

Filename C:\My Documents\My FLAC\Randy Graves - Your Mixed Up Didjeridu Companion (2003) [FLAC] {Ginger Root}\19 - B+D Slow - Dow dow ' taka ' taka dow dow.wav

Pre-gap length 0:00:02.00

Peak level 99.9 %
Extraction speed 2.9 X
Track quality 99.9 %
Test CRC 1CCDD48D
Copy CRC 1CCDD48D
Track not present in AccurateRip database
Copy OK

Track 20

Filename C:\My Documents\My FLAC\Randy Graves - Your Mixed Up Didjeridu Companion (2003) [FLAC] {Ginger Root}\20 - B+D Fast - Dow dow ' taka ' taka dow dow.wav

Pre-gap length 0:00:02.00

Peak level 99.9 %
Extraction speed 3.0 X
Track quality 99.9 %
Test CRC 8A547C66
Copy CRC 8A547C66
Track not present in AccurateRip database
Copy OK

Track 21

Filename C:\My Documents\My FLAC\Randy Graves - Your Mixed Up Didjeridu Companion (2003) [FLAC] {Ginger Root}\21 - Intro to Quadruple-Length Rhythm.wav

Pre-gap length 0:00:02.00

Peak level 63.1 %
Extraction speed 0.1 X
Track quality 100.0 %
Test CRC BD1D2742
Copy CRC BD1D2742
Track not present in AccurateRip database
Copy OK

Track 22

Filename C:\My Documents\My FLAC\Randy Graves - Your Mixed Up Didjeridu Companion (2003) [FLAC] {Ginger Root}\22 - DCBASlow-'taka dow dow Taka dow dow' Dow dow' taka Dow' taka dow.wav

Pre-gap length 0:00:02.00

Peak level 99.4 %
Extraction speed 3.8 X
Track quality 100.0 %
Test CRC 0BCA30FA
Copy CRC 0BCA30FA
Track not present in AccurateRip database
Copy OK

Track 23

Filename C:\My Documents\My FLAC\Randy Graves - Your Mixed Up Didjeridu Companion (2003) [FLAC] {Ginger Root}\23 - DCBAFast-'taka dow dow Taka dow dow' Dow dow' taka Dow' taka dow.wav

Pre-gap length 0:00:02.00

Peak level 99.9 %
Extraction speed 3.2 X
Track quality 99.9 %
Test CRC 676CD7A1
Copy CRC 676CD7A1
Track not present in AccurateRip database
Copy OK

Track 24

Filename C:\My Documents\My FLAC\Randy Graves - Your Mixed Up Didjeridu Companion (2003) [FLAC] {Ginger Root}\24 - Intro to Triple-Length Rhythm.wav

Pre-gap length 0:00:02.00

Peak level 62.5 %
Extraction speed 1.1 X
Track quality 99.5 %
Test CRC 85754CCC
Copy CRC 85754CCC
Track not present in AccurateRip database
Copy OK

Track 25

Filename C:\My Documents\My FLAC\Randy Graves - Your Mixed Up Didjeridu Companion (2003) [FLAC] {Ginger Root}\25 - A+B+C Slow - Dow ' taka dow Dow dow ' taka Taka dow dow '.wav

Pre-gap length 0:00:02.00

Peak level 100.0 %
Extraction speed 4.1 X
Track quality 100.0 %
Test CRC 216DDBAC
Copy CRC 216DDBAC
Track not present in AccurateRip database
Copy OK

Track 26

Filename C:\My Documents\My FLAC\Randy Graves - Your Mixed Up Didjeridu Companion (2003) [FLAC] {Ginger Root}\26 - A+B+C Fast - Dow ' taka dow Dow dow ' taka Taka dow dow '.wav

Pre-gap length 0:00:02.00

Peak level 99.9 %
Extraction speed 4.3 X
Track quality 100.0 %
Test CRC 07B680B5
Copy CRC 07B680B5
Track not present in AccurateRip database
Copy OK

Track 27

Filename C:\My Documents\My FLAC\Randy Graves - Your Mixed Up Didjeridu Companion (2003) [FLAC] {Ginger Root}\27 - Intro to Alternating Double,Triple Tongue Rhythms.wav

Pre-gap length 0:00:02.00

Peak level 72.5 %
Extraction speed 2.6 X
Track quality 99.8 %
Test CRC 3897B6A7
Copy CRC 3897B6A7
Track not present in AccurateRip database
Copy OK

Track 28

Filename C:\My Documents\My FLAC\Randy Graves - Your Mixed Up Didjeridu Companion (2003) [FLAC] {Ginger Root}\28 - Slow - Dow ' taka dow Dow ' takada takada.wav

Pre-gap length 0:00:02.00

Peak level 99.9 %
Extraction speed 3.4 X
Track quality 99.9 %
Test CRC 27BF09FF
Copy CRC 27BF09FF
Track not present in AccurateRip database
Copy OK

Track 29

Filename C:\My Documents\My FLAC\Randy Graves - Your Mixed Up Didjeridu Companion (2003) [FLAC] {Ginger Root}\29 - Fast - Dow ' taka dow Dow ' takada takada.wav

Pre-gap length 0:00:02.00

Peak level 99.9 %
Extraction speed 4.4 X
Track quality 100.0 %
Test CRC 07AC3C33
Copy CRC 07AC3C33
Track not present in AccurateRip database
Copy OK

Track 30

Filename C:\My Documents\My FLAC\Randy Graves - Your Mixed Up Didjeridu Companion (2003) [FLAC] {Ginger Root}\30 - Intro to Alternating Triple Tongue,Variation C Rhythm.wav

Pre-gap length 0:00:02.00

Peak level 82.4 %
Extraction speed 2.3 X
Track quality 99.8 %
Test CRC B54AE93A
Copy CRC B54AE93A
Track not present in AccurateRip database
Copy OK

Track 31

Filename C:\My Documents\My FLAC\Randy Graves - Your Mixed Up Didjeridu Companion (2003) [FLAC] {Ginger Root}\31 - Slow - Dow ' takada takada Taka dow dow '.wav

Pre-gap length 0:00:02.00

Peak level 99.9 %
Extraction speed 4.6 X
Track quality 100.0 %
Test CRC 1498D595
Copy CRC 1498D595
Track not present in AccurateRip database
Copy OK

Track 32

Filename C:\My Documents\My FLAC\Randy Graves - Your Mixed Up Didjeridu Companion (2003) [FLAC] {Ginger Root}\32 - Fast - Dow ' takada takada Taka dow dow '.wav

Pre-gap length 0:00:02.00

Peak level 99.9 %
Extraction speed 4.6 X
Track quality 100.0 %
Test CRC 4D9BAD04
Copy CRC 4D9BAD04
Track not present in AccurateRip database
Copy OK

Track 33

Filename C:\My Documents\My FLAC\Randy Graves - Your Mixed Up Didjeridu Companion (2003) [FLAC] {Ginger Root}\33 - Intro to Alternating Variation A,Diaphragm Rhythm 2 Exercise.wav

Pre-gap length 0:00:02.00

Peak level 79.9 %
Extraction speed 2.5 X
Track quality 100.0 %
Test CRC 7D108A7C
Copy CRC 7D108A7C
Track not present in AccurateRip database
Copy OK

Track 34

Filename C:\My Documents\My FLAC\Randy Graves - Your Mixed Up Didjeridu Companion (2003) [FLAC] {Ginger Root}\34 - Slow - Dow ' taka dow Dow ' haha '.wav

Pre-gap length 0:00:02.00

Peak level 99.9 %
Extraction speed 3.6 X
Track quality 99.9 %
Test CRC 5540C2A4
Copy CRC 5540C2A4
Track not present in AccurateRip database
Copy OK

Track 35

Filename C:\My Documents\My FLAC\Randy Graves - Your Mixed Up Didjeridu Companion (2003) [FLAC] {Ginger Root}\35 - Fast - Dow ' taka dow Dow ' haha '.wav

Pre-gap length 0:00:02.00

Peak level 99.9 %
Extraction speed 4.7 X
Track quality 100.0 %
Test CRC 9683180F
Copy CRC 9683180F
Track not present in AccurateRip database
Copy OK

Track 36

Filename C:\My Documents\My FLAC\Randy Graves - Your Mixed Up Didjeridu Companion (2003) [FLAC] {Ginger Root}\36 - Intro to Alternating Bounce Breath,Variation A Rhythm.wav

Pre-gap length 0:00:02.00

Peak level 68.0 %
Extraction speed 3.2 X
Track quality 100.0 %
Test CRC 4C0D9B37
Copy CRC 4C0D9B37
Track not present in AccurateRip database
Copy OK

Track 37

Filename C:\My Documents\My FLAC\Randy Graves - Your Mixed Up Didjeridu Companion (2003) [FLAC] {Ginger Root}\37 - Slow - Ha' dada Ha' dow Ha' dada Dow ' taka dow.wav

Pre-gap length 0:00:02.00

Peak level 99.9 %
Extraction speed 4.7 X
Track quality 100.0 %
Test CRC 1B0F9240
Copy CRC 1B0F9240
Track not present in AccurateRip database
Copy OK

Track 38

Filename C:\My Documents\My FLAC\Randy Graves - Your Mixed Up Didjeridu Companion (2003) [FLAC] {Ginger Root}\38 - Fast - Ha' dada Ha' dow Ha' dada Dow ' taka dow.wav

Pre-gap length 0:00:02.00

Peak level 99.9 %
Extraction speed 4.8 X
Track quality 100.0 %
Test CRC 65DAFC79
Copy CRC 65DAFC79
Track not present in AccurateRip database
Copy OK

Track 39

Filename C:\My Documents\My FLAC\Randy Graves - Your Mixed Up Didjeridu Companion (2003) [FLAC] {Ginger Root}\39 - Intro to Alternating Retroflexed Tongue,Diaphragm Rhythm 2.wav

Pre-gap length 0:00:02.00

Peak level 75.6 %
Extraction speed 2.7 X
Track quality 100.0 %
Test CRC CDFC37AD
Copy CRC CDFC37AD
Track not present in AccurateRip database
Copy OK

Track 40

Filename C:\My Documents\My FLAC\Randy Graves - Your Mixed Up Didjeridu Companion (2003) [FLAC] {Ginger Root}\40 - Slow - Giddle ha' ha; Dow ' haha '.wav

Pre-gap length 0:00:02.00

Peak level 99.9 %
Extraction speed 5.0 X
Track quality 100.0 %
Test CRC 14415F1E
Copy CRC 14415F1E
Track not present in AccurateRip database
Copy OK

Track 41

Filename C:\My Documents\My FLAC\Randy Graves - Your Mixed Up Didjeridu Companion (2003) [FLAC] {Ginger Root}\41 - Fast - Giddle ha' ha; Dow ' haha '.wav

Pre-gap length 0:00:02.00

Peak level 99.9 %
Extraction speed 3.7 X
Track quality 99.9 %
Test CRC B9F7E13C
Copy CRC B9F7E13C
Track not present in AccurateRip database
Copy OK

Track 42

Filename C:\My Documents\My FLAC\Randy Graves - Your Mixed Up Didjeridu Companion (2003) [FLAC] {Ginger Root}\42 - Intro to Didgeridoo Improvs with the Techniques.wav

Pre-gap length 0:00:02.00

Peak level 66.2 %
Extraction speed 3.4 X
Track quality 100.0 %
Test CRC 135CBF69
Copy CRC 135CBF69
Track not present in AccurateRip database
Copy OK

Track 43

Filename C:\My Documents\My FLAC\Randy Graves - Your Mixed Up Didjeridu Companion (2003) [FLAC] {Ginger Root}\43 - Just Jamming Slow.wav

Pre-gap length 0:00:02.00

Peak level 99.9 %
Extraction speed 3.8 X
Track quality 99.9 %
Test CRC 82630840
Copy CRC 82630840
Track not present in AccurateRip database
Copy OK

Track 44

Filename C:\My Documents\My FLAC\Randy Graves - Your Mixed Up Didjeridu Companion (2003) [FLAC] {Ginger Root}\44 - Just Jamming Fast.wav

Pre-gap length 0:00:02.00

Peak level 99.9 %
Extraction speed 5.0 X
Track quality 100.0 %
Test CRC C6656A67
Copy CRC C6656A67
Track not present in AccurateRip database
Copy OK


None of the tracks are present in the AccurateRip database

No errors occurred

End of status report

–– CUETools DB Plugin V2.1.6

[CTDB TOCID: NN6ltQRr61NUrUtr8SiQH7OPlMY-] disk not present in database
Submit result: NN6ltQRr61NUrUtr8SiQH7OPlMY- has been uploaded


==== Log checksum F339B26DA17962F03D435E32B2C6D9237EE41307528362856F201BE96C5A995F ====


Randy Graves - Your Mixed Up Didjeridu Companion (2003) {Ginger Root} **[RE-UP]**