Subcategories

Grateful Dead - R.F.K. Stadium Washington D.C. 1989 (Live) (2017) [6CD Box Set]

Posted By: SERTiL
Grateful Dead - R.F.K. Stadium Washington D.C. 1989 (Live) (2017) [6CD Box Set]

Grateful Dead - R.F.K. Stadium Washington D.C. 1989 (Live)
EAC Rip | FLAC (tracks)+cue, log, m3u | 324:32 min | 1.87 GB
Label: Rhino Records – R2 562254 | Tracks: 38 | Rls.date: 2017
Classic Rock, Psychedelic Rock

The Grateful Dead battled the elements in July 1989, enduring drenching rains and stifling humidity during back-to-back shows at Robert F. Kennedy Stadium in the nation’s capital. In spite of the bleak weather, the band thrilled the massive crowds both nights with triumphant performances that rank among the very best of a busy year that included 74 shows and the release of the group’s final studio album, BUILT TO LAST.

ROBERT F. KENNEDY STADIUM, WASHINGTON, D.C., JULY 12 & 13, 1989 includes two previously unreleased concerts taken from the band’s master 24-track analog recordings, which have been mixed by Jeffrey Norman at TRI Studios and mastered in HDCD by David Glasser. The collection’s colorful slip case features original artwork by Justin Helton and a perfect-bound book with in-depth liner notes written by Dean Budnick, editor-in-chief of Relix magazine. The set will also be available as a digital download in Apple Lossless and FLAC 192/24.

When Jerry Garcia, Mickey Hart, Bill Kreutzmann, Phil Lesh, Brent Mydland, and Bob Weir rolled into D.C. in July 1989 for the Dead’s two-night stand at RFK, the band hit the stage running with a stellar rendition of “Touch Of Grey,” the group’s biggest hit from its only Top 10 album In The Dark, which was released in 1987. The following night, the band returned to its double-platinum commercial breakthrough when it opened the show with a fiery version of “Hell In A Bucket.”
“RFK Stadium '89 fell right in the middle of one of the best tours of the last 15 years of Grateful Dead performances, with these shows being the sixth and seventh of an 11-show tour. This tour is widely considered the start of a nine month period of sustained excellence, which ran from Summer '89 through Spring '90. The RFK shows are as good as any of the more famous shows from this period, including July 4 in Buffalo, July 7 in Philadelphia, and the Alpine run,” says David Lemieux, Grateful Dead archivist and the set’s producer. “When Bob Weir has asked me to provide copies of Grateful Dead songs to give to his bandmates to learn and rehearse, he almost always requests Summer '89, and I've often drawn upon the RFK shows for this purpose. It's really that good!”

Both shows feature standout moments, but the July 12 show is notable for a few reasons. Perhaps the biggest is that the first set featured at least one song sung by each of the band’s four lead singers – Garcia, Weir, Lesh and Mydland – something that rarely happened. Another surprise came when the band opened the second set with “Sugaree,” a song that almost always appeared during the first set.

Pianist Bruce Hornsby — who briefly joined the band between 1990 and 1992 — is featured on both shows. He played accordion during “Sugaree” and “Man Smart (Woman Smarter),” with a touch of keyboard-tinkling, on July 12, and then played more accordion the following night for “Tennessee Jed” and “Stuck Inside Of Mobile With The Memphis Blues Again.”

For fans of Mydland’s tenure with the Dead – which began in 1979 and ended in 1990 with the keyboardist’s tragic death – these stellar shows capture that incarnation in peak form. Among the long list of highlights are performances of live staples such as “Eyes Of The World,” “Wharf Rat” and “I Need A Miracle,” along with rarities like “To Lay Me Down,” which was played only a few times in 1989. The July 13 show also features the band road-testing “I Will Take You Home,” a track Mydland wrote with Dead lyricist John Perry Barlow that would appear later that fall on Built To Last.

Tracklist:

R.F.K. Stadium, Washington, D.C. 1989-07-12

Disc 1 (55:56)
1. Touch Of Grey (06:56)
2. New Minglewood Blues (08:17)
3. Mississippi Half-Step Uptown Toodleloo (10:08)
4. Just Like Tom Thumb's Blues (05:09)
5. Far From Me (05:32)
6. Cassidy (07:01)
7. Friend Of The Devil (07:52)
8. Promised Land (05:01)

Disc 2 (59:17)
1. Sugaree (10:46)
2. Man Smart, Woman Smarter (08:12)
3. Ship Of Fools (09:40)
4. Estimated Prophet (10:45)
5. Eyes Of The World (10:12)
6. Drums (09:42)

Disc 3 (43:01)
1. Space (09:04)
2. I Need A Miracle (04:57)
3. Dear Mr. Fantasy (06:22)
4. Black Peter (09:09)
5. Turn On Your Lovelight (06:57)
6. Black Muddy River (06:32)

R.F.K. Stadium, Washington, D.C. 1989-07-13

Disc 4 (01:04:42)
1. Hell In A Bucket (08:15)
2. Cold Rain And Snow (06:34)
3. Little Red Rooster (09:24)
4. Tennessee Jed (08:31)
5. Stuck Inside Of Mobile With The Memphis Blues Again (09:56)
6. To Lay Me Down (09:27)
7. Let It Grow (12:35)

Disc 5 (41:55)
1. He's Gone (10:42)
2. Looks Like Rain (09:14)
3. Terrapin Station (13:07)
4. Drums (08:52)

Disc 6 (01:00:00)
1. Space (08:44)
2. I Will Take You Home (05:17)
3. The Other One (10:38)
4. Wharf Rat (11:03)
5. Throwing Stones (09:46)
6. Good Lovin' (08:24)
7. U.S. Blues (06:08)

Exact Audio Copy V1.3 from 2. September 2016

EAC extraction logfile from 12. November 2017, 1:01

Grateful Dead / 1989/07/12 RFK Stadium Washington DC Disc 1

Used drive : PLDS DVD+-RW DU-8A5LH Adapter: 1 ID: 0

Read mode : Secure
Utilize accurate stream : Yes
Defeat audio cache : Yes
Make use of C2 pointers : No

Read offset correction : 6
Overread into Lead-In and Lead-Out : No
Fill up missing offset samples with silence : Yes
Delete leading and trailing silent blocks : No
Null samples used in CRC calculations : Yes
Used interface : Native Win32 interface for Win NT & 2000
Gap handling : Appended to previous track

Used output format : User Defined Encoder
Selected bitrate : 1024 kBit/s
Quality : High
Add ID3 tag : No
Command line compressor : C:\Program Files (x86)\Exact Audio Copy\Flac\flac.exe
Additional command line options : -8 -e -p -V -T "ARTIST=%artist%" -T "TITLE=%title%" -T "ALBUM=%albumtitle%" -T "DATE=%year%" -T "TRACKNUMBER=%tracknr%" -T "GENRE=%genre%" -T "PERFORMER=%albuminterpret%" -T "COMPOSER=%composer%" %haslyrics%–tag-from-file=LYRICS="%lyricsfile%"%haslyrics% -T "ALBUMARTIST=%albumartist%" -T "DISCNUMBER=%cdnumber%" -T "TOTALDISCS=%totalcds%" -T "TOTALTRACKS=%numtracks%" -T "COMMENT=%comment%" %source% -o %dest%


TOC of the extracted CD

Track | Start | Length | Start sector | End sector
––––––––––––––––––––––––––––-
1 | 0:00.00 | 6:56.48 | 0 | 31247
2 | 6:56.48 | 8:17.39 | 31248 | 68561
3 | 15:14.12 | 10:08.31 | 68562 | 114192
4 | 25:22.43 | 5:09.28 | 114193 | 137395
5 | 30:31.71 | 5:32.24 | 137396 | 162319
6 | 36:04.20 | 7:01.34 | 162320 | 193928
7 | 43:05.54 | 7:52.60 | 193929 | 229388
8 | 50:58.39 | 5:01.50 | 229389 | 252013


Track 1

Filename C:\Users\bono17\Desktop\ 01 - Touch of Grey.wav

Pre-gap length 0:00:02.00

Peak level 95.2 %
Extraction speed 2.9 X
Track quality 99.9 %
Test CRC 919B18FB
Copy CRC 919B18FB
Track not present in AccurateRip database
Copy OK

Track 2

Filename C:\Users\bono17\Desktop\ 02 - New Minglewood Blues.wav

Peak level 96.0 %
Extraction speed 3.7 X
Track quality 100.0 %
Test CRC FAD0B68F
Copy CRC FAD0B68F
Track not present in AccurateRip database
Copy OK

Track 3

Filename C:\Users\bono17\Desktop\ 03 - Mississippi Half Step.wav

Peak level 95.2 %
Extraction speed 4.3 X
Track quality 100.0 %
Test CRC 23A1F6BF
Copy CRC 23A1F6BF
Track not present in AccurateRip database
Copy OK

Track 4

Filename C:\Users\bono17\Desktop\ 04 - Tom Thumb Blues.wav

Peak level 95.4 %
Extraction speed 4.5 X
Track quality 100.0 %
Test CRC 1FEC0A28
Copy CRC 1FEC0A28
Track not present in AccurateRip database
Copy OK

Track 5

Filename C:\Users\bono17\Desktop\ 05 - Far From Me.wav

Peak level 97.1 %
Extraction speed 4.2 X
Track quality 99.9 %
Test CRC 6A35DCD1
Copy CRC 6A35DCD1
Track not present in AccurateRip database
Copy OK

Track 6

Filename C:\Users\bono17\Desktop\ 06 - Cassidy.wav

Peak level 97.7 %
Extraction speed 5.2 X
Track quality 100.0 %
Test CRC FCDA308D
Copy CRC FCDA308D
Track not present in AccurateRip database
Copy OK

Track 7

Filename C:\Users\bono17\Desktop\ 07 - Friend of the Debil.wav

Peak level 96.3 %
Extraction speed 5.5 X
Track quality 100.0 %
Test CRC 2F7A4781
Copy CRC 2F7A4781
Track not present in AccurateRip database
Copy OK

Track 8

Filename C:\Users\bono17\Desktop\ 08 - Promised Land.wav

Peak level 95.0 %
Extraction speed 5.5 X
Track quality 100.0 %
Test CRC 882DC6FC
Copy CRC 882DC6FC
Track not present in AccurateRip database
Copy OK


None of the tracks are present in the AccurateRip database

No errors occurred

End of status report

–– CUETools DB Plugin V2.1.6

[CTDB TOCID: 7..aYt0cdtiqCnKbRHWNJFdvWu0-] found
Submit result: 7..aYt0cdtiqCnKbRHWNJFdvWu0- has been confirmed
Track | CTDB Status
1 | (17/18) Accurately ripped
2 | (17/18) Accurately ripped
3 | (17/18) Accurately ripped
4 | (17/18) Accurately ripped
5 | (17/18) Accurately ripped
6 | (17/18) Accurately ripped
7 | (17/18) Accurately ripped
8 | (17/18) Accurately ripped


==== Log checksum A130A369B4DEDFE93C1F40BED4FE172B2F2E0781F629CDFCE2E285A808AFE5CC ====

Exact Audio Copy V1.3 from 2. September 2016

EAC extraction logfile from 12. November 2017, 6:57

Grateful Dead / 19890712 RFK Stadium Washington DC Disc 1

Used drive : PLDS DVD+-RW DU-8A5LH Adapter: 1 ID: 0

Read mode : Secure
Utilize accurate stream : Yes
Defeat audio cache : Yes
Make use of C2 pointers : No

Read offset correction : 6
Overread into Lead-In and Lead-Out : No
Fill up missing offset samples with silence : Yes
Delete leading and trailing silent blocks : No
Null samples used in CRC calculations : Yes
Used interface : Native Win32 interface for Win NT & 2000
Gap handling : Appended to previous track

Used output format : User Defined Encoder
Selected bitrate : 1024 kBit/s
Quality : High
Add ID3 tag : No
Command line compressor : C:\Program Files (x86)\Exact Audio Copy\Flac\flac.exe
Additional command line options : -8 -e -p -V -T "ARTIST=%artist%" -T "TITLE=%title%" -T "ALBUM=%albumtitle%" -T "DATE=%year%" -T "TRACKNUMBER=%tracknr%" -T "GENRE=%genre%" -T "PERFORMER=%albuminterpret%" -T "COMPOSER=%composer%" %haslyrics%–tag-from-file=LYRICS="%lyricsfile%"%haslyrics% -T "ALBUMARTIST=%albumartist%" -T "DISCNUMBER=%cdnumber%" -T "TOTALDISCS=%totalcds%" -T "TOTALTRACKS=%numtracks%" -T "COMMENT=%comment%" %source% -o %dest%


TOC of the extracted CD

Track | Start | Length | Start sector | End sector
––––––––––––––––––––––––––––-
1 | 0:00.00 | 10:48.38 | 0 | 48637
2 | 10:48.38 | 8:12.42 | 48638 | 85579
3 | 19:01.05 | 9:40.05 | 85580 | 129084
4 | 28:41.10 | 10:45.28 | 129085 | 177487
5 | 39:26.38 | 10:12.27 | 177488 | 223414
6 | 49:38.65 | 9:42.21 | 223415 | 267085


Track 1

Filename C:\Users\bono17\Desktop\ 01 - Sugaree.wav

Pre-gap length 0:00:02.00

Peak level 97.1 %
Extraction speed 1.3 X
Track quality 100.0 %
Test CRC A3567160
Copy CRC A3567160
Track not present in AccurateRip database
Copy OK

Track 2

Filename C:\Users\bono17\Desktop\ 02 - Man Smart, Woman Smarter.wav

Peak level 97.4 %
Extraction speed 1.6 X
Track quality 100.0 %
Test CRC 5B3E06A7
Copy CRC 5B3E06A7
Track not present in AccurateRip database
Copy OK

Track 3

Filename C:\Users\bono17\Desktop\ 03 - Ship of Fools.wav

Peak level 97.8 %
Extraction speed 1.8 X
Track quality 100.0 %
Test CRC C264B55F
Copy CRC C264B55F
Track not present in AccurateRip database
Copy OK

Track 4

Filename C:\Users\bono17\Desktop\ 04 - Estimated Prophet.wav

Peak level 97.5 %
Extraction speed 1.9 X
Track quality 99.9 %
Test CRC 3DB748B4
Copy CRC 3DB748B4
Track not present in AccurateRip database
Copy OK

Track 5

Filename C:\Users\bono17\Desktop\ 05 - Eyes of the World.wav

Peak level 96.9 %
Extraction speed 2.2 X
Track quality 100.0 %
Test CRC BFDDB2D8
Copy CRC BFDDB2D8
Track not present in AccurateRip database
Copy OK

Track 6

Filename C:\Users\bono17\Desktop\ 06 - Drums.wav

Peak level 97.2 %
Extraction speed 2.4 X
Track quality 100.0 %
Test CRC F6537FE4
Copy CRC F6537FE4
Track not present in AccurateRip database
Copy OK


None of the tracks are present in the AccurateRip database

No errors occurred

End of status report

–– CUETools DB Plugin V2.1.6

[CTDB TOCID: ooHYIziKEe4qij.TUdDy1Fwzqpk-] found
Submit result: ooHYIziKEe4qij.TUdDy1Fwzqpk- has been confirmed
Track | CTDB Status
1 | (18/18) Accurately ripped
2 | (18/18) Accurately ripped
3 | (18/18) Accurately ripped
4 | (18/18) Accurately ripped
5 | (18/18) Accurately ripped
6 | (18/18) Accurately ripped


==== Log checksum 85D92E3D563EA7E9C3ED85CD48A15D150D90A4F6E6FB72482FFC8AAB61B16C82 ====

Exact Audio Copy V1.3 from 2. September 2016

EAC extraction logfile from 12. November 2017, 9:31

Grateful Dead / 19890712 RFK Stadium Washington DC Disc 3

Used drive : PLDS DVD+-RW DU-8A5LH Adapter: 1 ID: 0

Read mode : Secure
Utilize accurate stream : Yes
Defeat audio cache : Yes
Make use of C2 pointers : No

Read offset correction : 6
Overread into Lead-In and Lead-Out : No
Fill up missing offset samples with silence : Yes
Delete leading and trailing silent blocks : No
Null samples used in CRC calculations : Yes
Used interface : Native Win32 interface for Win NT & 2000
Gap handling : Appended to previous track

Used output format : User Defined Encoder
Selected bitrate : 1024 kBit/s
Quality : High
Add ID3 tag : No
Command line compressor : C:\Program Files (x86)\Exact Audio Copy\Flac\flac.exe
Additional command line options : -8 -e -p -V -T "ARTIST=%artist%" -T "TITLE=%title%" -T "ALBUM=%albumtitle%" -T "DATE=%year%" -T "TRACKNUMBER=%tracknr%" -T "GENRE=%genre%" -T "PERFORMER=%albuminterpret%" -T "COMPOSER=%composer%" %haslyrics%–tag-from-file=LYRICS="%lyricsfile%"%haslyrics% -T "ALBUMARTIST=%albumartist%" -T "DISCNUMBER=%cdnumber%" -T "TOTALDISCS=%totalcds%" -T "TOTALTRACKS=%numtracks%" -T "COMMENT=%comment%" %source% -o %dest%


TOC of the extracted CD

Track | Start | Length | Start sector | End sector
––––––––––––––––––––––––––––-
1 | 0:00.00 | 9:04.51 | 0 | 40850
2 | 9:04.51 | 4:57.60 | 40851 | 63185
3 | 14:02.36 | 6:22.24 | 63186 | 91859
4 | 20:24.60 | 9:09.09 | 91860 | 133043
5 | 29:33.69 | 6:37.04 | 133044 | 162822
6 | 36:10.73 | 6:32.48 | 162823 | 192270


Track 1

Filename C:\Users\bono17\Desktop\ 01 - Space ].wav

Pre-gap length 0:00:02.00

Peak level 96.5 %
Extraction speed 3.0 X
Track quality 100.0 %
Test CRC FF5A8F10
Copy CRC FF5A8F10
Track not present in AccurateRip database
Copy OK

Track 2

Filename C:\Users\bono17\Desktop\ 02 - I Need A Miracle ].wav

Peak level 97.3 %
Extraction speed 2.9 X
Track quality 99.9 %
Test CRC 3B6AC446
Copy CRC 3B6AC446
Track not present in AccurateRip database
Copy OK

Track 3

Filename C:\Users\bono17\Desktop\ 03 - Dear Mr. Fantasy ].wav

Peak level 99.6 %
Extraction speed 3.8 X
Track quality 100.0 %
Test CRC 62B2D80A
Copy CRC 62B2D80A
Track not present in AccurateRip database
Copy OK

Track 4

Filename C:\Users\bono17\Desktop\ 04 - Black Peter ].wav

Peak level 97.9 %
Extraction speed 4.0 X
Track quality 99.9 %
Test CRC 39B11802
Copy CRC 39B11802
Track not present in AccurateRip database
Copy OK

Track 5

Filename C:\Users\bono17\Desktop\ 05 - Turn On Your Lovelight.wav

Peak level 97.0 %
Extraction speed 4.2 X
Track quality 99.9 %
Test CRC 275B574C
Copy CRC 275B574C
Track not present in AccurateRip database
Copy OK

Track 6

Filename C:\Users\bono17\Desktop\ 06 - Black Muddy River.wav

Peak level 97.0 %
Extraction speed 4.9 X
Track quality 100.0 %
Test CRC 6297D0AF
Copy CRC 6297D0AF
Track not present in AccurateRip database
Copy OK


None of the tracks are present in the AccurateRip database

No errors occurred

End of status report

–– CUETools DB Plugin V2.1.6

[CTDB TOCID: vZUere4Ihb1kdJoZrtYy783hdF4-] found
Submit result: already submitted
Track | CTDB Status
1 | (19/19) Accurately ripped
2 | (19/19) Accurately ripped
3 | (19/19) Accurately ripped
4 | (19/19) Accurately ripped
5 | (19/19) Accurately ripped
6 | (19/19) Accurately ripped


==== Log checksum 5FF7CEABEE1A5DC424803FDF4BAE585A7BFA7DA2DA541C5A7588C8159A9E6B17 ====

Exact Audio Copy V1.3 from 2. September 2016

EAC extraction logfile from 12. November 2017, 10:52

Grateful Dead / 19890713 RFK Stadium Washington DC Disc 4

Used drive : PLDS DVD+-RW DU-8A5LH Adapter: 1 ID: 0

Read mode : Secure
Utilize accurate stream : Yes
Defeat audio cache : Yes
Make use of C2 pointers : No

Read offset correction : 6
Overread into Lead-In and Lead-Out : No
Fill up missing offset samples with silence : Yes
Delete leading and trailing silent blocks : No
Null samples used in CRC calculations : Yes
Used interface : Native Win32 interface for Win NT & 2000
Gap handling : Appended to previous track

Used output format : User Defined Encoder
Selected bitrate : 1024 kBit/s
Quality : High
Add ID3 tag : No
Command line compressor : C:\Program Files (x86)\Exact Audio Copy\Flac\flac.exe
Additional command line options : -8 -e -p -V -T "ARTIST=%artist%" -T "TITLE=%title%" -T "ALBUM=%albumtitle%" -T "DATE=%year%" -T "TRACKNUMBER=%tracknr%" -T "GENRE=%genre%" -T "PERFORMER=%albuminterpret%" -T "COMPOSER=%composer%" %haslyrics%–tag-from-file=LYRICS="%lyricsfile%"%haslyrics% -T "ALBUMARTIST=%albumartist%" -T "DISCNUMBER=%cdnumber%" -T "TOTALDISCS=%totalcds%" -T "TOTALTRACKS=%numtracks%" -T "COMMENT=%comment%" %source% -o %dest%


TOC of the extracted CD

Track | Start | Length | Start sector | End sector
––––––––––––––––––––––––––––-
1 | 0:00.00 | 8:15.15 | 0 | 37139
2 | 8:15.15 | 6:34.01 | 37140 | 66690
3 | 14:49.16 | 9:24.32 | 66691 | 109022
4 | 24:13.48 | 8:31.27 | 109023 | 147374
5 | 32:45.00 | 9:56.47 | 147375 | 192121
6 | 42:41.47 | 9:26.74 | 192122 | 234645
7 | 52:08.46 | 12:35.38 | 234646 | 291308


Track 1

Filename C:\Users\bono17\Desktop\ 01 - Hell in a Bucket.wav

Pre-gap length 0:00:02.00

Peak level 97.5 %
Extraction speed 1.2 X
Track quality 100.0 %
Test CRC 097E6B70
Copy CRC 097E6B70
Track not present in AccurateRip database
Copy OK

Track 2

Filename C:\Users\bono17\Desktop\ 02 - Cold Rain and Snow.wav

Peak level 97.3 %
Extraction speed 1.4 X
Track quality 100.0 %
Test CRC C16A9EFE
Copy CRC C16A9EFE
Track not present in AccurateRip database
Copy OK

Track 3

Filename C:\Users\bono17\Desktop\ 03 - Little Red Rooster.wav

Peak level 99.5 %
Extraction speed 1.7 X
Track quality 100.0 %
Test CRC 51A4B947
Copy CRC 51A4B947
Track not present in AccurateRip database
Copy OK

Track 4

Filename C:\Users\bono17\Desktop\ 04 - Tennessee Jed.wav

Peak level 98.8 %
Extraction speed 1.9 X
Track quality 100.0 %
Test CRC 1EDA8135
Copy CRC 1EDA8135
Track not present in AccurateRip database
Copy OK

Track 5

Filename C:\Users\bono17\Desktop\ 05 - Stuck Inside of Mobile With the Memphis Blues Again.wav

Peak level 98.0 %
Extraction speed 2.0 X
Track quality 99.9 %
Test CRC BB3EE1D8
Copy CRC BB3EE1D8
Track not present in AccurateRip database
Copy OK

Track 6

Filename C:\Users\bono17\Desktop\ 06 - To Lay Me Down.wav

Peak level 97.2 %
Extraction speed 2.2 X
Track quality 100.0 %
Test CRC F18B752D
Copy CRC F18B752D
Track not present in AccurateRip database
Copy OK

Track 7

Filename C:\Users\bono17\Desktop\ 07 - Let it Grow.wav

Peak level 99.4 %
Extraction speed 2.5 X
Track quality 100.0 %
Test CRC 81F560C6
Copy CRC 81F560C6
Track not present in AccurateRip database
Copy OK


None of the tracks are present in the AccurateRip database

No errors occurred

End of status report

–– CUETools DB Plugin V2.1.6

[CTDB TOCID: aoiaVE9enm_DMjptpug8ifRPgCo-] found
Submit result: aoiaVE9enm_DMjptpug8ifRPgCo- has been confirmed
Track | CTDB Status
1 | (18/18) Accurately ripped
2 | (18/18) Accurately ripped
3 | (18/18) Accurately ripped
4 | (18/18) Accurately ripped
5 | (18/18) Accurately ripped
6 | (18/18) Accurately ripped
7 | (18/18) Accurately ripped


==== Log checksum 1DB89E6CC5F9158CC9B057A5ED908C6320A38F4BD3E3133F7C215761AAC3A4A2 ====

Exact Audio Copy V1.3 from 2. September 2016

EAC extraction logfile from 12. November 2017, 12:55

Grateful Dead / 19890713 RFK Stadium Washington DC Disc 2

Used drive : PLDS DVD+-RW DU-8A5LH Adapter: 1 ID: 0

Read mode : Secure
Utilize accurate stream : Yes
Defeat audio cache : Yes
Make use of C2 pointers : No

Read offset correction : 6
Overread into Lead-In and Lead-Out : No
Fill up missing offset samples with silence : Yes
Delete leading and trailing silent blocks : No
Null samples used in CRC calculations : Yes
Used interface : Native Win32 interface for Win NT & 2000
Gap handling : Appended to previous track

Used output format : User Defined Encoder
Selected bitrate : 1024 kBit/s
Quality : High
Add ID3 tag : No
Command line compressor : C:\Program Files (x86)\Exact Audio Copy\Flac\flac.exe
Additional command line options : -8 -e -p -V -T "ARTIST=%artist%" -T "TITLE=%title%" -T "ALBUM=%albumtitle%" -T "DATE=%year%" -T "TRACKNUMBER=%tracknr%" -T "GENRE=%genre%" -T "PERFORMER=%albuminterpret%" -T "COMPOSER=%composer%" %haslyrics%–tag-from-file=LYRICS="%lyricsfile%"%haslyrics% -T "ALBUMARTIST=%albumartist%" -T "DISCNUMBER=%cdnumber%" -T "TOTALDISCS=%totalcds%" -T "TOTALTRACKS=%numtracks%" -T "COMMENT=%comment%" %source% -o %dest%


TOC of the extracted CD

Track | Start | Length | Start sector | End sector
––––––––––––––––––––––––––––-
1 | 0:00.00 | 10:42.25 | 0 | 48174
2 | 10:42.25 | 9:14.57 | 48175 | 89781
3 | 19:57.07 | 13:07.52 | 89782 | 148858
4 | 33:04.59 | 8:52.64 | 148859 | 188822


Track 1

Filename C:\Users\bono17\Desktop\ 01 - He's Gone.wav

Pre-gap length 0:00:02.00

Peak level 98.8 %
Extraction speed 1.3 X
Track quality 100.0 %
Test CRC 49C601E6
Copy CRC 49C601E6
Track not present in AccurateRip database
Copy OK

Track 2

Filename C:\Users\bono17\Desktop\ 02 - Looks Like Rain.wav

Peak level 96.7 %
Extraction speed 1.5 X
Track quality 99.9 %
Test CRC 810B008F
Copy CRC 810B008F
Track not present in AccurateRip database
Copy OK

Track 3

Filename C:\Users\bono17\Desktop\ 03 - Terrapin Station.wav

Peak level 97.9 %
Extraction speed 1.9 X
Track quality 100.0 %
Test CRC 95717604
Copy CRC 95717604
Track not present in AccurateRip database
Copy OK

Track 4

Filename C:\Users\bono17\Desktop\ 04 - Drums.wav

Peak level 99.4 %
Extraction speed 2.0 X
Track quality 99.9 %
Test CRC 45FD865A
Copy CRC 45FD865A
Track not present in AccurateRip database
Copy OK


None of the tracks are present in the AccurateRip database

No errors occurred

End of status report

–– CUETools DB Plugin V2.1.6

[CTDB TOCID: yTs3unQNJpIcA8RfyYp4fGjPeUM-] found
Submit result: yTs3unQNJpIcA8RfyYp4fGjPeUM- has been confirmed
Track | CTDB Status
1 | (17/17) Accurately ripped
2 | (17/17) Accurately ripped
3 | (17/17) Accurately ripped
4 | (17/17) Accurately ripped


==== Log checksum 2A21A3C2409A686ECCD6F67C3B985B6F4F64855BBA3B8F0D74CCE41B368148F9 ====

Exact Audio Copy V1.3 from 2. September 2016

EAC extraction logfile from 12. November 2017, 14:21

Grateful Dead / 19890713 RFK Stadium Washington DC Disc 3

Used drive : PLDS DVD+-RW DU-8A5LH Adapter: 1 ID: 0

Read mode : Secure
Utilize accurate stream : Yes
Defeat audio cache : Yes
Make use of C2 pointers : No

Read offset correction : 6
Overread into Lead-In and Lead-Out : No
Fill up missing offset samples with silence : Yes
Delete leading and trailing silent blocks : No
Null samples used in CRC calculations : Yes
Used interface : Native Win32 interface for Win NT & 2000
Gap handling : Appended to previous track

Used output format : User Defined Encoder
Selected bitrate : 1024 kBit/s
Quality : High
Add ID3 tag : No
Command line compressor : C:\Program Files (x86)\Exact Audio Copy\Flac\flac.exe
Additional command line options : -8 -e -p -V -T "ARTIST=%artist%" -T "TITLE=%title%" -T "ALBUM=%albumtitle%" -T "DATE=%year%" -T "TRACKNUMBER=%tracknr%" -T "GENRE=%genre%" -T "PERFORMER=%albuminterpret%" -T "COMPOSER=%composer%" %haslyrics%–tag-from-file=LYRICS="%lyricsfile%"%haslyrics% -T "ALBUMARTIST=%albumartist%" -T "DISCNUMBER=%cdnumber%" -T "TOTALDISCS=%totalcds%" -T "TOTALTRACKS=%numtracks%" -T "COMMENT=%comment%" %source% -o %dest%


TOC of the extracted CD

Track | Start | Length | Start sector | End sector
––––––––––––––––––––––––––––-
1 | 0:00.00 | 8:44.07 | 0 | 39306
2 | 8:44.07 | 5:17.49 | 39307 | 63130
3 | 14:01.56 | 10:38.35 | 63131 | 111015
4 | 24:40.16 | 11:03.23 | 111016 | 160763
5 | 35:43.39 | 9:46.35 | 160764 | 204748
6 | 45:29.74 | 8:24.30 | 204749 | 242578
7 | 53:54.29 | 6:08.46 | 242579 | 270224


Track 1

Filename C:\Users\bono17\Desktop\ 01 - Space.wav

Pre-gap length 0:00:02.00

Peak level 96.5 %
Extraction speed 1.2 X
Track quality 100.0 %
Test CRC 3548B696
Copy CRC 3548B696
Track not present in AccurateRip database
Copy OK

Track 2

Filename C:\Users\bono17\Desktop\ 02 - I Will Take You Home.wav

Peak level 65.0 %
Extraction speed 1.4 X
Track quality 100.0 %
Test CRC F389EE8F
Copy CRC F389EE8F
Track not present in AccurateRip database
Copy OK

Track 3

Filename C:\Users\bono17\Desktop\ 03 - Wharf Rat.wav

Peak level 97.2 %
Extraction speed 1.7 X
Track quality 100.0 %
Test CRC B23E95D1
Copy CRC B23E95D1
Track not present in AccurateRip database
Copy OK

Track 4

Filename C:\Users\bono17\Desktop\ 04 - The Other One.wav

Peak level 100.0 %
Extraction speed 1.9 X
Track quality 99.9 %
Test CRC 58EE95DC
Copy CRC 58EE95DC
Track not present in AccurateRip database
Copy OK

Track 5

Filename C:\Users\bono17\Desktop\ 05 - Throwin' Stones.wav

Peak level 100.0 %
Extraction speed 2.2 X
Track quality 100.0 %
Test CRC D2E44A06
Copy CRC D2E44A06
Track not present in AccurateRip database
Copy OK

Track 6

Filename C:\Users\bono17\Desktop\ 06 - Good Lovin'.wav

Peak level 97.5 %
Extraction speed 2.3 X
Track quality 100.0 %
Test CRC 9F034D43
Copy CRC 9F034D43
Track not present in AccurateRip database
Copy OK

Track 7

Filename C:\Users\bono17\Desktop\ 07 - U.S. Blues.wav

Peak level 97.3 %
Extraction speed 2.4 X
Track quality 100.0 %
Test CRC 2A651153
Copy CRC 2A651153
Track not present in AccurateRip database
Copy OK


None of the tracks are present in the AccurateRip database

No errors occurred

End of status report

–– CUETools DB Plugin V2.1.6

[CTDB TOCID: c0vhqphPNIfd0lh5ixSu6bmolTg-] found
Submit result: c0vhqphPNIfd0lh5ixSu6bmolTg- has been confirmed
Track | CTDB Status
1 | (18/18) Accurately ripped
2 | (18/18) Accurately ripped
3 | (18/18) Accurately ripped
4 | (18/18) Accurately ripped
5 | (18/18) Accurately ripped
6 | (18/18) Accurately ripped
7 | (18/18) Accurately ripped


==== Log checksum 33D1C96255425F8F12310BEC1751ADDB302BD7ABFB873B7862818B8E8FB0E123 ====


Thanks to the Original customer.