Subcategories

Red Hot Chili Peppers - Under The Bridge (German CD5) (1992) **[RE-UP]**

Posted By: TestTickles
Red Hot Chili Peppers - Under The Bridge (German CD5) (1992) **[RE-UP]**

Red Hot Chili Peppers - Under The Bridge (German CD5) (1992)
EAC Rip | FLAC with CUE and log | scans | 110 mb
MP3 CBR 320kbps | RAR | 44 mb
Genre: alternative rock, funk

Under The Bridge is a German CD5 released in 1992 by the Red Hot Chili Peppers. It features the hit song plus three non-album tracks from the Blood Sugar Sex Magik sessions.

Red Hot Chili Peppers - Under The Bridge (German CD5) (1992) **[RE-UP]**

1. Under The Bridge
2. Search And Destroy
3. Soul To Squeeze
4. Sikamikaniko

Produced by Rick Rubin

EAC extraction logfile from 27. April 2006, 7:11 for CD
Red Hot Chili Peppers / Under the Bridge (CD5)

Used drive : LITE-ON DVDRW SOHW-1633S Adapter: 0 ID: 0
Read mode : Secure with NO C2, accurate stream, disable cache
Read offset correction : 12
Overread into Lead-In and Lead-Out : No

Used output format : Internal WAV Routines
44.100 Hz; 16 Bit; Stereo

Other options :
Fill up missing offset samples with silence : Yes
Delete leading and trailing silent blocks : No
Installed external ASPI interface


Track 1
Filename D:\FLAC\Red Hot Chili Peppers - Under The Bridge (German CD5) (1992) [FLAC]\01 - Under The Bridge.wav

Pre-gap length 0:00:02.66

Peak level 92.9 %
Track quality 100.0 %
Test CRC 34815F7F
Copy CRC 34815F7F
Copy OK

Track 2
Filename D:\FLAC\Red Hot Chili Peppers - Under The Bridge (German CD5) (1992) [FLAC]\02 - Search And Destroy.wav

Pre-gap length 0:00:00.36

Peak level 81.6 %
Track quality 100.0 %
Test CRC 483E9449
Copy CRC 483E9449
Copy OK

Track 3
Filename D:\FLAC\Red Hot Chili Peppers - Under The Bridge (German CD5) (1992) [FLAC]\03 - Soul To Squeeze.wav

Pre-gap length 0:00:01.37

Peak level 76.3 %
Track quality 100.0 %
Test CRC CDE6B3BF
Copy CRC CDE6B3BF
Copy OK

Track 4
Filename D:\FLAC\Red Hot Chili Peppers - Under The Bridge (German CD5) (1992) [FLAC]\04 - Sikamikaniko.wav

Pre-gap length 0:00:01.30

Peak level 74.7 %
Track quality 99.9 %
Test CRC AD0DF9DC
Copy CRC AD0DF9DC
Copy OK

No errors occured


End of status report


Red Hot Chili Peppers - Under The Bridge (German CD5) (1992) **[RE-UP]**


Check out other titles in my Avaxhome blog