VA - Rhythm Of Life (CD3) (2003) {Ubiquity Records sampler}

Posted By: TestTickles
VA - Rhythm Of Life (CD3) (2003) {Ubiquity Records sampler}

VA - Rhythm Of Life (CD3) (2003) {Ubiquity Records sampler}
EAC Rip | FLAC with CUE and log | scans | 103 mb
MP3 CBR 320kbps | RAR | 39 mb
Genre: R&B, soul, downtempo, Latin pop

Rhythm Of Lifes is a four song CD3 (3 inch CD) released by Ubiquity Records. A sampler for the label, it highlights some of the material they were releasing at the time.

1. Leroy And The Drivers - Sad Chicken
2. Nobody - White Folding Slowly (Into Blue Remix)
3. John Arnold - Broken
4. Greyboy - We Make Music

EAC extraction logfile from 29. January 2007, 15:14 for CD
Various / Rhythm Of Life (CD3)

Used drive : LITE-ON DVDRW SOHW-1633S Adapter: 0 ID: 0
Read mode : Secure with NO C2, accurate stream, disable cache
Read offset correction : 12
Overread into Lead-In and Lead-Out : No

Used output format : Internal WAV Routines
44.100 Hz; 16 Bit; Stereo

Other options :
Fill up missing offset samples with silence : Yes
Delete leading and trailing silent blocks : No
Installed external ASPI interface


Track 1
Filename D:\FLAC\VA - Rhythm Of Life (CD3) (2003) [FLAC] {Ubiquity Records sampler}\01 - Leroy And The Drivers - Sad Chicken.wav

Pre-gap length 0:00:02.00

Peak level 99.9 %
Track quality 99.9 %
Test CRC A3358AF3
Copy CRC A3358AF3
Copy OK

Track 2
Filename D:\FLAC\VA - Rhythm Of Life (CD3) (2003) [FLAC] {Ubiquity Records sampler}\02 - Nobody - White Folding Slowly (Into Blue Remix).wav

Peak level 99.9 %
Track quality 100.0 %
Test CRC 56DE8E22
Copy CRC 56DE8E22
Copy OK

Track 3
Filename D:\FLAC\VA - Rhythm Of Life (CD3) (2003) [FLAC] {Ubiquity Records sampler}\03 - John Arnold - Broken.wav

Peak level 99.9 %
Track quality 100.0 %
Test CRC D5D28DE6
Copy CRC D5D28DE6
Copy OK

Track 4
Filename D:\FLAC\VA - Rhythm Of Life (CD3) (2003) [FLAC] {Ubiquity Records sampler}\04 - Greyboy - We Make Music.wav

Peak level 99.9 %
Track quality 100.0 %
Test CRC C30BE4B7
Copy CRC C30BE4B7
Copy OK

No errors occured


End of status report