Subcategories

Rafael Kubelik - The Symphony Edition (2014) (23 CDs Box Set)

Posted By: murena
Rafael Kubelik - The Symphony Edition (2014) (23 CDs Box Set)

Rafael Kubelik - The Symphony Edition (2014) (23 CDs Box Set)
EAC Rip | FLAC (Tracks+.cue, log) | 23 CDs, 26:48:31 min | 6,98 Gb | Scans -> 50 mb
Genre: Classical / Label: Deutsche Grammophon

This set represents Rafael Kubelik’s art in a wholly positive way. His Mahler and Dvorák cycles are very well-known. The Dvorák remains, along with those by Rowicki and Kertesz, one of the three reference editions of the complete symphonies, and the only one featuring a Czech conductor. It’s particularly outstanding for the middle period works, Nos. 4-6, all of which are imbued with a rhythmic drive that few other versions match. The scherzos are especially memorable: that of the Sixth Symphony features crisp, hard-hitting accents that are really exciting. Through it all, the Berlin Philharmonic plays beautifully for Kubelik, and the couplings (Carnival, Scherzo Capriccio, The Wood Dove) with the Bavarian Radio Symphony, are every bit as fine.

Rafael Kubelik - The Symphony Edition (2014) (23 CDs Box Set)


CDs:
CD 1: Beethoven: Symphonies Nos. 1 & 2
CD 2: Beethoven: Symphonies Nos. 3 & 8
CD 3: Beethoven: Symphonies No. 4 & 6
CD 4: Beethoven: Symphonies No. 5 & 7 Ludwig van Beethoven (1770 - 1827)
CD 5: Beethoven: Symphony No. 9
CD 6: Schumann: Symphonies Nos. 1 In B Flat, Op.38 & 2 In C, Op.61; Overture Genoveva
CD 7: Schumann: Symphonies Nos.3 In E Flat, Op.97 & 4 In D Minor, Op.120, Overture Manfred, Op.115
CD 8: Dvorák: Symphony No. 1, Symphony No. 4 / Movements 1 & 2 Antonín Dvorák (1841 - 1904)
CD 9: Dvorák: Symphony No. 4 / Movements 3 & 4, Symphony No. 2 Antonín Dvorák (1841 - 1904)
CD 10: Dvorák: Symphonies No. 3 & 5
CD 11: Dvorák: Symphony No. 6, Scherzo capriccioso
CD 12: Dvorák: Symphonies No. 7 & 8
CD 13: Dvorák: Carnival Overture, The Wood Dove, Symphony No. 9
CD 14: Mahler: Symphony No. 1 In D
CD 15: Mahler: Symphony No. 2 In C Minor - "Resurrection"
CD 16: Mahler: Symphony No. 3 In D Minor Gustav Mahler (1860 - 1911)
CD 17: Mahler: Symphony Nos. 3 Part II & 10 (Unfinished)
CD 18: Mahler: Symphony No. 4 In G
CD 19: Mahler: Symphony No. 5 In C Sharp Minor
CD 20: Mahler: Symphony No. 6 In A Minor
CD 21: Mahler: Symphony No. 7 In E Minor
CD 22: Mahler: Symphony No. 8 In E Flat - "Symphony Of A Thousand"
CD 23: Mahler: Symphony No. 9 In D

CD01 Beethoven
01 Symphony No.1 in C Major, Op.21, I. Adagio molto - Allegro con brio - London Symphony Orchestra, Rafael Kubelik
02 Symphony No.1 in C Major, Op.21, II. Andante cantabile con moto - London Symphony Orchestra, Rafael Kubelik
03 Symphony No.1 in C Major, Op.21, III. Menuetto (Allegro molto e vivace) - London Symphony Orchestra, Rafael Kubelik
04 Symphony No.1 in C Major, Op.21, IV. Finale (Adagio - Allegro molto e vivace) - London Symphony Orchestra, Rafael Kubelik
05 Symphony No.2 In D Major, Op.36, I. Adagio molto - Allegro con brio - Concertgebouw Orchestra of Amsterdam, Rafael Kubelik
06 Symphony No.2 In D Major, Op.36, II. Larghetto - Concertgebouw Orchestra of Amsterdam, Rafael Kubelik
07 Symphony No.2 In D Major, Op.36, III. Scherzo (Allegro) - Concertgebouw Orchestra of Amsterdam, Rafael Kubelik
08 Symphony No.2 In D Major, Op.36, IV. Allegro molto - Concertgebouw Orchestra of Amsterdam, Rafael Kubelik

CD02 Beethoven
01 Symphony No.3 in E flat Major, Op.55 -'Eroica', I. Allegro con brio - Berliner Philharmoniker, Rafael Kubelik
02 Symphony No.3 in E flat Major, Op.55 -'Eroica', II. Marcia funebre. Adagio assai - Berliner Philharmoniker, Rafael Kubelik
03 Symphony No.3 in E flat Major, Op.55 -'Eroica', III. Scherzo. Allegro vivace - Berliner Philharmoniker, Rafael Kubelik
04 Symphony No.3 in E flat Major, Op.55 -'Eroica', IV. Finale. Allegro molto - Berliner Philharmoniker, Rafael Kubelik
05 Symphony No.8 in F Major, Op.93, I. Allegro vivace e con brio - The Cleveland Orchestra, Rafael Kubelik
06 Symphony No.8 in F Major, Op.93, II. Allegretto scherzando - The Cleveland Orchestra, Rafael Kubelik
07 Symphony No.8 in F Major, Op.93, III. Tempo di menuetto - The Cleveland Orchestra, Rafael Kubelik
08 Symphony No.8 in F Major, Op.93, IV. Allegro vivace - The Cleveland Orchestra, Rafael Kubelik

CD03 Beethoven
01 Symphony No.4 In B flat major, Op 60, I. Adagio - Allegro vivace - Israel Philharmonic Orchestra, Rafael Kubelik
02 Symphony No.4 In B flat major, Op 60, II. Adagio - Israel Philharmonic Orchestra, Rafael Kubelik
03 Symphony No.4 In B flat major, Op 60, III. Menuetto. Allegro vivace - Israel Philharmonic Orchestra, Rafael Kubelik
04 Symphony No.4 In B flat major, Op 60, IV. Allegro ma non troppo - Israel Philharmonic Orchestra, Rafael Kubelik
05 Symphony No.6 in F major, Op. 68, 'Pastoral', I. Allegro ma non troppo - Orchestre de Paris, Rafael Kubelik
06 Symphony No.6 in F major, Op. 68, 'Pastoral', II. Andante molto mosso - Orchestre de Paris, Rafael Kubelik
07 Symphony No.6 in F major, Op. 68, 'Pastoral', III. Allegro - Orchestre de Paris, Rafael Kubelik
08 Symphony No.6 in F major, Op. 68, 'Pastoral', IV. Allegro - Orchestre de Paris, Rafael Kubelik
09 Symphony No.6 in F major, Op. 68, 'Pastoral', V. Allegretto - Orchestre de Paris, Rafael Kubelik

CD04 Beethoven
01 Symphony No.5 in C minor, Op.67, I. Allegro con brio - Boston Symphony Orchestra, Rafael Kubelik
02 Symphony No.5 in C minor, Op.67, II. Andante con moto - Boston Symphony Orchestra, Rafael Kubelik
03 Symphony No.5 in C minor, Op.67, III. Allegro - scherzo - Boston Symphony Orchestra, Rafael Kubelik
04 Symphony No.5 in C minor, Op.67, IV. Allegro - Boston Symphony Orchestra, Rafael Kubelik
05 Symphony No.7 in A major, Op.92, I. Poco sostenuto - Vivace - Wiener Philharmoniker, Rafael Kubelik
06 Symphony No.7 in A major, Op.92, II. Allegretto - Wiener Philharmoniker, Rafael Kubelik
07 Symphony No.7 in A major, Op.92, III. Presto - Assai meno presto - Wiener Philharmoniker, Rafael Kubelik
08 Symphony No.7 in A major, Op.92, IV. Allegro con brio - Wiener Philharmoniker, Rafael Kubelik

CD05 Beethoven
01 Symphony No.9 In D minor, Op.125 - 'Choral', I. Allegro ma non troppo, un poco maestoso - Symphonieorchester des Bayerischen Rundfunks, Rafael Kubelik
02 Symphony No.9 In D minor, Op.125 - 'Choral', II. Molto vivace - Symphonieorchester des Bayerischen Rundfunks, Rafael Kubelik
03 Symphony No.9 In D minor, Op.125 - 'Choral', III. Adagio molto e cantabile - Symphonieorchester des Bayerischen Rundfunks, Rafael Kubelik
04 Symphony No.9 In D minor, Op.125 - 'Choral', IV. Presto - Allegro assai - Symphonieorchester des Bayerischen Rundfunks, Rafael Kubelik
05 Symphony No.9 In D minor, Op.125 - 'Choral', V. Presto 'O Freunde, nicht diese Töne!' - Allegro assai - Symphonieorchester des Bayerischen Rundfunks, Rafael Kubelik. Chorus and soloists.

CD06 Schumann
01 Symphony No.1 In B flat major, Op.38 - 'Spring', I. Andante un poco maestoso – Allegro molto vivace - Berliner Philharmoniker, Rafael Kubelik
02 Symphony No.1 In B flat major, Op.38 - 'Spring', II. Larghetto - Berliner Philharmoniker, Rafael Kubelik
03 Symphony No.1 In B flat major, Op.38 - 'Spring', III. Scherzo. Molto vivace - Berliner Philharmoniker, Rafael Kubelik
04 Symphony No.1 In B flat major, Op.38 - 'Spring', IV. Allegro animato e grazioso - Berliner Philharmoniker, Rafael Kubelik
05 Symphony No.2 in C major, Op. 61, I. Sostenuto assai – Allegro, ma non troppo - Berliner Philharmoniker, Rafael Kubelik
06 Symphony No.2 in C major, Op. 61, II. Scherzo. Allegro vivace - Berliner Philharmoniker, Rafael Kubelik
07 Symphony No.2 in C major, Op. 61, III. Adagio espressivo - Berliner Philharmoniker, Rafael Kubelik
08 Symphony No.2 in C major, Op. 61, IV. Allegro molto vivace - Berliner Philharmoniker, Rafael Kubelik
09 Overture Genoveva, Op.81 - Berliner Philharmoniker, Rafael Kubelik

CD07 Schumann
01 Symphony No.3 in E flat major, Op. 97 'Rhenish', I. Lebhaft - Berliner Philharmoniker, Rafael Kubelik
02 Symphony No.3 in E flat major, Op. 97 'Rhenish', II. Scherzo. Sehr mäßig - Berliner Philharmoniker, Rafael Kubelik
03 Symphony No.3 in E flat major, Op. 97 'Rhenish', III. Nicht schnell - Berliner Philharmoniker, Rafael Kubelik
04 Symphony No.3 in E flat major, Op. 97 'Rhenish', IV. Feierlich - Berliner Philharmoniker, Rafael Kubelik
05 Symphony No.3 in E flat major, Op. 97 'Rhenish', V. Lebhaft - Berliner Philharmoniker, Rafael Kubelik
06 Symphony No.4 In D Minor, Op.120, I. Ziemlich langsam - Lebhaft - Berliner Philharmoniker, Rafael Kubelik
07 Symphony No.4 In D Minor, Op.120, II. Romanze. Ziemlich langsam - Berliner Philharmoniker, Rafael Kubelik
08 Symphony No.4 In D Minor, Op.120, III. Scherzo. Lebhaft - Berliner Philharmoniker, Rafael Kubelik
09 Symphony No.4 In D Minor, Op.120, IV. Langsam, Lebhaft - Berliner Philharmoniker, Rafael Kubelik
10 Overture Manfred, Op.115 - Berliner Philharmoniker, Rafael Kubelik

CD08 Dvořák
01 Symphony No.1 in C minor, Op.3, B.9 - 'The Bells of Zlonice', I. Allegro - Berliner Philharmoniker, Rafael Kubelik
02 Symphony No.1 in C minor, Op.3, B.9 - 'The Bells of Zlonice', II. Adagio di molto - Berliner Philharmoniker, Rafael Kubelik
03 Symphony No.1 in C minor, Op.3, B.9 - 'The Bells of Zlonice', III. Allegretto - Berliner Philharmoniker, Rafael Kubelik
04 Symphony No.1 in C minor, Op.3, B.9 - 'The Bells of Zlonice', IV. Allegro animato - Berliner Philharmoniker, Rafael Kubelik
05 Symphony No.4 in D minor, Op.13, B.41, I. Allegro - Berliner Philharmoniker, Rafael Kubelik
06 Symphony No.4 in D minor, Op.13, B.41, II. Andante sostenuto e molto cantabile - Berliner Philharmoniker, Rafael Kubelik

CD09 Dvořák
01 Symphony No.4 in D minor, Op.13, B.41, III. Scherzo. Allegro feroce - Berliner Philharmoniker, Rafael Kubelik
02 Symphony No.4 in D minor, Op.13, B.41, IV. Finale. Allegro con brio - Berliner Philharmoniker, Rafael Kubelik
03 Symphony No.2 in B flat major, Op.4, B.12, I. Allegro con moto - Berliner Philharmoniker, Rafael Kubelik
04 Symphony No.2 in B flat major, Op.4, B.12, II. Poco adagio - Berliner Philharmoniker, Rafael Kubelik
05 Symphony No.2 in B flat major, Op.4, B.12, III. Scherzo. Allegro con brio - Berliner Philharmoniker, Rafael Kubelik
06 Symphony No.2 in B flat major, Op.4, B.12, IV. Finale. Allegro con fuoco - Berliner Philharmoniker, Rafael Kubelik

CD10 Dvořák
01 Symphony No.3 in E Flat Major, Op.10, B.34, I. Allegro moderato - Berliner Philharmoniker, Rafael Kubelik
02 Symphony No.3 in E Flat Major, Op.10, B.34, II. Adagio molto, tempo di marcia - Berliner Philharmoniker, Rafael Kubelik
03 Symphony No.3 in E Flat Major, Op.10, B.34, III. Finale (Allegro vivace) - Berliner Philharmoniker, Rafael Kubelik
04 Symphony No.5 in F Major, Op.76, B.54, I. Allegro, ma non troppo - Berliner Philharmoniker, Rafael Kubelik
05 Symphony No.5 in F Major, Op.76, B.54, II. Andante con moto - Berliner Philharmoniker, Rafael Kubelik
06 Symphony No.5 in F Major, Op.76, B.54, III. Andante con moto - Allegro scherzando - Berliner Philharmoniker, Rafael Kubelik
07 Symphony No.5 in F Major, Op.76, B.54, IV. Allegro molto - Berliner Philharmoniker, Rafael Kubelik

CD11 Dvořák
01 Symphony No.6 in D Major, Op.60, B.112, I. Allegro non tanto - Berliner Philharmoniker, Rafael Kubelik
02 Symphony No.6 in D Major, Op.60, B.112, II. Adagio - Berliner Philharmoniker, Rafael Kubelik
03 Symphony No.6 in D Major, Op.60, B.112, III. Scherzo (Furiant). Presto - Berliner Philharmoniker, Rafael Kubelik
04 Symphony No.6 in D Major, Op.60, B.112, IV. Finale. Allegro con spirito - Berliner Philharmoniker, Rafael Kubelik
05 Scherzo capriccioso, Op.66, B.131 - Symphonieorchester des Bayerischen Rundfunks, Rafael Kubelik

CD12 Dvořák
01 Symphony No.7 in D Minor, Op.70, B.141, I. Allegro maestoso - Berliner Philharmoniker, Rafael Kubelik
02 Symphony No.7 in D Minor, Op.70, B.141, II. Poco Adagio - Berliner Philharmoniker, Rafael Kubelik
03 Symphony No.7 in D Minor, Op.70, B.141, III. Scherzo: Vivace - Poco meno mosso - Berliner Philharmoniker, Rafael Kubelik
04 Symphony No.7 in D Minor, Op.70, B.141, IV. Finale: Allegro - Berliner Philharmoniker, Rafael Kubelik
05 Symphony No.8 in G Major, Op.88, B.163, I. Allegro con brio - Berliner Philharmoniker, Rafael Kubelik
06 Symphony No.8 in G Major, Op.88, B.163, II. Adagio - Berliner Philharmoniker, Rafael Kubelik
07 Symphony No.8 in G Major, Op.88, B.163, III. Allegretto grazioso, Molto vivace - Berliner Philharmoniker, Rafael Kubelik
08 Symphony No.8 in G Major, Op.88, B.163, IV. Allegro, ma non troppo - Berliner Philharmoniker, Rafael Kubelik

CD13 Dvořák
01 Carnival Overture, Op.92 , B.169 - Symphonieorchester des Bayerischen Rundfunks, Rafael Kubelik
02 The Wood Dove, Op.110, B.198 - Symphonieorchester des Bayerischen Rundfunks, Rafael Kubelik
03 Symphony No.9 in E Minor, Op.95, B.178 'From the New World', I. Adagio - Allegro molto - Berliner Philharmoniker, Rafael Kubelik
04 Symphony No.9 in E Minor, Op.95, B.178 'From the New World', II. Largo - Berliner Philharmoniker, Rafael Kubelik
05 Symphony No.9 in E Minor, Op.95, B.178 'From the New World', III. Scherzo. Molto vivace - Berliner Philharmoniker, Rafael Kubelik
06 Symphony No.9 in E Minor, Op.95, B.178 'From the New World', IV. Allegro con fuoco - Berliner Philharmoniker, Rafael Kubelik

CD14 Mahler
01 Symphony No.1 in D major, I. Langsam. Schleppend - Im Anfang Sehr Gemächlich - Symphonieorchester des Bayerischen Rundfunks, Rafael Kubelik
02 Symphony No.1 in D major, II. Kräftig Bewegt, Doch Nicht Zu Schnell - Trio. Recht Gemächlich - Symphonieorchester des Bayerischen Rundfunks, Rafael Kubelik
03 Symphony No.1 in D major, III. Feierlich Und Gemessen, Ohne Zu Schleppen - Symphonieorchester des Bayerischen Rundfunks, Rafael Kubelik
04 Symphony No.1 in D major, IV. Stürmisch Bewegt - Symphonieorchester des Bayerischen Rundfunks, Rafael Kubelik

CD15 Mahler
01 Symphony No.2 In C Minor - 'Resurrection', I. Allegro maestoso. Mit durchaus ernstem und feierlichem Ausdruck - Symphonieorchester des Bayerischen Rundfunks, Rafael Kubelik
02 Symphony No.2 In C Minor - 'Resurrection', II. Andante moderato. Sehr gemächlich - Symphonieorchester des Bayerischen Rundfunks, Rafael Kubelik
03 Symphony No.2 In C Minor - 'Resurrection', III. Scherzo. In ruhig fliessender Bewegung - Symphonieorchester des Bayerischen Rundfunks, Rafael Kubelik
04 Symphony No.2 In C Minor - 'Resurrection', IV. 'Urlicht'. Sehr feierlich, aber schlicht 'O Röschen rot!' - Symphonieorchester des Bayerischen Rundfunks, Rafael Kubelik. Norma Procter, Contralto
05 Symphony No.2 In C Minor - 'Resurrection', V. Im Tempo Des Scherzo. Wild herausfahrend - Symphonieorchester des Bayerischen Rundfunks, Rafael Kubelik
06 Symphony No.2 In C Minor - 'Resurrection', VI. 'Aufersteh'n, ja aufersteh'n wirst du' (Langsam. Misterioso) - Symphonieorchester des Bayerischen Rundfunks, Rafael Kubelik. Choir & soloists.

CD16 Mahler
01 Symphony No.3 in D minor Part 1, I. Kräftig. Entschieden - Symphonieorchester des Bayerischen Rundfunks, Rafael Kubelik
02 Symphony No.3 in D minor Part 2, II. Tempo Di Menuetto. Sehr Mäßig - Symphonieorchester des Bayerischen Rundfunks, Rafael Kubelik
03 Symphony No.3 in D minor Part 2, III. Comodo. Scherzando. Ohne Hast - Symphonieorchester des Bayerischen Rundfunks, Rafael Kubelik
04 Symphony No.3 in D minor Part 2, IV. Sehr Langsam. Misterioso, 'O Mensch! Gib acht!' 'O Mensch! Gib acht' - Symphonieorchester des Bayerischen Rundfunks, Rafael Kubelik. Marjorie Thomas, Contralto
05 Symphony No.3 in D minor Part 2, V. Lustig im Tempo und keck im Ausdruck: 'Bimm Bamm. Es sungen drei Engel' - Symphonieorchester des Bayerischen Rundfunks, Rafael Kubelik. Choir & soloists

CD17 Mahler
01 Symphony No.3 in D minor Part 2, VI. Langsam. Ruhevoll. Empfunden - Symphonieorchester des Bayerischen Rundfunks, Rafael Kubelik
02 Symphony No.10 in F sharp (unfinished), I. Andante - Adagio - Symphonieorchester des Bayerischen Rundfunks, Rafael Kubelik

CD18 Mahler
01 Symphony No.4 in G major, I. Bedächtig. Nicht eilen - Recht gemächlich - Symphonieorchester des Bayerischen Rundfunks, Rafael Kubelik
02 Symphony No.4 in G major, II. In Gemächlicher Bewegung. Ohne Hast - Symphonieorchester des Bayerischen Rundfunks, Rafael Kubelik. Rudolf Koeckert, Violin
03 Symphony No.4 in G major, III. Ruhevoll (Poco adagio) - Symphonieorchester des Bayerischen Rundfunks, Rafael Kubelik
04 Symphony No.4 in G major, IV. Sehr behaglich: 'Wir genießen die himmlischen Freuden' - Symphonieorchester des Bayerischen Rundfunks, Rafael Kubelik. Elsie Morison, Soprano

CD19 Mahler
01 Symphony No.5 In C Sharp Minor, I. Trauermarsch (In gemessenem Schritt. Streng. Wie ein Kondukt - Plötzlich schneller. Leidenschaftlich. Wild - Tempo I) - Symphonieorchester des Bayerischen Rundfunks, Rafael Kubelik
02 Symphony No.5 In C Sharp Minor, II. Stürmisch bewegt. Mit größter Vehemenz - Bedeutend langsamer - Tempo I subito - Symphonieorchester des Bayerischen Rundfunks, Rafael Kubelik
03 Symphony No.5 In C Sharp Minor, III. Scherzo. Kräftig, nicht zu schnell - Symphonieorchester des Bayerischen Rundfunks, Rafael Kubelik
04 Symphony No.5 In C Sharp Minor, IV. Adagietto. Sehr langsam - attacca - Symphonieorchester des Bayerischen Rundfunks, Rafael Kubelik
05 Symphony No.5 In C Sharp Minor, V. Rondo - Finale. Allegro giocoso. Frisch - Symphonieorchester des Bayerischen Rundfunks, Rafael Kubelik

CD20 Mahler
01 Symphony No.6 in A minor, 'Tragic', Allegro Energico, Ma Non Troppo. Heftig, Aber Markig - Symphonieorchester des Bayerischen Rundfunks, Rafael Kubelik
02 Symphony No.6 in A minor, 'Tragic', Scherzo. Wuchtig - Symphonieorchester des Bayerischen Rundfunks, Rafael Kubelik
03 Symphony No.6 in A minor, 'Tragic', Andante Moderato - Symphonieorchester des Bayerischen Rundfunks, Rafael Kubelik
04 Symphony No.6 in A minor, 'Tragic', Finale. Allegro Moderato - Allegro Energico - Symphonieorchester des Bayerischen Rundfunks, Rafael Kubelik

CD21 Mahler
01 Symphony No.7 In E Minor, I. Langsam (Adagio) - Allegro Risoluto, Ma Non Troppo - Symphonieorchester des Bayerischen Rundfunks, Rafael Kubelik
02 Symphony No.7 In E Minor, II. Nachtmusik. Allegro Moderato - Symphonieorchester des Bayerischen Rundfunks, Rafael Kubelik
03 Symphony No.7 In E Minor, III. Scherzo. Schattenhaft - Symphonieorchester des Bayerischen Rundfunks, Rafael Kubelik
04 Symphony No.7 In E Minor, IV. Nachtmusik. Andante Amoroso - Symphonieorchester des Bayerischen Rundfunks, Rafael Kubelik
05 Symphony No.7 In E Minor, V. Rondo - Finale (Allegro ordinario - Allegro moderato ma energico) - Symphonieorchester des Bayerischen Rundfunks, Rafael Kubelik

CD22 Mahler
01 Symphony No. 8 In E flat major - 'Symphony Of A Thousand', Part I - Hymnus 'Veni, Creator Spiritus'. I. Allegro impetuoso - Symphonieorchester des Bayerischen Rundfunks, Rafael Kubelik. Choirs & soloists.
02 Symphony No. 8 In E flat major - 'Symphony Of A Thousand', Part II - Final scene from Goethe's 'Faust', II. Poco Adagio - Più Mosso. - Symphonieorchester des Bayerischen Rundfunks, Rafael Kubelik. Choirs & soloists.
03 Symphony No. 8 In E flat major - 'Symphony Of A Thousand', Part II - Final scene from Goethe's 'Faust', III. Äusserst Langsam. Adagissimo - Symphonieorchester des Bayerischen Rundfunks, Rafael Kubelik. Choirs & soloists.

CD23 Mahler
01 Symphony No.9 in D, I. Andante Comodo - Symphonieorchester des Bayerischen Rundfunks, Rafael Kubelik
02 Symphony No.9 in D, II. Im Tempo eines gemächlichen Ländler. Etwas täppisch und sehr derb - Poco più mosso subito - Ländler, ganz langsam - Symphonieorchester des Bayerischen Rundfunks, Rafael Kubelik
03 Symphony No.9 in D, III. Rondo-Burleske. Allegro Assai. Sehr Trotzig - Symphonieorchester des Bayerischen Rundfunks, Rafael Kubelik
04 Symphony No.9 in D, IV. Adagio. Sehr Langsam Und Noch Zurückhaltend - Symphonieorchester des Bayerischen Rundfunks, Rafael Kubelik



Exact Audio Copy V1.0 beta 3 from 29. August 2011

EAC extraction logfile from 22. October 2016, 22:19

Rafael Kubelik / Kubelik SE - CD 01 Beethoven

Used drive : ASUS DRW-24F1ST a Adapter: 2 ID: 0

Read mode : Secure
Utilize accurate stream : Yes
Defeat audio cache : No
Make use of C2 pointers : No

Read offset correction : 6
Overread into Lead-In and Lead-Out : No
Fill up missing offset samples with silence : Yes
Delete leading and trailing silent blocks : No
Null samples used in CRC calculations : Yes
Used interface : Native Win32 interface for Win NT & 2000
Gap handling : Appended to previous track

Used output format : User Defined Encoder
Selected bitrate : 768 kBit/s
Quality : High
Add ID3 tag : No
Command line compressor : C:\Program Files (x86)\Exact Audio Copy\FLAC\FLAC.EXE
Additional command line options : -8 -V -T "ARTIST=%artist%" -T "TITLE=%title%" -T "ALBUM=%albumtitle%" -T "DATE=%year%" -T "TRACKNUMBER=%tracknr%" -T "GENRE=%genre%" -T "COMMENT=%comment%" -T "BAND=%albuminterpret%" -T "ALBUMARTIST=%albuminterpret%" -T "COMPOSER=%composer%" %haslyrics%–tag-from-file=LYRICS="%lyricsfile%"%haslyrics% -T "DISCNUMBER=%cdnumber%" -T "TOTALDISCS=%totalcds%" -T "TOTALTRACKS=%numtracks%" %hascover%–picture="%coverfile%"%hascover% %source% -o %dest%


TOC of the extracted CD

Track | Start | Length | Start sector | End sector
––––––––––––––––––––––––––––-
1 | 0:00.00 | 9:12.44 | 0 | 41443
2 | 9:12.44 | 8:10.31 | 41444 | 78224
3 | 17:23.00 | 4:02.19 | 78225 | 96393
4 | 21:25.19 | 5:55.49 | 96394 | 123067
5 | 27:20.68 | 13:08.46 | 123068 | 182213
6 | 40:29.39 | 12:33.27 | 182214 | 238715
7 | 53:02.66 | 3:42.60 | 238716 | 255425
8 | 56:45.51 | 6:36.24 | 255426 | 285149


Track 1

Filename E:\01 Symphony No.1 in C Major, Op.21, I. Adagio molto - Allegro con brio.wav

Pre-gap length 0:00:02.00

Peak level 89.8 %
Extraction speed 7.9 X
Track quality 100.0 %
Copy CRC 7406C816
Accurately ripped (confidence 12) [21AA68A0] (AR v2)
Copy OK

Track 2

Filename E:\02 Symphony No.1 in C Major, Op.21, II. Andante cantabile con moto.wav

Peak level 68.0 %
Extraction speed 9.4 X
Track quality 100.0 %
Copy CRC 28B5BB52
Accurately ripped (confidence 13) [3B46AC11] (AR v2)
Copy OK

Track 3

Filename E:\03 Symphony No.1 in C Major, Op.21, III. Menuetto (Allegro molto e vivace).wav

Peak level 86.8 %
Extraction speed 10.3 X
Track quality 100.0 %
Copy CRC 61231F3B
Accurately ripped (confidence 13) [C429B9DF] (AR v2)
Copy OK

Track 4

Filename E:\04 Symphony No.1 in C Major, Op.21, IV. Finale (Adagio - Allegro molto e vivace).wav

Peak level 99.6 %
Extraction speed 11.1 X
Track quality 100.0 %
Copy CRC 280EAC06
Accurately ripped (confidence 13) [98DD4B90] (AR v2)
Copy OK

Track 5

Filename E:\05 Symphony No.2 In D Major, Op.36, I. Adagio molto - Allegro con brio.wav

Pre-gap length 0:00:08.00

Peak level 98.7 %
Extraction speed 12.2 X
Track quality 100.0 %
Copy CRC D496679F
Accurately ripped (confidence 13) [22AD6F18] (AR v2)
Copy OK

Track 6

Filename E:\06 Symphony No.2 In D Major, Op.36, II. Larghetto.wav

Peak level 63.3 %
Extraction speed 13.1 X
Track quality 100.0 %
Copy CRC A3EF2306
Accurately ripped (confidence 13) [AD515570] (AR v2)
Copy OK

Track 7

Filename E:\07 Symphony No.2 In D Major, Op.36, III. Scherzo (Allegro).wav

Peak level 97.0 %
Extraction speed 13.7 X
Track quality 100.0 %
Copy CRC E56CA225
Accurately ripped (confidence 13) [5F1CAE1A] (AR v2)
Copy OK

Track 8

Filename E:\08 Symphony No.2 In D Major, Op.36, IV. Allegro molto.wav

Peak level 94.8 %
Extraction speed 14.6 X
Track quality 100.0 %
Copy CRC D4E32EB6
Accurately ripped (confidence 14) [AE82B94A] (AR v2)
Copy OK


All tracks accurately ripped

No errors occurred

End of status report


Exact Audio Copy V1.0 beta 3 from 29. August 2011

EAC extraction logfile from 23. October 2016, 0:39

Rafael Kubelik / Kubelik SE - CD 02 Beethoven

Used drive : ASUS DRW-24F1ST a Adapter: 2 ID: 0

Read mode : Secure
Utilize accurate stream : Yes
Defeat audio cache : No
Make use of C2 pointers : No

Read offset correction : 6
Overread into Lead-In and Lead-Out : No
Fill up missing offset samples with silence : Yes
Delete leading and trailing silent blocks : No
Null samples used in CRC calculations : Yes
Used interface : Native Win32 interface for Win NT & 2000
Gap handling : Appended to previous track

Used output format : User Defined Encoder
Selected bitrate : 768 kBit/s
Quality : High
Add ID3 tag : No
Command line compressor : C:\Program Files (x86)\Exact Audio Copy\FLAC\FLAC.EXE
Additional command line options : -8 -V -T "ARTIST=%artist%" -T "TITLE=%title%" -T "ALBUM=%albumtitle%" -T "DATE=%year%" -T "TRACKNUMBER=%tracknr%" -T "GENRE=%genre%" -T "COMMENT=%comment%" -T "BAND=%albuminterpret%" -T "ALBUMARTIST=%albuminterpret%" -T "COMPOSER=%composer%" %haslyrics%–tag-from-file=LYRICS="%lyricsfile%"%haslyrics% -T "DISCNUMBER=%cdnumber%" -T "TOTALDISCS=%totalcds%" -T "TOTALTRACKS=%numtracks%" %hascover%–picture="%coverfile%"%hascover% %source% -o %dest%


TOC of the extracted CD

Track | Start | Length | Start sector | End sector
––––––––––––––––––––––––––––-
1 | 0:00.00 | 16:13.39 | 0 | 73013
2 | 16:13.39 | 17:43.07 | 73014 | 152745
3 | 33:56.46 | 6:18.53 | 152746 | 181148
4 | 40:15.24 | 12:48.70 | 181149 | 238818
5 | 53:04.19 | 9:25.42 | 238819 | 281235
6 | 62:29.61 | 4:04.38 | 281236 | 299573
7 | 66:34.24 | 5:02.73 | 299574 | 322296
8 | 71:37.22 | 7:37.53 | 322297 | 356624


Track 1

Filename E:\01 Symphony No.3 in E flat Major, Op.55 -''Eroica'', I. Allegro con brio.wav

Pre-gap length 0:00:02.00

Peak level 92.5 %
Extraction speed 3.6 X
Track quality 100.0 %
Copy CRC ED222486
Accurately ripped (confidence 14) [E23BC9F9] (AR v2)
Copy OK

Track 2

Filename E:\02 Symphony No.3 in E flat Major, Op.55 -''Eroica'', II. Marcia funebre. Adagio assai.wav

Peak level 93.2 %
Extraction speed 3.6 X
Track quality 100.0 %
Copy CRC 8B60A631
Accurately ripped (confidence 14) [5AEFA783] (AR v2)
Copy OK

Track 3

Filename E:\03 Symphony No.3 in E flat Major, Op.55 -''Eroica'', III. Scherzo. Allegro vivace.wav

Peak level 73.5 %
Extraction speed 3.5 X
Track quality 100.0 %
Copy CRC BBBD4209
Accurately ripped (confidence 14) [3DEF5711] (AR v2)
Copy OK

Track 4

Filename E:\04 Symphony No.3 in E flat Major, Op.55 -''Eroica'', IV. Finale. Allegro molto.wav

Peak level 78.4 %
Extraction speed 3.5 X
Track quality 99.9 %
Copy CRC 3EB01F1A
Accurately ripped (confidence 14) [07539020] (AR v2)
Copy OK

Track 5

Filename E:\05 Symphony No.8 in F Major, Op.93, I. Allegro vivace e con brio.wav

Pre-gap length 0:00:09.00

Peak level 94.4 %
Extraction speed 3.5 X
Track quality 100.0 %
Copy CRC 1BDF7C5C
Accurately ripped (confidence 14) [D7BA6B55] (AR v2)
Copy OK

Track 6

Filename E:\06 Symphony No.8 in F Major, Op.93, II. Allegretto scherzando.wav

Peak level 48.0 %
Extraction speed 3.5 X
Track quality 100.0 %
Copy CRC 2048A37C
Accurately ripped (confidence 14) [6EF1AFC0] (AR v2)
Copy OK

Track 7

Filename E:\07 Symphony No.8 in F Major, Op.93, III. Tempo di menuetto.wav

Peak level 67.5 %
Extraction speed 3.5 X
Track quality 100.0 %
Copy CRC A1F6088B
Accurately ripped (confidence 14) [51D92743] (AR v2)
Copy OK

Track 8

Filename E:\08 Symphony No.8 in F Major, Op.93, IV. Allegro vivace.wav

Peak level 98.9 %
Extraction speed 3.5 X
Track quality 100.0 %
Copy CRC 8E8218B4
Accurately ripped (confidence 12) [5BD0383B] (AR v2)
Copy OK


All tracks accurately ripped

No errors occurred

End of status report


Exact Audio Copy V1.0 beta 3 from 29. August 2011

EAC extraction logfile from 23. October 2016, 1:26

Rafael Kubelik / Kubelik SE - CD 03 Beethoven

Used drive : ASUS DRW-24F1ST a Adapter: 2 ID: 0

Read mode : Secure
Utilize accurate stream : Yes
Defeat audio cache : No
Make use of C2 pointers : No

Read offset correction : 6
Overread into Lead-In and Lead-Out : No
Fill up missing offset samples with silence : Yes
Delete leading and trailing silent blocks : No
Null samples used in CRC calculations : Yes
Used interface : Native Win32 interface for Win NT & 2000
Gap handling : Appended to previous track

Used output format : User Defined Encoder
Selected bitrate : 768 kBit/s
Quality : High
Add ID3 tag : No
Command line compressor : C:\Program Files (x86)\Exact Audio Copy\FLAC\FLAC.EXE
Additional command line options : -8 -V -T "ARTIST=%artist%" -T "TITLE=%title%" -T "ALBUM=%albumtitle%" -T "DATE=%year%" -T "TRACKNUMBER=%tracknr%" -T "GENRE=%genre%" -T "COMMENT=%comment%" -T "BAND=%albuminterpret%" -T "ALBUMARTIST=%albuminterpret%" -T "COMPOSER=%composer%" %haslyrics%–tag-from-file=LYRICS="%lyricsfile%"%haslyrics% -T "DISCNUMBER=%cdnumber%" -T "TOTALDISCS=%totalcds%" -T "TOTALTRACKS=%numtracks%" %hascover%–picture="%coverfile%"%hascover% %source% -o %dest%


TOC of the extracted CD

Track | Start | Length | Start sector | End sector
––––––––––––––––––––––––––––-
1 | 0:00.00 | 12:03.22 | 0 | 54246
2 | 12:03.22 | 9:58.10 | 54247 | 99106
3 | 22:01.32 | 6:05.23 | 99107 | 126504
4 | 28:06.55 | 6:53.25 | 126505 | 157504
5 | 35:00.05 | 11:04.34 | 157505 | 207338
6 | 46:04.39 | 14:26.50 | 207339 | 272338
7 | 60:31.14 | 5:52.16 | 272339 | 298754
8 | 66:23.30 | 3:59.62 | 298755 | 316741
9 | 70:23.17 | 10:19.58 | 316742 | 363224


Track 1

Filename E:\01 Symphony No.4 In B flat major, Op 60, I. Adagio - Allegro vivace.wav

Pre-gap length 0:00:02.00

Peak level 99.2 %
Extraction speed 8.8 X
Track quality 100.0 %
Copy CRC AEA8A65E
Accurately ripped (confidence 13) [D36E2BAC] (AR v2)
Copy OK

Track 2

Filename E:\02 Symphony No.4 In B flat major, Op 60, II. Adagio.wav

Peak level 73.4 %
Extraction speed 10.6 X
Track quality 100.0 %
Copy CRC 40BA738C
Accurately ripped (confidence 13) [0EAF6432] (AR v2)
Copy OK

Track 3

Filename E:\03 Symphony No.4 In B flat major, Op 60, III. Menuetto. Allegro vivace.wav

Peak level 93.8 %
Extraction speed 11.3 X
Track quality 100.0 %
Copy CRC 1C5106FB
Accurately ripped (confidence 13) [E1CEA06C] (AR v2)
Copy OK

Track 4

Filename E:\04 Symphony No.4 In B flat major, Op 60, IV. Allegro ma non troppo.wav

Peak level 99.3 %
Extraction speed 11.5 X
Track quality 99.9 %
Copy CRC 833CDA8D
Accurately ripped (confidence 13) [47DC78A5] (AR v2)
Copy OK

Track 5

Filename E:\05 Symphony No.6 in F major, Op. 68, ''Pastoral'', I. Allegro ma non troppo.wav

Pre-gap length 0:00:08.04

Peak level 99.3 %
Extraction speed 13.0 X
Track quality 100.0 %
Copy CRC B8D804B6
Accurately ripped (confidence 12) [257D0C8A] (AR v2)
Copy OK

Track 6

Filename E:\06 Symphony No.6 in F major, Op. 68, ''Pastoral'', II. Andante molto mosso.wav

Peak level 41.6 %
Extraction speed 14.5 X
Track quality 100.0 %
Copy CRC AFCCF893
Accurately ripped (confidence 13) [BD8B14FB] (AR v2)
Copy OK

Track 7

Filename E:\07 Symphony No.6 in F major, Op. 68, ''Pastoral'', III. Allegro.wav

Peak level 94.3 %
Extraction speed 14.6 X
Track quality 100.0 %
Copy CRC 1C15C1EF
Accurately ripped (confidence 13) [C366A049] (AR v2)
Copy OK

Track 8

Filename E:\08 Symphony No.6 in F major, Op. 68, ''Pastoral'', IV. Allegro.wav

Peak level 99.9 %
Extraction speed 15.4 X
Track quality 100.0 %
Copy CRC A776B3EE
Accurately ripped (confidence 13) [030735B4] (AR v2)
Copy OK

Track 9

Filename E:\09 Symphony No.6 in F major, Op. 68, ''Pastoral'', V. Allegretto.wav

Peak level 99.2 %
Extraction speed 16.1 X
Track quality 100.0 %
Copy CRC 45013DF1
Accurately ripped (confidence 13) [D47B7C6C] (AR v2)
Copy OK


All tracks accurately ripped

No errors occurred

End of status report


Exact Audio Copy V1.0 beta 3 from 29. August 2011

EAC extraction logfile from 23. October 2016, 12:31

Rafael Kubelik / Kubelik SE - CD 04 Beethoven

Used drive : ASUS DRW-24F1ST a Adapter: 2 ID: 0

Read mode : Secure
Utilize accurate stream : Yes
Defeat audio cache : No
Make use of C2 pointers : No

Read offset correction : 6
Overread into Lead-In and Lead-Out : No
Fill up missing offset samples with silence : Yes
Delete leading and trailing silent blocks : No
Null samples used in CRC calculations : Yes
Used interface : Native Win32 interface for Win NT & 2000
Gap handling : Appended to previous track

Used output format : User Defined Encoder
Selected bitrate : 768 kBit/s
Quality : High
Add ID3 tag : No
Command line compressor : C:\Program Files (x86)\Exact Audio Copy\FLAC\FLAC.EXE
Additional command line options : -8 -V -T "ARTIST=%artist%" -T "TITLE=%title%" -T "ALBUM=%albumtitle%" -T "DATE=%year%" -T "TRACKNUMBER=%tracknr%" -T "GENRE=%genre%" -T "COMMENT=%comment%" -T "BAND=%albuminterpret%" -T "ALBUMARTIST=%albuminterpret%" -T "COMPOSER=%composer%" %haslyrics%–tag-from-file=LYRICS="%lyricsfile%"%haslyrics% -T "DISCNUMBER=%cdnumber%" -T "TOTALDISCS=%totalcds%" -T "TOTALTRACKS=%numtracks%" %hascover%–picture="%coverfile%"%hascover% %source% -o %dest%


TOC of the extracted CD

Track | Start | Length | Start sector | End sector
––––––––––––––––––––––––––––-
1 | 0:00.00 | 8:24.02 | 0 | 37801
2 | 8:24.02 | 11:09.00 | 37802 | 87976
3 | 19:33.02 | 5:20.48 | 87977 | 112024
4 | 24:53.50 | 11:24.23 | 112025 | 163347
5 | 36:17.73 | 13:22.01 | 163348 | 223498
6 | 49:39.74 | 9:24.38 | 223499 | 265836
7 | 59:04.37 | 9:28.37 | 265837 | 308473
8 | 68:32.74 | 7:09.00 | 308474 | 340648


Track 1

Filename E:\01 Symphony No.5 in C minor, Op.67, I. Allegro con brio.wav

Pre-gap length 0:00:02.00

Peak level 99.2 %
Extraction speed 3.5 X
Track quality 100.0 %
Copy CRC 5D0C45C8
Accurately ripped (confidence 13) [88305ABD] (AR v2)
Copy OK

Track 2

Filename E:\02 Symphony No.5 in C minor, Op.67, II. Andante con moto.wav

Peak level 99.2 %
Extraction speed 4.1 X
Track quality 99.9 %
Copy CRC 5D5F7EDF
Accurately ripped (confidence 13) [7BC1B64F] (AR v2)
Copy OK

Track 3

Filename E:\03 Symphony No.5 in C minor, Op.67, III. Allegro - scherzo.wav

Peak level 99.4 %
Extraction speed 4.6 X
Track quality 100.0 %
Copy CRC 0851893E
Accurately ripped (confidence 13) [B35CAE06] (AR v2)
Copy OK

Track 4

Filename E:\04 Symphony No.5 in C minor, Op.67, IV. Allegro.wav

Peak level 99.6 %
Extraction speed 5.1 X
Track quality 100.0 %
Copy CRC A46D8A51
Accurately ripped (confidence 13) [1787D7D9] (AR v2)
Copy OK

Track 5

Filename E:\05 Symphony No.7 in A major, Op.92, I. Poco sostenuto - Vivace.wav

Pre-gap length 0:00:07.73

Peak level 97.7 %
Extraction speed 5.7 X
Track quality 100.0 %
Copy CRC 9C27FB16
Accurately ripped (confidence 13) [E0127E3F] (AR v2)
Copy OK

Track 6

Filename E:\06 Symphony No.7 in A major, Op.92, II. Allegretto.wav

Peak level 98.8 %
Extraction speed 6.2 X
Track quality 100.0 %
Copy CRC CB614C1F
Accurately ripped (confidence 13) [FA928EED] (AR v2)
Copy OK

Track 7

Filename E:\07 Symphony No.7 in A major, Op.92, III. Presto - Assai meno presto.wav

Peak level 97.0 %
Extraction speed 6.6 X
Track quality 100.0 %
Copy CRC 185AB8AF
Accurately ripped (confidence 13) [F03DEBB3] (AR v2)
Copy OK

Track 8

Filename E:\08 Symphony No.7 in A major, Op.92, IV. Allegro con brio.wav

Peak level 98.2 %
Extraction speed 6.8 X
Track quality 100.0 %
Copy CRC 00F21767
Accurately ripped (confidence 13) [1742A724] (AR v2)
Copy OK


All tracks accurately ripped

No errors occurred

End of status report


Exact Audio Copy V1.0 beta 3 from 29. August 2011

EAC extraction logfile from 23. October 2016, 14:09

Rafael Kubelik / Kubelik SE - CD 05 Beethoven

Used drive : ASUS DRW-24F1ST a Adapter: 2 ID: 0

Read mode : Secure
Utilize accurate stream : Yes
Defeat audio cache : No
Make use of C2 pointers : No

Read offset correction : 6
Overread into Lead-In and Lead-Out : No
Fill up missing offset samples with silence : Yes
Delete leading and trailing silent blocks : No
Null samples used in CRC calculations : Yes
Used interface : Native Win32 interface for Win NT & 2000
Gap handling : Appended to previous track

Used output format : User Defined Encoder
Selected bitrate : 768 kBit/s
Quality : High
Add ID3 tag : No
Command line compressor : C:\Program Files (x86)\Exact Audio Copy\FLAC\FLAC.EXE
Additional command line options : -8 -V -T "ARTIST=%artist%" -T "TITLE=%title%" -T "ALBUM=%albumtitle%" -T "DATE=%year%" -T "TRACKNUMBER=%tracknr%" -T "GENRE=%genre%" -T "COMMENT=%comment%" -T "BAND=%albuminterpret%" -T "ALBUMARTIST=%albuminterpret%" -T "COMPOSER=%composer%" %haslyrics%–tag-from-file=LYRICS="%lyricsfile%"%haslyrics% -T "DISCNUMBER=%cdnumber%" -T "TOTALDISCS=%totalcds%" -T "TOTALTRACKS=%numtracks%" %hascover%–picture="%coverfile%"%hascover% %source% -o %dest%


TOC of the extracted CD

Track | Start | Length | Start sector | End sector
––––––––––––––––––––––––––––-
1 | 0:00.00 | 16:37.00 | 0 | 74774
2 | 16:37.00 | 12:25.37 | 74775 | 130686
3 | 29:02.37 | 16:29.13 | 130687 | 204874
4 | 45:31.50 | 6:26.25 | 204875 | 233849
5 | 51:58.00 | 17:59.00 | 233850 | 314774


Track 1

Filename E:\01 Symphony No.9 In D minor, Op.125 - ''Choral'', I. Allegro ma non troppo, un poco maestoso.wav

Pre-gap length 0:00:02.00

Peak level 99.9 %
Extraction speed 5.5 X
Track quality 99.9 %
Copy CRC CF6A8EEB
Accurately ripped (confidence 18) [6A247FB1] (AR v2)
Copy OK

Track 2

Filename E:\02 Symphony No.9 In D minor, Op.125 - ''Choral'', II. Molto vivace.wav

Peak level 96.3 %
Extraction speed 6.9 X
Track quality 100.0 %
Copy CRC 8787609D
Accurately ripped (confidence 18) [95BC944A] (AR v2)
Copy OK

Track 3

Filename E:\03 Symphony No.9 In D minor, Op.125 - ''Choral'', III. Adagio molto e cantabile.wav

Peak level 93.9 %
Extraction speed 8.1 X
Track quality 100.0 %
Copy CRC 79CCD5E0
Accurately ripped (confidence 17) [E3BFF1E6] (AR v2)
Copy OK

Track 4

Filename E:\04 Symphony No.9 In D minor, Op.125 - ''Choral'', IV. Presto - Allegro assai.wav

Peak level 97.4 %
Extraction speed 8.6 X
Track quality 100.0 %
Copy CRC 64D610F8
Accurately ripped (confidence 17) [892935DF] (AR v2)
Copy OK

Track 5

Filename E:\05 Symphony No.9 In D minor, Op.125 - ''Choral'', V. Presto 'O Freunde, nicht diese Töne!' - Allegro assai.wav

Peak level 99.9 %
Extraction speed 9.2 X
Track quality 99.9 %
Copy CRC 19D149CF
Accurately ripped (confidence 18) [16FDF088] (AR v2)
Copy OK


All tracks accurately ripped

No errors occurred

End of status report


Exact Audio Copy V1.0 beta 3 from 29. August 2011

EAC extraction logfile from 23. October 2016, 14:41

Rafael Kubelik / Kubelik SE - CD 06 Schumann

Used drive : ASUS DRW-24F1ST a Adapter: 2 ID: 0

Read mode : Secure
Utilize accurate stream : Yes
Defeat audio cache : No
Make use of C2 pointers : No

Read offset correction : 6
Overread into Lead-In and Lead-Out : No
Fill up missing offset samples with silence : Yes
Delete leading and trailing silent blocks : No
Null samples used in CRC calculations : Yes
Used interface : Native Win32 interface for Win NT & 2000
Gap handling : Appended to previous track

Used output format : User Defined Encoder
Selected bitrate : 768 kBit/s
Quality : High
Add ID3 tag : No
Command line compressor : C:\Program Files (x86)\Exact Audio Copy\FLAC\FLAC.EXE
Additional command line options : -8 -V -T "ARTIST=%artist%" -T "TITLE=%title%" -T "ALBUM=%albumtitle%" -T "DATE=%year%" -T "TRACKNUMBER=%tracknr%" -T "GENRE=%genre%" -T "COMMENT=%comment%" -T "BAND=%albuminterpret%" -T "ALBUMARTIST=%albuminterpret%" -T "COMPOSER=%composer%" %haslyrics%–tag-from-file=LYRICS="%lyricsfile%"%haslyrics% -T "DISCNUMBER=%cdnumber%" -T "TOTALDISCS=%totalcds%" -T "TOTALTRACKS=%numtracks%" %hascover%–picture="%coverfile%"%hascover% %source% -o %dest%


TOC of the extracted CD

Track | Start | Length | Start sector | End sector
––––––––––––––––––––––––––––-
1 | 0:00.00 | 11:29.42 | 0 | 51716
2 | 11:29.42 | 6:43.52 | 51717 | 81993
3 | 18:13.19 | 5:54.41 | 81994 | 108584
4 | 24:07.60 | 7:13.51 | 108585 | 141110
5 | 31:21.36 | 11:42.63 | 141111 | 193823
6 | 43:04.24 | 6:54.32 | 193824 | 224905
7 | 49:58.56 | 9:20.42 | 224906 | 266947
8 | 59:19.23 | 9:23.54 | 266948 | 309226
9 | 68:43.02 | 9:27.02 | 309227 | 351753


Track 1

Filename E:\01 Symphony No.1 In B flat major, Op.38 - ''Spring'', I. Andante un poco maestoso – Allegro molto vivace.wav

Pre-gap length 0:00:02.00

Peak level 86.9 %
Extraction speed 3.6 X
Track quality 99.9 %
Copy CRC BAE72F26
Accurately ripped (confidence 25) [31B813B3] (AR v2)
Copy OK

Track 2

Filename E:\02 Symphony No.1 In B flat major, Op.38 - ''Spring'', II. Larghetto.wav

Peak level 66.3 %
Extraction speed 4.1 X
Track quality 99.9 %
Copy CRC AB005E7C
Accurately ripped (confidence 25) [58248BC2] (AR v2)
Copy OK

Track 3

Filename E:\03 Symphony No.1 In B flat major, Op.38 - ''Spring'', III. Scherzo. Molto vivace.wav

Peak level 82.3 %
Extraction speed 4.4 X
Track quality 99.9 %
Copy CRC D81293E5
Accurately ripped (confidence 25) [BCB42C6A] (AR v2)
Copy OK

Track 4

Filename E:\04 Symphony No.1 In B flat major, Op.38 - ''Spring'', IV. Allegro animato e grazioso.wav

Peak level 99.4 %
Extraction speed 4.9 X
Track quality 100.0 %
Copy CRC D46DCB58
Accurately ripped (confidence 24) [B116CCA7] (AR v2)
Copy OK

Track 5

Filename E:\05 Symphony No.2 in C major, Op. 61, I. Sostenuto assai – Allegro, ma non troppo.wav

Pre-gap length 0:00:06.02

Peak level 99.4 %
Extraction speed 5.4 X
Track quality 99.9 %
Copy CRC 315482A9
Accurately ripped (confidence 25) [45B689D5] (AR v2)
Copy OK

Track 6

Filename E:\06 Symphony No.2 in C major, Op. 61, II. Scherzo. Allegro vivace.wav

Peak level 99.3 %
Extraction speed 5.8 X
Track quality 100.0 %
Copy CRC EE6F52EC
Accurately ripped (confidence 25) [0A8D6816] (AR v2)
Copy OK

Track 7

Filename E:\07 Symphony No.2 in C major, Op. 61, III. Adagio espressivo.wav

Peak level 86.7 %
Extraction speed 6.2 X
Track quality 100.0 %
Copy CRC 9E3CCA9A
Accurately ripped (confidence 25) [5EE002EE] (AR v2)
Copy OK

Track 8

Filename E:\08 Symphony No.2 in C major, Op. 61, IV. Allegro molto vivace.wav

Peak level 99.4 %
Extraction speed 6.4 X
Track quality 99.9 %
Copy CRC 7355696B
Accurately ripped (confidence 24) [E6B00ED4] (AR v2)
Copy OK

Track 9

Filename E:\09 Overture Genoveva, Op.81.wav

Pre-gap length 0:00:05.63

Peak level 99.4 %
Extraction speed 6.6 X
Track quality 99.9 %
Copy CRC 0F942863
Accurately ripped (confidence 25) [855188EB] (AR v2)
Copy OK


All tracks accurately ripped

No errors occurred

End of status report


Exact Audio Copy V1.0 beta 3 from 29. August 2011

EAC extraction logfile from 23. October 2016, 23:07

Rafael Kubelik / Kubelik SE - CD 07 Schumann

Used drive : ASUS DRW-24F1ST a Adapter: 2 ID: 0

Read mode : Secure
Utilize accurate stream : Yes
Defeat audio cache : No
Make use of C2 pointers : No

Read offset correction : 6
Overread into Lead-In and Lead-Out : No
Fill up missing offset samples with silence : Yes
Delete leading and trailing silent blocks : No
Null samples used in CRC calculations : Yes
Used interface : Native Win32 interface for Win NT & 2000
Gap handling : Appended to previous track

Used output format : User Defined Encoder
Selected bitrate : 768 kBit/s
Quality : High
Add ID3 tag : No
Command line compressor : C:\Program Files (x86)\Exact Audio Copy\FLAC\FLAC.EXE
Additional command line options : -8 -V -T "ARTIST=%artist%" -T "TITLE=%title%" -T "ALBUM=%albumtitle%" -T "DATE=%year%" -T "TRACKNUMBER=%tracknr%" -T "GENRE=%genre%" -T "COMMENT=%comment%" -T "BAND=%albuminterpret%" -T "ALBUMARTIST=%albuminterpret%" -T "COMPOSER=%composer%" %haslyrics%–tag-from-file=LYRICS="%lyricsfile%"%haslyrics% -T "DISCNUMBER=%cdnumber%" -T "TOTALDISCS=%totalcds%" -T "TOTALTRACKS=%numtracks%" %hascover%–picture="%coverfile%"%hascover% %source% -o %dest%


TOC of the extracted CD

Track | Start | Length | Start sector | End sector
––––––––––––––––––––––––––––-
1 | 0:00.00 | 9:48.17 | 0 | 44116
2 | 9:48.17 | 6:08.00 | 44117 | 71716
3 | 15:56.17 | 5:08.56 | 71717 | 94872
4 | 21:04.73 | 6:03.19 | 94873 | 122116
5 | 27:08.17 | 6:07.47 | 122117 | 149688
6 | 33:15.64 | 11:34.28 | 149689 | 201766
7 | 44:50.17 | 4:50.50 | 201767 | 223566
8 | 49:40.67 | 5:54.05 | 223567 | 250121
9 | 55:34.72 | 7:35.39 | 250122 | 284285
10 | 63:10.36 | 12:05.56 | 284286 | 338716


Track 1

Filename E:\01 Symphony No.3 in E flat major, Op. 97 ''Rhenish'', I. Lebhaft.wav

Pre-gap length 0:00:02.00

Peak level 99.3 %
Extraction speed 5.2 X
Track quality 100.0 %
Copy CRC D65141B9
Accurately ripped (confidence 24) [5DF0B1AC] (AR v2)
Copy OK

Track 2

Filename E:\02 Symphony No.3 in E flat major, Op. 97 ''Rhenish'', II. Scherzo. Sehr mäßig.wav

Peak level 86.3 %
Extraction speed 6.1 X
Track quality 100.0 %
Copy CRC A9634C54
Accurately ripped (confidence 23) [02F04386] (AR v2)
Copy OK

Track 3

Filename E:\03 Symphony No.3 in E flat major, Op. 97 ''Rhenish'', III. Nicht schnell.wav

Peak level 31.1 %
Extraction speed 6.1 X
Track quality 99.9 %
Copy CRC 722BF6AE
Accurately ripped (confidence 24) [F2E856C8] (AR v2)
Copy OK

Track 4

Filename E:\04 Symphony No.3 in E flat major, Op. 97 ''Rhenish'', IV. Feierlich.wav

Peak level 97.0 %
Extraction speed 6.8 X
Track quality 100.0 %
Copy CRC 5CEE200A
Accurately ripped (confidence 24) [979EF8D1] (AR v2)
Copy OK

Track 5

Filename E:\05 Symphony No.3 in E flat major, Op. 97 ''Rhenish'', V. Lebhaft.wav

Peak level 94.2 %
Extraction speed 7.5 X
Track quality 100.0 %
Copy CRC D37D0C69
Accurately ripped (confidence 23) [BBD8AFE2] (AR v2)
Copy OK

Track 6

Filename E:\06 Symphony No.4 In D Minor, Op.120, I. Ziemlich langsam - Lebhaft.wav

Pre-gap length 0:00:06.47

Peak level 93.8 %
Extraction speed 8.1 X
Track quality 100.0 %
Copy CRC F3943B7D
Accurately ripped (confidence 24) [31F5FCCE] (AR v2)
Copy OK

Track 7

Filename E:\07 Symphony No.4 In D Minor, Op.120, II. Romanze. Ziemlich langsam.wav

Peak level 36.5 %
Extraction speed 8.5 X
Track quality 100.0 %
Copy CRC D23AAD25
Accurately ripped (confidence 24) [EF54BEEE] (AR v2)
Copy OK

Track 8

Filename E:\08 Symphony No.4 In D Minor, Op.120, III. Scherzo. Lebhaft.wav

Peak level 77.9 %
Extraction speed 8.6 X
Track quality 100.0 %
Copy CRC EBD16861
Accurately ripped (confidence 24) [1F73A0D8] (AR v2)
Copy OK

Track 9

Filename E:\09 Symphony No.4 In D Minor, Op.120, IV. Langsam, Lebhaft.wav

Peak level 98.9 %
Extraction speed 8.5 X
Track quality 99.9 %
Copy CRC BFB4206B
Accurately ripped (confidence 23) [0058726F] (AR v2)
Copy OK

Track 10

Filename E:\10 Overture Manfred, Op.115.wav

Pre-gap length 0:00:05.10

Peak level 87.1 %
Extraction speed 9.0 X
Track quality 99.9 %
Copy CRC 16B2C5A7
Accurately ripped (confidence 22) [72CDE0D3] (AR v2)
Copy OK


All tracks accurately ripped

No errors occurred

End of status report


Exact Audio Copy V1.0 beta 3 from 29. August 2011

EAC extraction logfile from 23. October 2016, 23:48

Rafael Kubelik / Kubelik SE - CD 08 Dvorak

Used drive : ASUS DRW-24F1ST a Adapter: 2 ID: 0

Read mode : Secure
Utilize accurate stream : Yes
Defeat audio cache : No
Make use of C2 pointers : No

Read offset correction : 6
Overread into Lead-In and Lead-Out : No
Fill up missing offset samples with silence : Yes
Delete leading and trailing silent blocks : No
Null samples used in CRC calculations : Yes
Used interface : Native Win32 interface for Win NT & 2000
Gap handling : Appended to previous track

Used output format : User Defined Encoder
Selected bitrate : 768 kBit/s
Quality : High
Add ID3 tag : No
Command line compressor : C:\Program Files (x86)\Exact Audio Copy\FLAC\FLAC.EXE
Additional command line options : -8 -V -T "ARTIST=%artist%" -T "TITLE=%title%" -T "ALBUM=%albumtitle%" -T "DATE=%year%" -T "TRACKNUMBER=%tracknr%" -T "GENRE=%genre%" -T "COMMENT=%comment%" -T "BAND=%albuminterpret%" -T "ALBUMARTIST=%albuminterpret%" -T "COMPOSER=%composer%" %haslyrics%–tag-from-file=LYRICS="%lyricsfile%"%haslyrics% -T "DISCNUMBER=%cdnumber%" -T "TOTALDISCS=%totalcds%" -T "TOTALTRACKS=%numtracks%" %hascover%–picture="%coverfile%"%hascover% %source% -o %dest%


TOC of the extracted CD

Track | Start | Length | Start sector | End sector
––––––––––––––––––––––––––––-
1 | 0:00.32 | 13:34.55 | 32 | 61136
2 | 13:35.12 | 11:13.03 | 61137 | 111614
3 | 24:48.15 | 9:37.70 | 111615 | 154959
4 | 34:26.10 | 13:46.35 | 154960 | 216944
5 | 48:12.45 | 10:26.12 | 216945 | 263906
6 | 58:38.57 | 12:27.63 | 263907 | 319994


Track 1

Filename E:\01 Symphony No.1 in C minor, Op.3, B.9 - ''The Bells of Zlonice'', I. Allegro.wav

Pre-gap length 0:00:02.32

Peak level 83.1 %
Extraction speed 3.5 X
Track quality 99.9 %
Copy CRC 51A31C54
Accurately ripped (confidence 13) [9DE92CAE] (AR v2)
Copy OK

Track 2

Filename E:\02 Symphony No.1 in C minor, Op.3, B.9 - ''The Bells of Zlonice'', II. Adagio di molto.wav

Pre-gap length 0:00:05.05

Peak level 70.3 %
Extraction speed 3.5 X
Track quality 100.0 %
Copy CRC AEA46419
Accurately ripped (confidence 13) [BAB1922E] (AR v2)
Copy OK

Track 3

Filename E:\03 Symphony No.1 in C minor, Op.3, B.9 - ''The Bells of Zlonice'', III. Allegretto.wav

Pre-gap length 0:00:04.55

Peak level 82.4 %
Extraction speed 3.6 X
Track quality 100.0 %
Copy CRC 086A34E3
Accurately ripped (confidence 13) [8798673D] (AR v2)
Copy OK

Track 4

Filename E:\04 Symphony No.1 in C minor, Op.3, B.9 - ''The Bells of Zlonice'', IV. Allegro animato.wav

Pre-gap length 0:00:03.05

Peak level 81.2 %
Extraction speed 3.5 X
Track quality 100.0 %
Copy CRC 226B6A54
Accurately ripped (confidence 12) [B0FC6A36] (AR v2)
Copy OK

Track 5

Filename E:\05 Symphony No.4 in D minor, Op.13, B.41, I. Allegro.wav

Pre-gap length 0:00:10.65

Peak level 79.1 %
Extraction speed 2.9 X
Track quality 99.9 %
Copy CRC 47F9ABC3
Accurately ripped (confidence 13) [9CD27CB2] (AR v2)
Copy OK

Track 6

Filename E:\06 Symphony No.4 in D minor, Op.13, B.41, II. Andante sostenuto e molto cantabile.wav

Pre-gap length 0:00:03.00

Peak level 60.0 %
Extraction speed 3.2 X
Track quality 100.0 %
Copy CRC 7D479A42
Accurately ripped (confidence 13) [3FAFEA20] (AR v2)
Copy OK


All tracks accurately ripped

No errors occurred

End of status report


Exact Audio Copy V1.0 beta 3 from 29. August 2011

EAC extraction logfile from 24. October 2016, 0:34

Rafael Kubelik / Kubelik SE - CD 09 Dvorak

Used drive : ASUS DRW-24F1ST a Adapter: 2 ID: 0

Read mode : Secure
Utilize accurate stream : Yes
Defeat audio cache : No
Make use of C2 pointers : No

Read offset correction : 6
Overread into Lead-In and Lead-Out : No
Fill up missing offset samples with silence : Yes
Delete leading and trailing silent blocks : No
Null samples used in CRC calculations : Yes
Used interface : Native Win32 interface for Win NT & 2000
Gap handling : Appended to previous track

Used output format : User Defined Encoder
Selected bitrate : 768 kBit/s
Quality : High
Add ID3 tag : No
Command line compressor : C:\Program Files (x86)\Exact Audio Copy\FLAC\FLAC.EXE
Additional command line options : -8 -V -T "ARTIST=%artist%" -T "TITLE=%title%" -T "ALBUM=%albumtitle%" -T "DATE=%year%" -T "TRACKNUMBER=%tracknr%" -T "GENRE=%genre%" -T "COMMENT=%comment%" -T "BAND=%albuminterpret%" -T "ALBUMARTIST=%albuminterpret%" -T "COMPOSER=%composer%" %haslyrics%–tag-from-file=LYRICS="%lyricsfile%"%haslyrics% -T "DISCNUMBER=%cdnumber%" -T "TOTALDISCS=%totalcds%" -T "TOTALTRACKS=%numtracks%" %hascover%–picture="%coverfile%"%hascover% %source% -o %dest%


TOC of the extracted CD

Track | Start | Length | Start sector | End sector
––––––––––––––––––––––––––––-
1 | 0:00.32 | 8:05.48 | 32 | 36454
2 | 8:06.05 | 9:46.12 | 36455 | 80416
3 | 17:52.17 | 13:04.70 | 80417 | 139286
4 | 30:57.12 | 15:32.33 | 139287 | 209219
5 | 46:29.45 | 13:27.70 | 209220 | 269814
6 | 59:57.40 | 11:35.50 | 269815 | 321989


Track 1

Filename E:\01 Symphony No.4 in D minor, Op.13, B.41, III. Scherzo. Allegro feroce.wav

Pre-gap length 0:00:02.32

Peak level 89.0 %
Extraction speed 3.6 X
Track quality 100.0 %
Copy CRC 7EA69DF1
Accurately ripped (confidence 13) [1104B733] (AR v2)
Copy OK

Track 2

Filename E:\02 Symphony No.4 in D minor, Op.13, B.41, IV. Finale. Allegro con brio.wav

Pre-gap length 0:00:04.30

Peak level 93.4 %
Extraction speed 3.6 X
Track quality 100.0 %
Copy CRC CF2680A7
Accurately ripped (confidence 13) [061D43C7] (AR v2)
Copy OK

Track 3

Filename E:\03 Symphony No.2 in B flat major, Op.4, B.12, I. Allegro con moto.wav

Pre-gap length 0:00:10.60

Peak level 82.5 %
Extraction speed 3.6 X
Track quality 100.0 %
Copy CRC BE33A9EC
Accurately ripped (confidence 13) [D364130F] (AR v2)
Copy OK

Track 4

Filename E:\04 Symphony No.2 in B flat major, Op.4, B.12, II. Poco adagio.wav

Pre-gap length 0:00:04.30

Peak level 92.1 %
Extraction speed 3.5 X
Track quality 100.0 %
Copy CRC 0FC25032
Accurately ripped (confidence 13) [9D23FA1D] (AR v2)
Copy OK

Track 5

Filename E:\05 Symphony No.2 in B flat major, Op.4, B.12, III. Scherzo. Allegro con brio.wav

Pre-gap length 0:00:03.63

Peak level 83.0 %
Extraction speed 3.6 X
Track quality 100.0 %
Copy CRC 443BC646
Accurately ripped (confidence 13) [E5DA4B1A] (AR v2)
Copy OK

Track 6

Filename E:\06 Symphony No.2 in B flat major, Op.4, B.12, IV. Finale. Allegro con fuoco.wav

Pre-gap length 0:00:04.15

Peak level 91.6 %
Extraction speed 3.5 X
Track quality 100.0 %
Copy CRC 168B3C42
Accurately ripped (confidence 12) [4F19B108] (AR v2)
Copy OK


All tracks accurately ripped

No errors occurred

End of status report


Exact Audio Copy V1.0 beta 3 from 29. August 2011

EAC extraction logfile from 24. October 2016, 14:47

Rafael Kubelik / Kubelik SE - CD 10 Dvorak

Used drive : ASUS DRW-24F1ST a Adapter: 2 ID: 0

Read mode : Secure
Utilize accurate stream : Yes
Defeat audio cache : No
Make use of C2 pointers : No

Read offset correction : 6
Overread into Lead-In and Lead-Out : No
Fill up missing offset samples with silence : Yes
Delete leading and trailing silent blocks : No
Null samples used in CRC calculations : Yes
Used interface : Native Win32 interface for Win NT & 2000
Gap handling : Appended to previous track

Used output format : User Defined Encoder
Selected bitrate : 768 kBit/s
Quality : High
Add ID3 tag : No
Command line compressor : C:\Program Files (x86)\Exact Audio Copy\FLAC\FLAC.EXE
Additional command line options : -8 -V -T "ARTIST=%artist%" -T "TITLE=%title%" -T "ALBUM=%albumtitle%" -T "DATE=%year%" -T "TRACKNUMBER=%tracknr%" -T "GENRE=%genre%" -T "COMMENT=%comment%" -T "BAND=%albuminterpret%" -T "ALBUMARTIST=%albuminterpret%" -T "COMPOSER=%composer%" %haslyrics%–tag-from-file=LYRICS="%lyricsfile%"%haslyrics% -T "DISCNUMBER=%cdnumber%" -T "TOTALDISCS=%totalcds%" -T "TOTALTRACKS=%numtracks%" %hascover%–picture="%coverfile%"%hascover% %source% -o %dest%


TOC of the extracted CD

Track | Start | Length | Start sector | End sector
––––––––––––––––––––––––––––-
1 | 0:00.00 | 11:58.59 | 0 | 53908
2 | 11:58.59 | 17:58.33 | 53909 | 134791
3 | 29:57.17 | 8:22.50 | 134792 | 172491
4 | 38:19.67 | 13:18.74 | 172492 | 232415
5 | 51:38.66 | 7:53.33 | 232416 | 267923
6 | 59:32.24 | 7:55.36 | 267924 | 303584
7 | 67:27.60 | 12:27.15 | 303585 | 359624


Track 1

Filename E:\01 Symphony No.3 in E Flat Major, Op.10, B.34, I. Allegro moderato.wav

Pre-gap length 0:00:02.00

Peak level 93.5 %
Extraction speed 3.6 X
Track quality 99.9 %
Copy CRC F394282D
Accurately ripped (confidence 12) [C13F35A7] (AR v2)
Copy OK

Track 2

Filename E:\02 Symphony No.3 in E Flat Major, Op.10, B.34, II. Adagio molto, tempo di marcia.wav

Peak level 80.5 %
Extraction speed 3.6 X
Track quality 100.0 %
Copy CRC 4FB5A87F
Accurately ripped (confidence 13) [66DA0A05] (AR v2)
Copy OK

Track 3

Filename E:\03 Symphony No.3 in E Flat Major, Op.10, B.34, III. Finale (Allegro vivace).wav

Peak level 87.9 %
Extraction speed 3.5 X
Track quality 99.9 %
Copy CRC 1A7AAB35
Accurately ripped (confidence 13) [0F1EEF43] (AR v2)
Copy OK

Track 4

Filename E:\04 Symphony No.5 in F Major, Op.76, B.54, I. Allegro, ma non troppo.wav

Pre-gap length 0:00:05.38

Peak level 93.6 %
Extraction speed 3.6 X
Track quality 100.0 %
Copy CRC C14297EE
Accurately ripped (confidence 13) [3B4D28A1] (AR v2)
Copy OK

Track 5

Filename E:\05 Symphony No.5 in F Major, Op.76, B.54, II. Andante con moto.wav

Peak level 68.1 %
Extraction speed 3.5 X
Track quality 99.9 %
Copy CRC EC9B95A3
Accurately ripped (confidence 13) [93B0EC01] (AR v2)
Copy OK

Track 6

Filename E:\06 Symphony No.5 in F Major, Op.76, B.54, III. Andante con moto - Allegro scherzando.wav

Peak level 66.3 %
Extraction speed 3.6 X
Track quality 100.0 %
Copy CRC 84370746
Accurately ripped (confidence 13) [98945F39] (AR v2)
Copy OK

Track 7

Filename E:\07 Symphony No.5 in F Major, Op.76, B.54, IV. Allegro molto.wav

Peak level 81.7 %
Extraction speed 3.5 X
Track quality 100.0 %
Copy CRC 81901DFB
Accurately ripped (confidence 13) [10DCBA34] (AR v2)
Copy OK


All tracks accurately ripped

No errors occurred

End of status report


Exact Audio Copy V1.0 beta 3 from 29. August 2011

EAC extraction logfile from 24. October 2016, 14:05

Rafael Kubelik / Kubelik SE - CD 11 Dvorak

Used drive : ASUS DRW-24F1ST a Adapter: 2 ID: 0

Read mode : Secure
Utilize accurate stream : Yes
Defeat audio cache : No
Make use of C2 pointers : No

Read offset correction : 6
Overread into Lead-In and Lead-Out : No
Fill up missing offset samples with silence : Yes
Delete leading and trailing silent blocks : No
Null samples used in CRC calculations : Yes
Used interface : Native Win32 interface for Win NT & 2000
Gap handling : Appended to previous track

Used output format : User Defined Encoder
Selected bitrate : 768 kBit/s
Quality : High
Add ID3 tag : No
Command line compressor : C:\Program Files (x86)\Exact Audio Copy\FLAC\FLAC.EXE
Additional command line options : -8 -V -T "ARTIST=%artist%" -T "TITLE=%title%" -T "ALBUM=%albumtitle%" -T "DATE=%year%" -T "TRACKNUMBER=%tracknr%" -T "GENRE=%genre%" -T "COMMENT=%comment%" -T "BAND=%albuminterpret%" -T "ALBUMARTIST=%albuminterpret%" -T "COMPOSER=%composer%" %haslyrics%–tag-from-file=LYRICS="%lyricsfile%"%haslyrics% -T "DISCNUMBER=%cdnumber%" -T "TOTALDISCS=%totalcds%" -T "TOTALTRACKS=%numtracks%" %hascover%–picture="%coverfile%"%hascover% %source% -o %dest%


TOC of the extracted CD

Track | Start | Length | Start sector | End sector
––––––––––––––––––––––––––––-
1 | 0:00.00 | 13:19.33 | 0 | 59957
2 | 13:19.33 | 11:29.41 | 59958 | 111673
3 | 24:48.74 | 8:37.00 | 111674 | 150448
4 | 33:25.74 | 12:06.10 | 150449 | 204908
5 | 45:32.09 | 12:52.42 | 204909 | 262850


Track 1

Filename E:\01 Symphony No.6 in D Major, Op.60, B.112, I. Allegro non tanto.wav

Pre-gap length 0:00:02.00

Peak level 90.6 %
Extraction speed 8.0 X
Track quality 99.9 %
Copy CRC A74D454A
Accurately ripped (confidence 13) [9D64C30F] (AR v2)
Copy OK

Track 2

Filename E:\02 Symphony No.6 in D Major, Op.60, B.112, II. Adagio.wav

Peak level 72.3 %
Extraction speed 9.9 X
Track quality 99.9 %
Copy CRC 2E7277A3
Accurately ripped (confidence 13) [50DAFDC5] (AR v2)
Copy OK

Track 3

Filename E:\03 Symphony No.6 in D Major, Op.60, B.112, III. Scherzo (Furiant). Presto.wav

Peak level 87.7 %
Extraction speed 11.4 X
Track quality 100.0 %
Copy CRC DFE85001
Accurately ripped (confidence 13) [148CD568] (AR v2)
Copy OK

Track 4

Filename E:\04 Symphony No.6 in D Major, Op.60, B.112, IV. Finale. Allegro con spirito.wav

Peak level 92.3 %
Extraction speed 12.6 X
Track quality 100.0 %
Copy CRC 70C875A3
Accurately ripped (confidence 13) [E69B27C4] (AR v2)
Copy OK

Track 5

Filename E:\05 Scherzo capriccioso, Op.66, B.131.wav

Pre-gap length 0:00:07.56

Peak level 75.8 %
Extraction speed 13.4 X
Track quality 99.9 %
Copy CRC 93C6484F
Accurately ripped (confidence 11) [4300CB29] (AR v2)
Copy OK


All tracks accurately ripped

No errors occurred

End of status report


Exact Audio Copy V1.0 beta 3 from 29. August 2011

EAC extraction logfile from 24. October 2016, 15:41

Rafael Kubelik / Kubelik SE - CD 12 Dvorak

Used drive : ASUS DRW-24F1ST a Adapter: 2 ID: 0

Read mode : Secure
Utilize accurate stream : Yes
Defeat audio cache : No
Make use of C2 pointers : No

Read offset correction : 6
Overread into Lead-In and Lead-Out : No
Fill up missing offset samples with silence : Yes
Delete leading and trailing silent blocks : No
Null samples used in CRC calculations : Yes
Used interface : Native Win32 interface for Win NT & 2000
Gap handling : Appended to previous track

Used output format : User Defined Encoder
Selected bitrate : 768 kBit/s
Quality : High
Add ID3 tag : No
Command line compressor : C:\Program Files (x86)\Exact Audio Copy\FLAC\FLAC.EXE
Additional command line options : -8 -V -T "ARTIST=%artist%" -T "TITLE=%title%" -T "ALBUM=%albumtitle%" -T "DATE=%year%" -T "TRACKNUMBER=%tracknr%" -T "GENRE=%genre%" -T "COMMENT=%comment%" -T "BAND=%albuminterpret%" -T "ALBUMARTIST=%albuminterpret%" -T "COMPOSER=%composer%" %haslyrics%–tag-from-file=LYRICS="%lyricsfile%"%haslyrics% -T "DISCNUMBER=%cdnumber%" -T "TOTALDISCS=%totalcds%" -T "TOTALTRACKS=%numtracks%" %hascover%–picture="%coverfile%"%hascover% %source% -o %dest%


TOC of the extracted CD

Track | Start | Length | Start sector | End sector
––––––––––––––––––––––––––––-
1 | 0:00.32 | 11:24.18 | 32 | 51349
2 | 11:24.50 | 9:45.07 | 51350 | 95231
3 | 21:09.57 | 7:28.20 | 95232 | 128851
4 | 28:38.02 | 9:25.63 | 128852 | 171289
5 | 38:03.65 | 9:53.45 | 171290 | 215809
6 | 47:57.35 | 10:20.45 | 215810 | 262354
7 | 58:18.05 | 6:37.50 | 262355 | 292179
8 | 64:55.55 | 8:45.47 | 292180 | 331601


Track 1

Filename E:\01 Symphony No.7 in D Minor, Op.70, B.141, I. Allegro maestoso.wav

Pre-gap length 0:00:02.32

Peak level 83.8 %
Extraction speed 3.6 X
Track quality 99.9 %
Copy CRC BD5AC436
Accurately ripped (confidence 17) [086C10CE] (AR v2)
Copy OK

Track 2

Filename E:\02 Symphony No.7 in D Minor, Op.70, B.141, II. Poco Adagio.wav

Pre-gap length 0:00:06.23

Peak level 77.6 %
Extraction speed 3.6 X
Track quality 100.0 %
Copy CRC 2145DC5E
Accurately ripped (confidence 19) [A9BD7C88] (AR v2)
Copy OK

Track 3

Filename E:\03 Symphony No.7 in D Minor, Op.70, B.141, III. Scherzo- Vivace - Poco meno mosso.wav

Pre-gap length 0:00:03.10

Peak level 83.0 %
Extraction speed 3.6 X
Track quality 100.0 %
Copy CRC 873BD0AD
Accurately ripped (confidence 19) [147D4E3C] (AR v2)
Copy OK

Track 4

Filename E:\04 Symphony No.7 in D Minor, Op.70, B.141, IV. Finale- Allegro.wav

Pre-gap length 0:00:02.47

Peak level 92.4 %
Extraction speed 3.6 X
Track quality 100.0 %
Copy CRC A6F418E7
Accurately ripped (confidence 19) [65E31BE7] (AR v2)
Copy OK

Track 5

Filename E:\05 Symphony No.8 in G Major, Op.88, B.163, I. Allegro con brio.wav

Pre-gap length 0:00:08.15

Peak level 95.1 %
Extraction speed 3.6 X
Track quality 99.9 %
Copy CRC ADBBC04A
Accurately ripped (confidence 20) [EE98394F] (AR v2)
Copy OK

Track 6

Filename E:\06 Symphony No.8 in G Major, Op.88, B.163, II. Adagio.wav

Pre-gap length 0:00:03.45

Peak level 82.4 %
Extraction speed 3.6 X
Track quality 100.0 %
Copy CRC 145C537E
Accurately ripped (confidence 19) [CE1ED59A] (AR v2)
Copy OK

Track 7

Filename E:\07 Symphony No.8 in G Major, Op.88, B.163, III. Allegretto grazioso, Molto vivace.wav

Pre-gap length 0:00:04.40

Peak level 66.9 %
Extraction speed 3.5 X
Track quality 100.0 %
Copy CRC 6A23AD0E
Accurately ripped (confidence 20) [3B99B88B] (AR v2)
Copy OK

Track 8

Filename E:\08 Symphony No.8 in G Major, Op.88, B.163, IV. Allegro, ma non troppo.wav

Pre-gap length 0:00:01.20

Peak level 98.3 %
Extraction speed 3.6 X
Track quality 100.0 %
Copy CRC 39558D6E
Accurately ripped (confidence 20) [336997CC] (AR v2)
Copy OK


All tracks accurately ripped

No errors occurred

End of status report


Exact Audio Copy V1.0 beta 3 from 29. August 2011

EAC extraction logfile from 24. October 2016, 16:23

Rafael Kubelik / Kubelik SE - CD 13 Dvorak

Used drive : ASUS DRW-24F1ST a Adapter: 2 ID: 0

Read mode : Secure
Utilize accurate stream : Yes
Defeat audio cache : No
Make use of C2 pointers : No

Read offset correction : 6
Overread into Lead-In and Lead-Out : No
Fill up missing offset samples with silence : Yes
Delete leading and trailing silent blocks : No
Null samples used in CRC calculations : Yes
Used interface : Native Win32 interface for Win NT & 2000
Gap handling : Appended to previous track

Used output format : User Defined Encoder
Selected bitrate : 768 kBit/s
Quality : High
Add ID3 tag : No
Command line compressor : C:\Program Files (x86)\Exact Audio Copy\FLAC\FLAC.EXE
Additional command line options : -8 -V -T "ARTIST=%artist%" -T "TITLE=%title%" -T "ALBUM=%albumtitle%" -T "DATE=%year%" -T "TRACKNUMBER=%tracknr%" -T "GENRE=%genre%" -T "COMMENT=%comment%" -T "BAND=%albuminterpret%" -T "ALBUMARTIST=%albuminterpret%" -T "COMPOSER=%composer%" %haslyrics%–tag-from-file=LYRICS="%lyricsfile%"%haslyrics% -T "DISCNUMBER=%cdnumber%" -T "TOTALDISCS=%totalcds%" -T "TOTALTRACKS=%numtracks%" %hascover%–picture="%coverfile%"%hascover% %source% -o %dest%


TOC of the extracted CD

Track | Start | Length | Start sector | End sector
––––––––––––––––––––––––––––-
1 | 0:00.32 | 9:01.28 | 32 | 40634
2 | 9:01.60 | 19:06.50 | 40635 | 126634
3 | 28:08.35 | 9:28.00 | 126635 | 169234
4 | 37:36.35 | 13:03.32 | 169235 | 227991
5 | 50:39.67 | 8:05.18 | 227992 | 264384
6 | 58:45.10 | 11:48.20 | 264385 | 317504


Track 1

Filename E:\01 Carnival Overture, Op.92 , B.169.wav

Pre-gap length 0:00:02.32

Peak level 81.2 %
Extraction speed 3.6 X
Track quality 100.0 %
Copy CRC 5E1C0C84
Accurately ripped (confidence 13) [07350B88] (AR v2)
Copy OK

Track 2

Filename E:\02 The Wood Dove, Op.110, B.198.wav

Pre-gap length 0:00:05.13

Peak level 85.1 %
Extraction speed 3.6 X
Track quality 100.0 %
Copy CRC 7506251D
Accurately ripped (confidence 13) [3A9BD0B7] (AR v2)
Copy OK

Track 3

Filename E:\03 Symphony No.9 in E Minor, Op.95, B.178 ''From the New World'', I. Adagio - Allegro molto.wav

Pre-gap length 0:00:08.63

Peak level 81.2 %
Extraction speed 3.6 X
Track quality 100.0 %
Copy CRC 59D3EA64
Accurately ripped (confidence 14) [26F6DB2E] (AR v2)
Copy OK

Track 4

Filename E:\04 Symphony No.9 in E Minor, Op.95, B.178 ''From the New World'', II. Largo.wav

Pre-gap length 0:00:04.05

Peak level 81.2 %
Extraction speed 3.6 X
Track quality 100.0 %
Copy CRC 889AFC0A
Accurately ripped (confidence 14) [3BD75EF0] (AR v2)
Copy OK

Track 5

Filename E:\05 Symphony No.9 in E Minor, Op.95, B.178 ''From the New World'', III. Scherzo. Molto vivace.wav

Pre-gap length 0:00:03.20

Peak level 81.2 %
Extraction speed 3.5 X
Track quality 100.0 %
Copy CRC 72FB7742
Accurately ripped (confidence 14) [503A1319] (AR v2)
Copy OK

Track 6

Filename E:\06 Symphony No.9 in E Minor, Op.95, B.178 ''From the New World'', IV. Allegro con fuoco.wav

Pre-gap length 0:00:00.43

Peak level 81.2 %
Extraction speed 3.5 X
Track quality 100.0 %
Copy CRC B5969EDE
Accurately ripped (confidence 14) [00E2C9C7] (AR v2)
Copy OK


All tracks accurately ripped

No errors occurred

End of status report


Exact Audio Copy V1.0 beta 3 from 29. August 2011

EAC extraction logfile from 24. October 2016, 17:11

Symphonieorchester des Bayerischen Rundfunks, Rafael Kubelik / Kubelik SE - CD 14 Mahler

Used drive : ASUS DRW-24F1ST a Adapter: 2 ID: 0

Read mode : Secure
Utilize accurate stream : Yes
Defeat audio cache : No
Make use of C2 pointers : No

Read offset correction : 6
Overread into Lead-In and Lead-Out : No
Fill up missing offset samples with silence : Yes
Delete leading and trailing silent blocks : No
Null samples used in CRC calculations : Yes
Used interface : Native Win32 interface for Win NT & 2000
Gap handling : Appended to previous track

Used output format : User Defined Encoder
Selected bitrate : 768 kBit/s
Quality : High
Add ID3 tag : No
Command line compressor : C:\Program Files (x86)\Exact Audio Copy\FLAC\FLAC.EXE
Additional command line options : -8 -V -T "ARTIST=%artist%" -T "TITLE=%title%" -T "ALBUM=%albumtitle%" -T "DATE=%year%" -T "TRACKNUMBER=%tracknr%" -T "GENRE=%genre%" -T "COMMENT=%comment%" -T "BAND=%albuminterpret%" -T "ALBUMARTIST=%albuminterpret%" -T "COMPOSER=%composer%" %haslyrics%–tag-from-file=LYRICS="%lyricsfile%"%haslyrics% -T "DISCNUMBER=%cdnumber%" -T "TOTALDISCS=%totalcds%" -T "TOTALTRACKS=%numtracks%" %hascover%–picture="%coverfile%"%hascover% %source% -o %dest%


TOC of the extracted CD

Track | Start | Length | Start sector | End sector
––––––––––––––––––––––––––––-
1 | 0:00.33 | 14:38.70 | 33 | 65952
2 | 14:39.28 | 7:03.65 | 65953 | 97742
3 | 21:43.18 | 10:37.27 | 97743 | 145544
4 | 32:20.45 | 17:39.63 | 145545 | 225032


Track 1

Filename E:\01 Symphony No.1 in D major, I. Langsam. Schleppend - Im Anfang Sehr Gemächlich.wav

Pre-gap length 0:00:02.33

Peak level 98.4 %
Extraction speed 3.5 X
Track quality 100.0 %
Copy CRC 7801AA1E
Accurately ripped (confidence 39) [15B18703] (AR v2)
Copy OK

Track 2

Filename E:\02 Symphony No.1 in D major, II. Kräftig Bewegt, Doch Nicht Zu Schnell - Trio. Recht Gemächlich.wav

Pre-gap length 0:00:07.73

Peak level 83.7 %
Extraction speed 3.5 X
Track quality 100.0 %
Copy CRC 7737A152
Accurately ripped (confidence 39) [E4E13E67] (AR v2)
Copy OK

Track 3

Filename E:\03 Symphony No.1 in D major, III. Feierlich Und Gemessen, Ohne Zu Schleppen.wav

Pre-gap length 0:00:08.55

Peak level 36.7 %
Extraction speed 3.5 X
Track quality 100.0 %
Copy CRC 7AAAF270
Accurately ripped (confidence 39) [D31E7842] (AR v2)
Copy OK

Track 4

Filename E:\04 Symphony No.1 in D major, IV. Stürmisch Bewegt.wav

Pre-gap length 0:00:00.63

Peak level 98.4 %
Extraction speed 3.6 X
Track quality 100.0 %
Copy CRC 62D97FBA
Accurately ripped (confidence 38) [04300F27] (AR v2)
Copy OK


All tracks accurately ripped

No errors occurred

End of status report


Exact Audio Copy V1.0 beta 3 from 29. August 2011

EAC extraction logfile from 24. October 2016, 18:14

Symphonieorchester des Bayerischen Rundfunks, Rafael Kubelik / Kubelik SE - CD 15 Mahler

Used drive : ASUS DRW-24F1ST a Adapter: 2 ID: 0

Read mode : Secure
Utilize accurate stream : Yes
Defeat audio cache : No
Make use of C2 pointers : No

Read offset correction : 6
Overread into Lead-In and Lead-Out : No
Fill up missing offset samples with silence : Yes
Delete leading and trailing silent blocks : No
Null samples used in CRC calculations : Yes
Used interface : Native Win32 interface for Win NT & 2000
Gap handling : Appended to previous track

Used output format : User Defined Encoder
Selected bitrate : 768 kBit/s
Quality : High
Add ID3 tag : No
Command line compressor : C:\Program Files (x86)\Exact Audio Copy\FLAC\FLAC.EXE
Additional command line options : -8 -V -T "ARTIST=%artist%" -T "TITLE=%title%" -T "ALBUM=%albumtitle%" -T "DATE=%year%" -T "TRACKNUMBER=%tracknr%" -T "GENRE=%genre%" -T "COMMENT=%comment%" -T "BAND=%albuminterpret%" -T "ALBUMARTIST=%albuminterpret%" -T "COMPOSER=%composer%" %haslyrics%–tag-from-file=LYRICS="%lyricsfile%"%haslyrics% -T "DISCNUMBER=%cdnumber%" -T "TOTALDISCS=%totalcds%" -T "TOTALTRACKS=%numtracks%" %hascover%–picture="%coverfile%"%hascover% %source% -o %dest%


TOC of the extracted CD

Track | Start | Length | Start sector | End sector
––––––––––––––––––––––––––––-
1 | 0:00.33 | 19:44.07 | 33 | 88839
2 | 19:44.40 | 10:35.08 | 88840 | 136472
3 | 30:19.48 | 10:07.00 | 136473 | 181997
4 | 40:26.48 | 4:55.57 | 181998 | 204179
5 | 45:22.30 | 17:32.13 | 204180 | 283092
6 | 62:54.43 | 13:30.13 | 283093 | 343855


Track 1

Filename E:\01 Symphony No.2 In C Minor - ''Resurrection'', I. Allegro maestoso. Mit durchaus ernstem und feierlichem Ausdruck.wav

Pre-gap length 0:00:02.33

Peak level 99.2 %
Extraction speed 3.6 X
Track quality 100.0 %
Copy CRC 182C4EC2
Accurately ripped (confidence 24) [4226E233] (AR v2)
Copy OK

Track 2

Filename E:\02 Symphony No.2 In C Minor - ''Resurrection'', II. Andante moderato. Sehr gemächlich.wav

Pre-gap length 0:00:07.53

Peak level 79.7 %
Extraction speed 3.5 X
Track quality 99.9 %
Copy CRC F6473AB5
Accurately ripped (confidence 23) [1CBF5562] (AR v2)
Copy OK

Track 3

Filename E:\03 Symphony No.2 In C Minor - ''Resurrection'', III. Scherzo. In ruhig fliessender Bewegung.wav

Pre-gap length 0:00:02.53

Peak level 96.4 %
Extraction speed 3.5 X
Track quality 100.0 %
Copy CRC 0D189D0A
Accurately ripped (confidence 24) [DD8107E7] (AR v2)
Copy OK

Track 4

Filename E:\04 Symphony No.2 In C Minor - ''Resurrection'', IV. ''Urlicht''. Sehr feierlich, aber schlicht ''O Röschen rot!''.wav

Pre-gap length 0:00:00.58

Peak level 32.5 %
Extraction speed 3.5 X
Track quality 100.0 %
Copy CRC 393FC72F
Accurately ripped (confidence 24) [36F7896D] (AR v2)
Copy OK

Track 5

Filename E:\05 Symphony No.2 In C Minor - ''Resurrection'', V. Im Tempo Des Scherzo. Wild herausfahrend.wav

Pre-gap length 0:00:00.13

Peak level 99.5 %
Extraction speed 3.6 X
Track quality 100.0 %
Copy CRC 60ADF56B
Accurately ripped (confidence 24) [C29FBD5E] (AR v2)
Copy OK

Track 6

Filename E:\06 Symphony No.2 In C Minor - ''Resurrection'', VI. ''Aufersteh'n, ja aufersteh'n wirst du'' (Langsam. Misterioso).wav

Peak level 98.6 %
Extraction speed 3.5 X
Track quality 100.0 %
Copy CRC 58E1179D
Accurately ripped (confidence 24) [6CCCD785] (AR v2)
Copy OK


All tracks accurately ripped

No errors occurred

End of status report


Exact Audio Copy V1.0 beta 3 from 29. August 2011

EAC extraction logfile from 24. October 2016, 20:59

Symphonieorchester des Bayerischen Rundfunks, Rafael Kubelik / Kubelik SE - CD 16 Mahler

Used drive : ASUS DRW-24F1ST a Adapter: 2 ID: 0

Read mode : Secure
Utilize accurate stream : Yes
Defeat audio cache : No
Make use of C2 pointers : No

Read offset correction : 6
Overread into Lead-In and Lead-Out : No
Fill up missing offset samples with silence : Yes
Delete leading and trailing silent blocks : No
Null samples used in CRC calculations : Yes
Used interface : Native Win32 interface for Win NT & 2000
Gap handling : Appended to previous track

Used output format : User Defined Encoder
Selected bitrate : 768 kBit/s
Quality : High
Add ID3 tag : No
Command line compressor : C:\Program Files (x86)\Exact Audio Copy\FLAC\FLAC.EXE
Additional command line options : -8 -V -T "ARTIST=%artist%" -T "TITLE=%title%" -T "ALBUM=%albumtitle%" -T "DATE=%year%" -T "TRACKNUMBER=%tracknr%" -T "GENRE=%genre%" -T "COMMENT=%comment%" -T "BAND=%albuminterpret%" -T "ALBUMARTIST=%albuminterpret%" -T "COMPOSER=%composer%" %haslyrics%–tag-from-file=LYRICS="%lyricsfile%"%haslyrics% -T "DISCNUMBER=%cdnumber%" -T "TOTALDISCS=%totalcds%" -T "TOTALTRACKS=%numtracks%" %hascover%–picture="%coverfile%"%hascover% %source% -o %dest%


TOC of the extracted CD

Track | Start | Length | Start sector | End sector
––––––––––––––––––––––––––––-
1 | 0:00.33 | 31:11.70 | 33 | 140427
2 | 31:12.28 | 9:44.67 | 140428 | 184294
3 | 40:57.20 | 17:02.13 | 184295 | 260957
4 | 57:59.33 | 9:22.35 | 260958 | 303142
5 | 67:21.68 | 4:15.70 | 303143 | 322337


Track 1

Filename E:\01 Symphony No.3 in D minor Part 1, I. Kräftig. Entschieden.wav

Pre-gap length 0:00:02.33

Peak level 99.8 %
Extraction speed 3.6 X
Track quality 100.0 %
Copy CRC 975EFDEB
Accurately ripped (confidence 23) [C6200B79] (AR v2)
Copy OK

Track 2

Filename E:\02 Symphony No.3 in D minor Part 2, II. Tempo Di Menuetto. Sehr Mässig.wav

Pre-gap length 0:00:05.60

Peak level 44.6 %
Extraction speed 3.6 X
Track quality 100.0 %
Copy CRC 293F1418
Accurately ripped (confidence 22) [B70DCBC9] (AR v2)
Copy OK

Track 3

Filename E:\03 Symphony No.3 in D minor Part 2, III. Comodo. Scherzando. Ohne Hast.wav

Pre-gap length 0:00:04.25

Peak level 89.7 %
Extraction speed 3.6 X
Track quality 100.0 %
Copy CRC 5D15CD61
Accurately ripped (confidence 23) [242860A1] (AR v2)
Copy OK

Track 4

Filename E:\04 Symphony No.3 in D minor Part 2, IV. Sehr Langsam. Misterioso, ''O Mensch! Gib acht!'' 'O Mensch! Gib acht'.wav

Pre-gap length 0:00:04.10

Peak level 41.7 %
Extraction speed 3.5 X
Track quality 100.0 %
Copy CRC 2F232085
Accurately ripped (confidence 24) [C7BCBB7C] (AR v2)
Copy OK

Track 5

Filename E:\05 Symphony No.3 in D minor Part 2, V. Lustig im Tempo und keck im Ausdruck- ''Bimm Bamm. Es sungen drei Engel''.wav

Peak level 65.0 %
Extraction speed 3.5 X
Track quality 100.0 %
Copy CRC 91BE42D2
Accurately ripped (confidence 24) [3EF6CA0A] (AR v2)
Copy OK


All tracks accurately ripped

No errors occurred

End of status report


Exact Audio Copy V1.0 beta 3 from 29. August 2011

EAC extraction logfile from 24. October 2016, 21:29

Symphonieorchester des Bayerischen Rundfunks, Rafael Kubelik / Kubelik SE - CD 17 Mahler

Used drive : ASUS DRW-24F1ST a Adapter: 2 ID: 0

Read mode : Secure
Utilize accurate stream : Yes
Defeat audio cache : No
Make use of C2 pointers : No

Read offset correction : 6
Overread into Lead-In and Lead-Out : No
Fill up missing offset samples with silence : Yes
Delete leading and trailing silent blocks : No
Null samples used in CRC calculations : Yes
Used interface : Native Win32 interface for Win NT & 2000
Gap handling : Appended to previous track

Used output format : User Defined Encoder
Selected bitrate : 768 kBit/s
Quality : High
Add ID3 tag : No
Command line compressor : C:\Program Files (x86)\Exact Audio Copy\FLAC\FLAC.EXE
Additional command line options : -8 -V -T "ARTIST=%artist%" -T "TITLE=%title%" -T "ALBUM=%albumtitle%" -T "DATE=%year%" -T "TRACKNUMBER=%tracknr%" -T "GENRE=%genre%" -T "COMMENT=%comment%" -T "BAND=%albuminterpret%" -T "ALBUMARTIST=%albuminterpret%" -T "COMPOSER=%composer%" %haslyrics%–tag-from-file=LYRICS="%lyricsfile%"%haslyrics% -T "DISCNUMBER=%cdnumber%" -T "TOTALDISCS=%totalcds%" -T "TOTALTRACKS=%numtracks%" %hascover%–picture="%coverfile%"%hascover% %source% -o %dest%


TOC of the extracted CD

Track | Start | Length | Start sector | End sector
––––––––––––––––––––––––––––-
1 | 0:00.33 | 22:10.25 | 33 | 99807
2 | 22:10.58 | 23:56.32 | 99808 | 207539


Track 1

Filename E:\01 Symphony No.3 in D minor Part 2, VI. Langsam. Ruhevoll. Empfunden.wav

Pre-gap length 0:00:02.33

Peak level 84.4 %
Extraction speed 3.5 X
Track quality 99.9 %
Copy CRC C1803544
Accurately ripped (confidence 26) [2DEE35C6] (AR v2)
Copy OK

Track 2

Filename E:\02 Symphony No.10 in F sharp (unfinished), I. Andante - Adagio.wav

Pre-gap length 0:00:03.28

Peak level 89.8 %
Extraction speed 3.5 X
Track quality 100.0 %
Copy CRC 33AEC226
Accurately ripped (confidence 25) [9C8B2EF3] (AR v2)
Copy OK


All tracks accurately ripped

No errors occurred

End of status report


Exact Audio Copy V1.0 beta 3 from 29. August 2011

EAC extraction logfile from 24. October 2016, 22:04

Symphonieorchester des Bayerischen Rundfunks, Rafael Kubelik / Kubelik SE - CD 18 Mahler

Used drive : ASUS DRW-24F1ST a Adapter: 2 ID: 0

Read mode : Secure
Utilize accurate stream : Yes
Defeat audio cache : No
Make use of C2 pointers : No

Read offset correction : 6
Overread into Lead-In and Lead-Out : No
Fill up missing offset samples with silence : Yes
Delete leading and trailing silent blocks : No
Null samples used in CRC calculations : Yes
Used interface : Native Win32 interface for Win NT & 2000
Gap handling : Appended to previous track

Used output format : User Defined Encoder
Selected bitrate : 768 kBit/s
Quality : High
Add ID3 tag : No
Command line compressor : C:\Program Files (x86)\Exact Audio Copy\FLAC\FLAC.EXE
Additional command line options : -8 -V -T "ARTIST=%artist%" -T "TITLE=%title%" -T "ALBUM=%albumtitle%" -T "DATE=%year%" -T "TRACKNUMBER=%tracknr%" -T "GENRE=%genre%" -T "COMMENT=%comment%" -T "BAND=%albuminterpret%" -T "ALBUMARTIST=%albuminterpret%" -T "COMPOSER=%composer%" %haslyrics%–tag-from-file=LYRICS="%lyricsfile%"%haslyrics% -T "DISCNUMBER=%cdnumber%" -T "TOTALDISCS=%totalcds%" -T "TOTALTRACKS=%numtracks%" %hascover%–picture="%coverfile%"%hascover% %source% -o %dest%


TOC of the extracted CD

Track | Start | Length | Start sector | End sector
––––––––––––––––––––––––––––-
1 | 0:00.33 | 15:52.30 | 33 | 71462
2 | 15:52.63 | 9:08.55 | 71463 | 112617
3 | 25:01.43 | 18:47.67 | 112618 | 197209
4 | 43:49.35 | 8:01.05 | 197210 | 233289


Track 1

Filename E:\01 Symphony No.4 in G major, I. Bedächtig. Nicht eilen - Recht gemächlich.wav

Pre-gap length 0:00:02.33

Peak level 77.4 %
Extraction speed 3.5 X
Track quality 100.0 %
Copy CRC 51DC6650
Accurately ripped (confidence 25) [2E1176BE] (AR v2)
Copy OK

Track 2

Filename E:\02 Symphony No.4 in G major, II. In Gemächlicher Bewegung. Ohne Hast.wav

Pre-gap length 0:00:05.43

Peak level 43.0 %
Extraction speed 3.5 X
Track quality 100.0 %
Copy CRC E618C1EE
Accurately ripped (confidence 24) [8F164A74] (AR v2)
Copy OK

Track 3

Filename E:\03 Symphony No.4 in G major, III. Ruhevoll (Poco adagio).wav

Pre-gap length 0:00:04.35

Peak level 90.1 %
Extraction speed 3.6 X
Track quality 100.0 %
Copy CRC DD4F3CDC
Accurately ripped (confidence 25) [C47ABA2F] (AR v2)
Copy OK

Track 4

Filename E:\04 Symphony No.4 in G major, IV. Sehr behaglich- ''Wir geniessen die himmlischen Freuden''.wav

Pre-gap length 0:00:00.65

Peak level 52.7 %
Extraction speed 3.5 X
Track quality 99.9 %
Copy CRC 04F8F4FA
Accurately ripped (confidence 25) [2E5A82B7] (AR v2)
Copy OK


All tracks accurately ripped

No errors occurred

End of status report


Exact Audio Copy V1.0 beta 3 from 29. August 2011

EAC extraction logfile from 24. October 2016, 22:34

Symphonieorchester des Bayerischen Rundfunks, Rafael Kubelik / Kubelik SE - CD 19 Mahler

Used drive : ASUS DRW-24F1ST a Adapter: 2 ID: 0

Read mode : Secure
Utilize accurate stream : Yes
Defeat audio cache : No
Make use of C2 pointers : No

Read offset correction : 6
Overread into Lead-In and Lead-Out : No
Fill up missing offset samples with silence : Yes
Delete leading and trailing silent blocks : No
Null samples used in CRC calculations : Yes
Used interface : Native Win32 interface for Win NT & 2000
Gap handling : Appended to previous track

Used output format : User Defined Encoder
Selected bitrate : 768 kBit/s
Quality : High
Add ID3 tag : No
Command line compressor : C:\Program Files (x86)\Exact Audio Copy\FLAC\FLAC.EXE
Additional command line options : -8 -V -T "ARTIST=%artist%" -T "TITLE=%title%" -T "ALBUM=%albumtitle%" -T "DATE=%year%" -T "TRACKNUMBER=%tracknr%" -T "GENRE=%genre%" -T "COMMENT=%comment%" -T "BAND=%albuminterpret%" -T "ALBUMARTIST=%albuminterpret%" -T "COMPOSER=%composer%" %haslyrics%–tag-from-file=LYRICS="%lyricsfile%"%haslyrics% -T "DISCNUMBER=%cdnumber%" -T "TOTALDISCS=%totalcds%" -T "TOTALTRACKS=%numtracks%" %hascover%–picture="%coverfile%"%hascover% %source% -o %dest%


TOC of the extracted CD

Track | Start | Length | Start sector | End sector
––––––––––––––––––––––––––––-
1 | 0:00.33 | 11:42.62 | 33 | 52744
2 | 11:43.20 | 13:57.73 | 52745 | 115592
3 | 25:41.18 | 17:22.32 | 115593 | 193774
4 | 43:03.50 | 9:44.55 | 193775 | 237629
5 | 52:48.30 | 15:27.10 | 237630 | 307164


Track 1

Filename E:\01 Symphony No.5 In C Sharp Minor, I. Trauermarsch (In gemessenem Schritt. Streng. Wie ein Kondukt).wav

Pre-gap length 0:00:02.33

Peak level 98.9 %
Extraction speed 3.4 X
Track quality 99.9 %
Copy CRC 7DF3050C
Accurately ripped (confidence 13) [CFDCDA93] (AR v2)
Copy OK

Track 2

Filename E:\02 Symphony No.5 In C Sharp Minor, II. Stürmisch bewegt. Mit grösster Vehemenz - Bedeutend langsamer - Tempo I subito.wav

Pre-gap length 0:00:04.50

Peak level 98.7 %
Extraction speed 3.1 X
Track quality 99.9 %
Copy CRC 0112E51F
Accurately ripped (confidence 13) [B3E17B10] (AR v2)
Copy OK

Track 3

Filename E:\03 Symphony No.5 In C Sharp Minor, III. Scherzo. Kräftig, nicht zu schnell.wav

Pre-gap length 0:00:05.35

Peak level 94.1 %
Extraction speed 3.5 X
Track quality 100.0 %
Copy CRC CF440EAC
Accurately ripped (confidence 13) [A808D314] (AR v2)
Copy OK

Track 4

Filename E:\04 Symphony No.5 In C Sharp Minor, IV. Adagietto. Sehr langsam - attacca.wav

Pre-gap length 0:00:02.05

Peak level 53.5 %
Extraction speed 3.5 X
Track quality 100.0 %
Copy CRC 72532FBC
Accurately ripped (confidence 13) [999B6F8C] (AR v2)
Copy OK

Track 5

Filename E:\05 Symphony No.5 In C Sharp Minor, V. Rondo - Finale. Allegro giocoso. Frisch.wav

Peak level 99.0 %
Extraction speed 3.5 X
Track quality 100.0 %
Copy CRC 41ECA8B7
Accurately ripped (confidence 13) [BAB6D24A] (AR v2)
Copy OK


All tracks accurately ripped

No errors occurred

End of status report


Exact Audio Copy V1.0 beta 3 from 29. August 2011

EAC extraction logfile from 24. October 2016, 23:10

Symphonieorchester des Bayerischen Rundfunks, Rafael Kubelik / Kubelik SE - CD 20 Mahler

Used drive : ASUS DRW-24F1ST a Adapter: 2 ID: 0

Read mode : Secure
Utilize accurate stream : Yes
Defeat audio cache : No
Make use of C2 pointers : No

Read offset correction : 6
Overread into Lead-In and Lead-Out : No
Fill up missing offset samples with silence : Yes
Delete leading and trailing silent blocks : No
Null samples used in CRC calculations : Yes
Used interface : Native Win32 interface for Win NT & 2000
Gap handling : Appended to previous track

Used output format : User Defined Encoder
Selected bitrate : 768 kBit/s
Quality : High
Add ID3 tag : No
Command line compressor : C:\Program Files (x86)\Exact Audio Copy\FLAC\FLAC.EXE
Additional command line options : -8 -V -T "ARTIST=%artist%" -T "TITLE=%title%" -T "ALBUM=%albumtitle%" -T "DATE=%year%" -T "TRACKNUMBER=%tracknr%" -T "GENRE=%genre%" -T "COMMENT=%comment%" -T "BAND=%albuminterpret%" -T "ALBUMARTIST=%albuminterpret%" -T "COMPOSER=%composer%" %haslyrics%–tag-from-file=LYRICS="%lyricsfile%"%haslyrics% -T "DISCNUMBER=%cdnumber%" -T "TOTALDISCS=%totalcds%" -T "TOTALTRACKS=%numtracks%" %hascover%–picture="%coverfile%"%hascover% %source% -o %dest%


TOC of the extracted CD

Track | Start | Length | Start sector | End sector
––––––––––––––––––––––––––––-
1 | 0:00.33 | 21:11.67 | 33 | 95424
2 | 21:12.25 | 11:45.18 | 95425 | 148317
3 | 32:57.43 | 14:42.15 | 148318 | 214482
4 | 47:39.58 | 26:36.57 | 214483 | 334239


Track 1

Filename E:\01 Symphony No.6 in A minor, ''Tragic'', Allegro Energico, Ma Non Troppo. Heftig, Aber Markig.wav

Pre-gap length 0:00:02.33

Peak level 93.3 %
Extraction speed 3.5 X
Track quality 99.9 %
Copy CRC 3F649E5B
Accurately ripped (confidence 15) [4A32191A] (AR v2)
Copy OK

Track 2

Filename E:\02 Symphony No.6 in A minor, ''Tragic'', Scherzo. Wuchtig.wav

Pre-gap length 0:00:04.50

Peak level 73.2 %
Extraction speed 3.5 X
Track quality 100.0 %
Copy CRC 4ABC1EC0
Accurately ripped (confidence 15) [9D7B9433] (AR v2)
Copy OK

Track 3

Filename E:\03 Symphony No.6 in A minor, ''Tragic'', Andante Moderato.wav

Pre-gap length 0:00:04.15

Peak level 69.9 %
Extraction speed 3.5 X
Track quality 100.0 %
Copy CRC 46C65DEB
Accurately ripped (confidence 15) [53E9AAD8] (AR v2)
Copy OK

Track 4

Filename E:\04 Symphony No.6 in A minor, ''Tragic'', Finale. Allegro Moderato - Allegro Energico.wav

Pre-gap length 0:00:02.63

Peak level 97.2 %
Extraction speed 3.5 X
Track quality 100.0 %
Copy CRC CF30B7D9
Accurately ripped (confidence 15) [AAE98573] (AR v2)
Copy OK


All tracks accurately ripped

No errors occurred

End of status report


Exact Audio Copy V1.0 beta 3 from 29. August 2011

EAC extraction logfile from 24. October 2016, 23:43

Symphonieorchester des Bayerischen Rundfunks, Rafael Kubelik / Kubelik SE - CD 21 Mahler

Used drive : ASUS DRW-24F1ST a Adapter: 2 ID: 0

Read mode : Secure
Utilize accurate stream : Yes
Defeat audio cache : No
Make use of C2 pointers : No

Read offset correction : 6
Overread into Lead-In and Lead-Out : No
Fill up missing offset samples with silence : Yes
Delete leading and trailing silent blocks : No
Null samples used in CRC calculations : Yes
Used interface : Native Win32 interface for Win NT & 2000
Gap handling : Appended to previous track

Used output format : User Defined Encoder
Selected bitrate : 768 kBit/s
Quality : High
Add ID3 tag : No
Command line compressor : C:\Program Files (x86)\Exact Audio Copy\FLAC\FLAC.EXE
Additional command line options : -8 -V -T "ARTIST=%artist%" -T "TITLE=%title%" -T "ALBUM=%albumtitle%" -T "DATE=%year%" -T "TRACKNUMBER=%tracknr%" -T "GENRE=%genre%" -T "COMMENT=%comment%" -T "BAND=%albuminterpret%" -T "ALBUMARTIST=%albuminterpret%" -T "COMPOSER=%composer%" %haslyrics%–tag-from-file=LYRICS="%lyricsfile%"%haslyrics% -T "DISCNUMBER=%cdnumber%" -T "TOTALDISCS=%totalcds%" -T "TOTALTRACKS=%numtracks%" %hascover%–picture="%coverfile%"%hascover% %source% -o %dest%


TOC of the extracted CD

Track | Start | Length | Start sector | End sector
––––––––––––––––––––––––––––-
1 | 0:00.33 | 19:46.12 | 33 | 88994
2 | 19:46.45 | 14:48.25 | 88995 | 155619
3 | 34:34.70 | 9:26.13 | 155620 | 198082
4 | 44:01.08 | 12:02.50 | 198083 | 252282
5 | 56:03.58 | 16:42.00 | 252283 | 327432


Track 1

Filename E:\01 Symphony No.7 In E Minor, I. Langsam (Adagio) - Allegro Risoluto, Ma Non Troppo.wav

Pre-gap length 0:00:02.33

Peak level 87.6 %
Extraction speed 3.6 X
Track quality 100.0 %
Copy CRC 79F2B2AA
Accurately ripped (confidence 25) [2AA64FDE] (AR v2)
Copy OK

Track 2

Filename E:\02 Symphony No.7 In E Minor, II. Nachtmusik. Allegro Moderato.wav

Pre-gap length 0:00:05.63

Peak level 71.6 %
Extraction speed 3.5 X
Track quality 100.0 %
Copy CRC 2118C9F8
Accurately ripped (confidence 25) [109F36D4] (AR v2)
Copy OK

Track 3

Filename E:\03 Symphony No.7 In E Minor, III. Scherzo. Schattenhaft.wav

Pre-gap length 0:00:02.38

Peak level 77.4 %
Extraction speed 3.5 X
Track quality 100.0 %
Copy CRC 3DA066E1
Accurately ripped (confidence 24) [EBC569B5] (AR v2)
Copy OK

Track 4

Filename E:\04 Symphony No.7 In E Minor, IV. Nachtmusik. Andante Amoroso.wav

Pre-gap length 0:00:03.25

Peak level 53.0 %
Extraction speed 3.5 X
Track quality 100.0 %
Copy CRC C09321DB
Accurately ripped (confidence 25) [81C8AE4C] (AR v2)
Copy OK

Track 5

Filename E:\05 Symphony No.7 In E Minor, V. Rondo - Finale (Allegro ordinario - Allegro moderato ma energico).wav

Pre-gap length 0:00:04.25

Peak level 94.1 %
Extraction speed 3.5 X
Track quality 99.9 %
Copy CRC 022734F3
Accurately ripped (confidence 25) [4FB1F27D] (AR v2)
Copy OK


All tracks accurately ripped

No errors occurred

End of status report


Exact Audio Copy V1.0 beta 3 from 29. August 2011

EAC extraction logfile from 25. October 2016, 0:24

Symphonieorchester des Bayerischen Rundfunks, Rafael Kubelik / Kubelik SE - CD 22 Mahler

Used drive : ASUS DRW-24F1ST a Adapter: 2 ID: 0

Read mode : Secure
Utilize accurate stream : Yes
Defeat audio cache : No
Make use of C2 pointers : No

Read offset correction : 6
Overread into Lead-In and Lead-Out : No
Fill up missing offset samples with silence : Yes
Delete leading and trailing silent blocks : No
Null samples used in CRC calculations : Yes
Used interface : Native Win32 interface for Win NT & 2000
Gap handling : Appended to previous track

Used output format : User Defined Encoder
Selected bitrate : 768 kBit/s
Quality : High
Add ID3 tag : No
Command line compressor : C:\Program Files (x86)\Exact Audio Copy\FLAC\FLAC.EXE
Additional command line options : -8 -V -T "ARTIST=%artist%" -T "TITLE=%title%" -T "ALBUM=%albumtitle%" -T "DATE=%year%" -T "TRACKNUMBER=%tracknr%" -T "GENRE=%genre%" -T "COMMENT=%comment%" -T "BAND=%albuminterpret%" -T "ALBUMARTIST=%albuminterpret%" -T "COMPOSER=%composer%" %haslyrics%–tag-from-file=LYRICS="%lyricsfile%"%haslyrics% -T "DISCNUMBER=%cdnumber%" -T "TOTALDISCS=%totalcds%" -T "TOTALTRACKS=%numtracks%" %hascover%–picture="%coverfile%"%hascover% %source% -o %dest%


TOC of the extracted CD

Track | Start | Length | Start sector | End sector
––––––––––––––––––––––––––––-
1 | 0:00.33 | 22:09.00 | 33 | 99707
2 | 22:09.33 | 27:51.62 | 99708 | 225094
3 | 50:01.20 | 24:23.13 | 225095 | 334832


Track 1

Filename E:\01 Symphony No. 8 In E flat major - ''Symphony Of A Thousand'', Part I - Hymnus ''Veni, Creator Spiritus''. I. Allegro impetuoso.wav

Pre-gap length 0:00:02.33

Peak level 92.4 %
Extraction speed 3.5 X
Track quality 99.9 %
Copy CRC F4FCE844
Accurately ripped (confidence 23) [C2DCFFA2] (AR v2)
Copy OK

Track 2

Filename E:\02 Symphony No. 8 In E flat major - ''Symphony Of A Thousand'', Part II - Final scene from Goethe's ''Faust'', II. Poco Adagio - Più Mosso..wav

Pre-gap length 0:00:11.50

Peak level 81.8 %
Extraction speed 3.6 X
Track quality 100.0 %
Copy CRC 28E5EC46
Accurately ripped (confidence 23) [27D3B882] (AR v2)
Copy OK

Track 3

Filename E:\03 Symphony No. 8 In E flat major - ''Symphony Of A Thousand'', Part II - Final scene from Goethe's ''Faust'', III. Äusserst Langsam. Adagissimo.wav

Peak level 85.9 %
Extraction speed 3.5 X
Track quality 100.0 %
Copy CRC 60E00A2E
Accurately ripped (confidence 23) [54BDE1ED] (AR v2)
Copy OK


All tracks accurately ripped

No errors occurred

End of status report


Exact Audio Copy V1.0 beta 3 from 29. August 2011

EAC extraction logfile from 25. October 2016, 0:55

Symphonieorchester des Bayerischen Rundfunks, Rafael Kubelik / Kubelik SE - CD 23 Mahler

Used drive : ASUS DRW-24F1ST a Adapter: 2 ID: 0

Read mode : Secure
Utilize accurate stream : Yes
Defeat audio cache : No
Make use of C2 pointers : No

Read offset correction : 6
Overread into Lead-In and Lead-Out : No
Fill up missing offset samples with silence : Yes
Delete leading and trailing silent blocks : No
Null samples used in CRC calculations : Yes
Used interface : Native Win32 interface for Win NT & 2000
Gap handling : Appended to previous track

Used output format : User Defined Encoder
Selected bitrate : 768 kBit/s
Quality : High
Add ID3 tag : No
Command line compressor : C:\Program Files (x86)\Exact Audio Copy\FLAC\FLAC.EXE
Additional command line options : -8 -V -T "ARTIST=%artist%" -T "TITLE=%title%" -T "ALBUM=%albumtitle%" -T "DATE=%year%" -T "TRACKNUMBER=%tracknr%" -T "GENRE=%genre%" -T "COMMENT=%comment%" -T "BAND=%albuminterpret%" -T "ALBUMARTIST=%albuminterpret%" -T "COMPOSER=%composer%" %haslyrics%–tag-from-file=LYRICS="%lyricsfile%"%haslyrics% -T "DISCNUMBER=%cdnumber%" -T "TOTALDISCS=%totalcds%" -T "TOTALTRACKS=%numtracks%" %hascover%–picture="%coverfile%"%hascover% %source% -o %dest%


TOC of the extracted CD

Track | Start | Length | Start sector | End sector
––––––––––––––––––––––––––––-
1 | 0:00.33 | 26:03.52 | 33 | 117309
2 | 26:04.10 | 16:04.73 | 117310 | 189682
3 | 42:09.08 | 13:24.57 | 189683 | 250039
4 | 55:33.65 | 21:45.73 | 250040 | 347987


Track 1

Filename E:\01 Symphony No.9 in D, I. Andante Comodo.wav

Pre-gap length 0:00:02.33

Peak level 100.0 %
Extraction speed 3.5 X
Track quality 99.9 %
Copy CRC 3914CC47
Accurately ripped (confidence 15) [F4A525B1] (AR v2)
Copy OK

Track 2

Filename E:\02 Symphony No.9 in D, II. Im Tempo eines gemächlichen Ländler. Etwas täppisch und sehr derb - Poco più mosso subito - Ländler, ganz langsam.wav

Pre-gap length 0:00:06.55

Peak level 66.3 %
Extraction speed 3.5 X
Track quality 100.0 %
Copy CRC 54E85437
Accurately ripped (confidence 16) [6A8CBF62] (AR v2)
Copy OK

Track 3

Filename E:\03 Symphony No.9 in D, III. Rondo-Burleske. Allegro Assai. Sehr Trotzig.wav

Pre-gap length 0:00:03.63

Peak level 73.5 %
Extraction speed 3.5 X
Track quality 99.9 %
Copy CRC 2910BE6E
Accurately ripped (confidence 16) [95B3FD57] (AR v2)
Copy OK

Track 4

Filename E:\04 Symphony No.9 in D, IV. Adagio. Sehr Langsam Und Noch Zurückhaltend.wav

Pre-gap length 0:00:07.40

Peak level 83.4 %
Extraction speed 3.5 X
Track quality 100.0 %
Copy CRC 44A1065D
Accurately ripped (confidence 14) [8854AFE7] (AR v2)
Copy OK


All tracks accurately ripped

No errors occurred

End of status report


Rafael Kubelik - The Symphony Edition (2014) (23 CDs Box Set)


Thanks to original ripper.