Subcategories

Rainbow Serpent - 9 Albums (1995-2010) (Re-up)

Posted By: gribovar
Rainbow Serpent - 9 Albums (1995-2010) (Re-up)

Rainbow Serpent - 9 Albums (1995-2010)
EAC Rip | FLAC (tracks+.cue+log) - 3,36 GB | MP3 CBR 320 kbps (LAME 3.93) - 1,45 GB | Covers - 827 MB
Genre: Progressive Electronic, Berlin School | RAR 3% Rec. | Label: Ardema Musik, Invisible Shadows, Manikin Records

Rainbow Serpent are one of the best Electronic Music bands to emerge from Germany having a rare talent for infectious sequences and sublime melodies. At one moment they can produce tracks overflowing with the joy of life and then in the next turn their hands to growling menacing stuff. Frank Specht is one half of the awesome Rainbow Serpent and as with Gerd Wienekamp's (the other half of Rainbow Serpent) album 'Der Laborant - Kontakt' what we get is a mixture of very recognisable Serpent characteristics as well as a different angle identifying the individuality of each member.

Rainbow Serpent - 9 Albums (1995-2010) (Re-up)

Rainbow Serpent - Futuregate (1995)
EAC Rip | FLAC (tracks+.cue+log) - 328 MB | MP3 CBR 320 kbps (LAME 3.93) - 165 MB | Covers - 128 MB
Genre: Progressive Electronic, Berlin School | RAR 3% Rec. | Label: Ardema Musik (AM 959144)

Tracklist:
01. Futuregate I
02. Futuregate II
03. Futuregate III
04. Ancient Skies
05. Dreamtime
06. Deep Blue
07. Departure
08. Over the Edge
09. Waiting for Kippenhahn

Total time: 01:10:00

Exact Audio Copy V1.0 beta 3 from 29. August 2011

EAC extraction logfile from 6. December 2015, 0:56

Rainbow Serpent / Futuregate

Used drive : PIONEER BD-RW BDR-S09 Adapter: 1 ID: 0

Read mode : Secure
Utilize accurate stream : Yes
Defeat audio cache : Yes
Make use of C2 pointers : No

Read offset correction : 667
Overread into Lead-In and Lead-Out : No
Fill up missing offset samples with silence : Yes
Delete leading and trailing silent blocks : No
Null samples used in CRC calculations : Yes
Used interface : Native Win32 interface for Win NT & 2000
Gap handling : Appended to previous track

Used output format : User Defined Encoder
Selected bitrate : 1024 kBit/s
Quality : High
Add ID3 tag : No
Command line compressor : C:\Program Files (x86)\Exact Audio Copy\Flac\flac.exe
Additional command line options : -8 -V -T "COMMENT=ripped by DrStandBy special for new-team.org" -T "ARTIST=%artist%" -T "TITLE=%title%" -T "ALBUM=%albumtitle%" -T "DATE=%year%" -T "TRACKNUMBER=%tracknr%" -T "GENRE=%genre%" %source%


TOC of the extracted CD

Track | Start | Length | Start sector | End sector
––––––––––––––––––––––––––––-
1 | 0:01.00 | 10:39.67 | 75 | 48066
2 | 10:40.67 | 10:44.42 | 48067 | 96408
3 | 21:25.34 | 11:03.57 | 96409 | 146190
4 | 32:29.16 | 9:43.07 | 146191 | 189922
5 | 42:12.23 | 5:51.41 | 189923 | 216288
6 | 48:03.64 | 8:16.40 | 216289 | 253528
7 | 56:20.29 | 4:15.48 | 253529 | 272701
8 | 60:36.02 | 4:14.54 | 272702 | 291805
9 | 64:50.56 | 5:10.21 | 291806 | 315076


Track 1

Filename I:\Rainbow Serpent\1995 - Futuregate (AM 959144)\01. Rainbow Serpent - Futuregate I.wav

Pre-gap length 0:00:03.00

Peak level 94.4 %
Extraction speed 5.8 X
Track quality 100.0 %
Test CRC D5B9BB6E
Copy CRC D5B9BB6E
Accurately ripped (confidence 3) [6068F18F] (AR v2)
Copy OK

Track 2

Filename I:\Rainbow Serpent\1995 - Futuregate (AM 959144)\02. Rainbow Serpent - Futuregate II.wav

Pre-gap length 0:00:02.60

Peak level 100.0 %
Extraction speed 7.0 X
Track quality 100.0 %
Test CRC 8A821ACC
Copy CRC 8A821ACC
Accurately ripped (confidence 3) [4E1D7A02] (AR v2)
Copy OK

Track 3

Filename I:\Rainbow Serpent\1995 - Futuregate (AM 959144)\03. Rainbow Serpent - Futuregate III.wav

Pre-gap length 0:00:02.60

Peak level 95.4 %
Extraction speed 8.0 X
Track quality 100.0 %
Test CRC 5956EB10
Copy CRC 5956EB10
Accurately ripped (confidence 2) [6AA15439] (AR v2)
Copy OK

Track 4

Filename I:\Rainbow Serpent\1995 - Futuregate (AM 959144)\04. Rainbow Serpent - Ancient Skies.wav

Pre-gap length 0:00:02.60

Peak level 92.7 %
Extraction speed 8.6 X
Track quality 100.0 %
Test CRC A2CF6B0D
Copy CRC A2CF6B0D
Accurately ripped (confidence 3) [250868FD] (AR v2)
Copy OK

Track 5

Filename I:\Rainbow Serpent\1995 - Futuregate (AM 959144)\05. Rainbow Serpent - Dreamtime.wav

Pre-gap length 0:00:02.60

Peak level 86.7 %
Extraction speed 8.7 X
Track quality 100.0 %
Test CRC 6A418EB8
Copy CRC 6A418EB8
Accurately ripped (confidence 3) [00F3CA53] (AR v2)
Copy OK

Track 6

Filename I:\Rainbow Serpent\1995 - Futuregate (AM 959144)\06. Rainbow Serpent - Deep Blue.wav

Pre-gap length 0:00:02.60

Peak level 100.0 %
Extraction speed 9.4 X
Track quality 100.0 %
Test CRC 6BE0B6DC
Copy CRC 6BE0B6DC
Accurately ripped (confidence 3) [DF1AF89E] (AR v2)
Copy OK

Track 7

Filename I:\Rainbow Serpent\1995 - Futuregate (AM 959144)\07. Rainbow Serpent - Departure.wav

Pre-gap length 0:00:02.60

Peak level 85.2 %
Extraction speed 8.2 X
Track quality 99.9 %
Test CRC 5A5BE9F8
Copy CRC 5A5BE9F8
Accurately ripped (confidence 3) [8ABC08AA] (AR v2)
Copy OK

Track 8

Filename I:\Rainbow Serpent\1995 - Futuregate (AM 959144)\08. Rainbow Serpent - Over the Edge.wav

Pre-gap length 0:00:02.60

Peak level 57.8 %
Extraction speed 9.4 X
Track quality 100.0 %
Test CRC C6BFB9C9
Copy CRC C6BFB9C9
Accurately ripped (confidence 3) [5222B3A2] (AR v2)
Copy OK

Track 9

Filename I:\Rainbow Serpent\1995 - Futuregate (AM 959144)\09. Rainbow Serpent - Waiting for Kippenhahn.wav

Pre-gap length 0:00:02.60

Peak level 88.1 %
Extraction speed 9.9 X
Track quality 100.0 %
Test CRC 4D7E4B88
Copy CRC 4D7E4B88
Accurately ripped (confidence 3) [9844BFC5] (AR v2)
Copy OK


All tracks accurately ripped

No errors occurred

End of status report

–– CUETools DB Plugin V2.1.6

[CTDB TOCID: xmCdtW3ow4MlHFLyRfHpiyiF_1s-] disk not present in database
Submit result: xmCdtW3ow4MlHFLyRfHpiyiF_1s- has been uploaded


==== Log checksum 5FB3A9223402BBFEBE8C089E6A11AA1596CB8D3D0CDA6594F857FFBE1D9499FB ====

[CUETools log; Date: 31.07.2020 22:51:50; Version: 2.1.4]
Pregap length 00:01:00.
[CTDB TOCID: xmCdtW3ow4MlHFLyRfHpiyiF_1s-] found.
Track | CTDB Status
1 | (1/1) Accurately ripped
2 | (1/1) Accurately ripped
3 | (1/1) Accurately ripped
4 | (1/1) Accurately ripped
5 | (1/1) Accurately ripped
6 | (1/1) Accurately ripped
7 | (1/1) Accurately ripped
8 | (1/1) Accurately ripped
9 | (1/1) Accurately ripped
[AccurateRip ID: 001becb4-00c59d6c-90106809] found.
Track [ CRC | V2 ] Status
01 [3cee1da6|6068f18f] (3+5/8) Accurately ripped
02 [8d18cac8|4e1d7a02] (3+5/8) Accurately ripped
03 [99764b7d|6aa15439] (2+4/6) Accurately ripped
04 [21d126e6|250868fd] (3+5/8) Accurately ripped
05 [a896c649|00f3ca53] (3+6/9) Accurately ripped
06 [b46ad01d|df1af89e] (3+6/9) Accurately ripped
07 [9afbdcac|8abc08aa] (3+6/9) Accurately ripped
08 [1c9f4341|5222b3a2] (3+6/9) Accurately ripped
09 [61e89295|9844bfc5] (3+6/9) Accurately ripped

Track Peak [ CRC32 ] [W/O NULL] [ LOG ]
– 100,0 [AF7B59C0] [164B0F29]
01 94,4 [D5B9BB6E] [76DE64B6] CRC32
02 100,0 [8A821ACC] [0078C58B] CRC32
03 95,4 [5956EB10] [7EFC6EA9] CRC32
04 92,7 [A2CF6B0D] [8F6BB293] CRC32
05 86,7 [6A418EB8] [3D149A31] CRC32
06 100,0 [6BE0B6DC] [D399C7DC] CRC32
07 85,2 [5A5BE9F8] [0EB0D087] CRC32
08 57,8 [C6BFB9C9] [8B3733BF] CRC32
09 88,1 [4D7E4B88] [4ADDA2D7] CRC32

Rainbow Serpent - 9 Albums (1995-2010) (Re-up)

Rainbow Serpent - Voyager (1996)
EAC Rip | FLAC (tracks+.cue+log) - 310 MB | MP3 CBR 320 kbps (LAME 3.93) - 146 MB | Covers - 125 MB
Genre: Progressive Electronic, Berlin School | RAR 3% Rec. | Label: Ardema Musik (AM 965984)

Tracklist:
01. Past
Overture: Voyager
Ritual
Return of the Dreamtime
The Gate
02. Present
Growing from Imagination
Wind, Rain and Thunder
Remnants
03. Future
Visualities Labored for Thousands of Years
Final: Voyager

Total time: 01:02:01

Exact Audio Copy V1.0 beta 3 from 29. August 2011

EAC extraction logfile from 6. December 2015, 0:18

Rainbow Serpent / Voyager

Used drive : PIONEER BD-RW BDR-S09 Adapter: 1 ID: 0

Read mode : Secure
Utilize accurate stream : Yes
Defeat audio cache : Yes
Make use of C2 pointers : No

Read offset correction : 667
Overread into Lead-In and Lead-Out : No
Fill up missing offset samples with silence : Yes
Delete leading and trailing silent blocks : No
Null samples used in CRC calculations : Yes
Used interface : Native Win32 interface for Win NT & 2000
Gap handling : Appended to previous track

Used output format : User Defined Encoder
Selected bitrate : 1024 kBit/s
Quality : High
Add ID3 tag : No
Command line compressor : C:\Program Files (x86)\Exact Audio Copy\Flac\flac.exe
Additional command line options : -8 -V -T "COMMENT=ripped by DrStandBy special for new-team.org" -T "ARTIST=%artist%" -T "TITLE=%title%" -T "ALBUM=%albumtitle%" -T "DATE=%year%" -T "TRACKNUMBER=%tracknr%" -T "GENRE=%genre%" %source%


TOC of the extracted CD

Track | Start | Length | Start sector | End sector
––––––––––––––––––––––––––––-
1 | 0:00.00 | 22:30.49 | 0 | 101298
2 | 22:30.49 | 20:44.36 | 101299 | 194634
3 | 43:15.10 | 18:45.44 | 194635 | 279053


Track 1

Filename I:\Rainbow Serpent\1996 - Voyager (AM 965984)\01. Rainbow Serpent - Past.wav

Pre-gap length 0:00:02.00

Peak level 87.5 %
Extraction speed 6.4 X
Track quality 100.0 %
Test CRC CFD91B42
Copy CRC CFD91B42
Accurately ripped (confidence 3) [EA952562] (AR v2)
Copy OK

Track 2

Filename I:\Rainbow Serpent\1996 - Voyager (AM 965984)\02. Rainbow Serpent - Present.wav

Pre-gap length 0:00:02.00

Peak level 99.9 %
Extraction speed 8.4 X
Track quality 100.0 %
Test CRC E4E5005C
Copy CRC E4E5005C
Accurately ripped (confidence 3) [A5BD1151] (AR v2)
Copy OK

Track 3

Filename I:\Rainbow Serpent\1996 - Voyager (AM 965984)\03. Rainbow Serpent - Future.wav

Pre-gap length 0:00:02.00

Peak level 97.5 %
Extraction speed 9.6 X
Track quality 100.0 %
Test CRC BA436740
Copy CRC BA436740
Accurately ripped (confidence 3) [F3111F5D] (AR v2)
Copy OK


All tracks accurately ripped

No errors occurred

End of status report

–– CUETools DB Plugin V2.1.6

[CTDB TOCID: 0cePMa8e9eEyrK_M2SaBbP773qY-] found
Submit result: 0cePMa8e9eEyrK_M2SaBbP773qY- has been confirmed
Track | CTDB Status
1 | (1/1) Accurately ripped
2 | (1/1) Accurately ripped
3 | (1/1) Accurately ripped


==== Log checksum 17800FF0E0ECAA65F3ED1ADDF52DF38776BB63B60807005EFF14E1F79B573A62 ====

[CUETools log; Date: 31.07.2020 23:14:52; Version: 2.1.4]
[CTDB TOCID: 0cePMa8e9eEyrK_M2SaBbP773qY-] found.
Track | CTDB Status
1 | (7/7) Accurately ripped
2 | (7/7) Accurately ripped
3 | (7/7) Accurately ripped
[AccurateRip ID: 0008c60c-001d0880-240e8803] found.
Track [ CRC | V2 ] Status
01 [f1349065|ea952562] (3+4/7) Accurately ripped
02 [43a7a1e9|a5bd1151] (2+4/6) Accurately ripped
03 [b85c1ed7|f3111f5d] (2+4/6) Accurately ripped

Track Peak [ CRC32 ] [W/O NULL] [ LOG ]
– 99,9 [11AC8D61] [118EBDD6]
01 87,5 [CFD91B42] [C4361A32] CRC32
02 99,9 [E4E5005C] [9214505C] CRC32
03 97,5 [BA436740] [671C5538] CRC32

Rainbow Serpent - 9 Albums (1995-2010) (Re-up)

Rainbow Serpent - Mosaique (1997)
EAC Rip | FLAC (tracks+.cue+log) - 371 MB | MP3 CBR 320 kbps (LAME 3.93) - 173 MB | Covers - 60 MB
Genre: Progressive Electronic, Berlin School | RAR 3% Rec. | Label: Ardema Musik (AM 971197)

Tracklist:
01. Silence
02. From Within
03. Prhythm
04. Mosaique
05. Trancelation
06. In High Spirit
07. Virtual Emotion
08. The Universal Play
09. Mental Mosaique

Total time: 01:13:24

Exact Audio Copy V1.0 beta 3 from 29. August 2011

EAC extraction logfile from 5. December 2015, 23:58

Rainbow Serpent / Mosaique

Used drive : PIONEER BD-RW BDR-S09 Adapter: 1 ID: 0

Read mode : Secure
Utilize accurate stream : Yes
Defeat audio cache : Yes
Make use of C2 pointers : No

Read offset correction : 667
Overread into Lead-In and Lead-Out : No
Fill up missing offset samples with silence : Yes
Delete leading and trailing silent blocks : No
Null samples used in CRC calculations : Yes
Used interface : Native Win32 interface for Win NT & 2000
Gap handling : Appended to previous track

Used output format : User Defined Encoder
Selected bitrate : 1024 kBit/s
Quality : High
Add ID3 tag : No
Command line compressor : C:\Program Files (x86)\Exact Audio Copy\Flac\flac.exe
Additional command line options : -8 -V -T "COMMENT=ripped by DrStandBy special for new-team.org" -T "ARTIST=%artist%" -T "TITLE=%title%" -T "ALBUM=%albumtitle%" -T "DATE=%year%" -T "TRACKNUMBER=%tracknr%" -T "GENRE=%genre%" %source%


TOC of the extracted CD

Track | Start | Length | Start sector | End sector
––––––––––––––––––––––––––––-
1 | 0:00.00 | 12:18.71 | 0 | 55420
2 | 12:18.71 | 7:20.28 | 55421 | 88448
3 | 19:39.24 | 10:23.36 | 88449 | 135209
4 | 30:02.60 | 5:17.70 | 135210 | 159054
5 | 35:20.55 | 10:41.19 | 159055 | 207148
6 | 46:01.74 | 5:01.18 | 207149 | 229741
7 | 51:03.17 | 12:19.61 | 229742 | 285227
8 | 63:23.03 | 4:11.06 | 285228 | 304058
9 | 67:34.09 | 5:49.69 | 304059 | 330302


Track 1

Filename I:\Rainbow Serpent\1997 - Mosaique (AM971197)\01. Rainbow Serpent - Silence.wav

Pre-gap length 0:00:02.00

Peak level 57.6 %
Extraction speed 6.1 X
Track quality 100.0 %
Test CRC 962923D2
Copy CRC 962923D2
Accurately ripped (confidence 4) [D7C05AD2] (AR v2)
Copy OK

Track 2

Filename I:\Rainbow Serpent\1997 - Mosaique (AM971197)\02. Rainbow Serpent - From Within.wav

Peak level 62.1 %
Extraction speed 7.0 X
Track quality 100.0 %
Test CRC 97D80726
Copy CRC 97D80726
Accurately ripped (confidence 4) [9015C96A] (AR v2)
Copy OK

Track 3

Filename I:\Rainbow Serpent\1997 - Mosaique (AM971197)\03. Rainbow Serpent - Prhythm.wav

Peak level 60.8 %
Extraction speed 7.6 X
Track quality 99.9 %
Test CRC 8B34E7C2
Copy CRC 8B34E7C2
Accurately ripped (confidence 4) [E5206332] (AR v2)
Copy OK

Track 4

Filename I:\Rainbow Serpent\1997 - Mosaique (AM971197)\04. Rainbow Serpent - Mosaique.wav

Peak level 64.6 %
Extraction speed 8.1 X
Track quality 100.0 %
Test CRC 3605DCF8
Copy CRC 3605DCF8
Accurately ripped (confidence 4) [8E40A35A] (AR v2)
Copy OK

Track 5

Filename I:\Rainbow Serpent\1997 - Mosaique (AM971197)\05. Rainbow Serpent - Trancelation.wav

Peak level 61.2 %
Extraction speed 9.0 X
Track quality 100.0 %
Test CRC 341AA226
Copy CRC 341AA226
Accurately ripped (confidence 4) [9087DAD3] (AR v2)
Copy OK

Track 6

Filename I:\Rainbow Serpent\1997 - Mosaique (AM971197)\06. Rainbow Serpent - In High Spirit.wav

Peak level 68.6 %
Extraction speed 8.9 X
Track quality 100.0 %
Test CRC D89DB2C5
Copy CRC D89DB2C5
Accurately ripped (confidence 4) [55C20301] (AR v2)
Copy OK

Track 7

Filename I:\Rainbow Serpent\1997 - Mosaique (AM971197)\07. Rainbow Serpent - Virtual Emotion.wav

Peak level 73.4 %
Extraction speed 10.1 X
Track quality 100.0 %
Test CRC DAC5D248
Copy CRC DAC5D248
Accurately ripped (confidence 4) [326D05E9] (AR v2)
Copy OK

Track 8

Filename I:\Rainbow Serpent\1997 - Mosaique (AM971197)\08. Rainbow Serpent - The Universal Play.wav

Peak level 50.2 %
Extraction speed 9.4 X
Track quality 100.0 %
Test CRC 301D8914
Copy CRC 301D8914
Accurately ripped (confidence 4) [9E37107A] (AR v2)
Copy OK

Track 9

Filename I:\Rainbow Serpent\1997 - Mosaique (AM971197)\09. Rainbow Serpent - Mental Mosaique.wav

Peak level 53.8 %
Extraction speed 9.4 X
Track quality 99.9 %
Test CRC B2C94A56
Copy CRC B2C94A56
Accurately ripped (confidence 4) [2C4DB105] (AR v2)
Copy OK


All tracks accurately ripped

No errors occurred

End of status report

–– CUETools DB Plugin V2.1.6

[CTDB TOCID: 0Eur_bzCnp56h_o4AFpWz4MXWRo-] found
Submit result: 0Eur_bzCnp56h_o4AFpWz4MXWRo- has been confirmed
Track | CTDB Status
1 | (5/5) Accurately ripped
2 | (5/5) Accurately ripped
3 | (5/5) Accurately ripped
4 | (5/5) Accurately ripped
5 | (5/5) Accurately ripped
6 | (5/5) Accurately ripped
7 | (5/5) Accurately ripped
8 | (5/5) Accurately ripped
9 | (5/5) Accurately ripped


==== Log checksum 9B100B8B6187B90C1852B536FB7BB31FAEE292FB879D4443B0EE9306E3E012A3 ====

[CUETools log; Date: 31.07.2020 23:15:19; Version: 2.1.4]
[CTDB TOCID: 0Eur_bzCnp56h_o4AFpWz4MXWRo-] found.
Track | CTDB Status
1 | (12/12) Accurately ripped
2 | (12/12) Accurately ripped
3 | (12/12) Accurately ripped
4 | (12/12) Accurately ripped
5 | (12/12) Accurately ripped
6 | (12/12) Accurately ripped
7 | (12/12) Accurately ripped
8 | (12/12) Accurately ripped
9 | (12/12) Accurately ripped
[AccurateRip ID: 001b6238-00c49b2a-6b113409] found.
Track [ CRC | V2 ] Status
01 [12aaeb6c|d7c05ad2] (4+5/9) Accurately ripped
02 [82881f80|9015c96a] (4+5/9) Accurately ripped
03 [65b69eb7|e5206332] (4+5/9) Accurately ripped
04 [e66a2a27|8e40a35a] (4+5/9) Accurately ripped
05 [2306d08f|9087dad3] (4+5/9) Accurately ripped
06 [787d798a|55c20301] (4+5/9) Accurately ripped
07 [dfae8c15|326d05e9] (4+5/9) Accurately ripped
08 [d7462896|9e37107a] (4+5/9) Accurately ripped
09 [f156a313|2c4db105] (4+5/9) Accurately ripped

Track Peak [ CRC32 ] [W/O NULL] [ LOG ]
– 73,4 [6B072C72] [714C7EDF]
01 57,6 [962923D2] [123A89E9] CRC32
02 62,1 [97D80726] [E4E4C94B] CRC32
03 60,8 [8B34E7C2] [C43ADED3] CRC32
04 64,6 [3605DCF8] [72F89548] CRC32
05 61,2 [341AA226] [AAAB88D5] CRC32
06 68,6 [D89DB2C5] [66B89BF0] CRC32
07 73,4 [DAC5D248] [63A6ED4C] CRC32
08 50,2 [301D8914] [8FF9BFE2] CRC32
09 53,8 [B2C94A56] [E4FEF504] CRC32

Rainbow Serpent - 9 Albums (1995-2010) (Re-up)

Rainbow Serpent - SilverBlue (1999)
EAC Rip | FLAC (tracks+.cue+log) - 344 MB | MP3 CBR 320 kbps (LAME 3.93) - 145 MB | Covers - 42 MB
Genre: Progressive Electronic, Berlin School | RAR 3% Rec. | Label: Self-released

Tracklist:
01. Skydance
02. In Trance
03. Lightstorm
04. Visible Dreams
05. Entrance
06. Raibow Runner
07. Back to the Rocks
08. Living Surreal Strings

Total time: 01:01:50

Exact Audio Copy V1.0 beta 3 from 29. August 2011

EAC extraction logfile from 6. December 2015, 10:45

Rainbow Serpent / SilverBlue

Used drive : PIONEER BD-RW BDR-S09 Adapter: 1 ID: 0

Read mode : Secure
Utilize accurate stream : Yes
Defeat audio cache : Yes
Make use of C2 pointers : No

Read offset correction : 667
Overread into Lead-In and Lead-Out : No
Fill up missing offset samples with silence : Yes
Delete leading and trailing silent blocks : No
Null samples used in CRC calculations : Yes
Used interface : Native Win32 interface for Win NT & 2000
Gap handling : Appended to previous track

Used output format : User Defined Encoder
Selected bitrate : 1024 kBit/s
Quality : High
Add ID3 tag : No
Command line compressor : C:\Program Files (x86)\Exact Audio Copy\Flac\flac.exe
Additional command line options : -8 -V -T "COMMENT=ripped by DrStandBy special for new-team.org" -T "ARTIST=%artist%" -T "TITLE=%title%" -T "ALBUM=%albumtitle%" -T "DATE=%year%" -T "TRACKNUMBER=%tracknr%" -T "GENRE=%genre%" %source%


TOC of the extracted CD

Track | Start | Length | Start sector | End sector
––––––––––––––––––––––––––––-
1 | 0:00.00 | 11:06.02 | 0 | 49951
2 | 11:06.02 | 14:07.73 | 49952 | 113549
3 | 25:14.00 | 5:20.00 | 113550 | 137549
4 | 30:34.00 | 5:38.01 | 137550 | 162900
5 | 36:12.01 | 11:50.00 | 162901 | 216150
6 | 48:02.01 | 5:43.74 | 216151 | 241949
7 | 53:46.00 | 4:19.01 | 241950 | 261375
8 | 58:05.01 | 3:45.10 | 261376 | 278260


Track 1

Filename I:\Rainbow Serpent\1999 - SilverBlue (none)\01. Rainbow Serpent - Skydance.wav

Pre-gap length 0:00:02.00

Peak level 74.5 %
Extraction speed 5.7 X
Track quality 100.0 %
Test CRC 3D8A43D4
Copy CRC 3D8A43D4
Accurately ripped (confidence 1) [0FDB5439] (AR v2)
Copy OK

Track 2

Filename I:\Rainbow Serpent\1999 - SilverBlue (none)\02. Rainbow Serpent - In Trance.wav

Peak level 76.7 %
Extraction speed 6.8 X
Track quality 100.0 %
Test CRC EE0429A7
Copy CRC EE0429A7
Accurately ripped (confidence 1) [375323C9] (AR v2)
Copy OK

Track 3

Filename I:\Rainbow Serpent\1999 - SilverBlue (none)\03. Rainbow Serpent - Lightstorm.wav

Peak level 75.3 %
Extraction speed 6.6 X
Track quality 99.9 %
Test CRC C6940456
Copy CRC C6940456
Accurately ripped (confidence 1) [0D71F90F] (AR v2)
Copy OK

Track 4

Filename I:\Rainbow Serpent\1999 - SilverBlue (none)\04. Rainbow Serpent - Visible Dreams.wav

Peak level 71.5 %
Extraction speed 7.8 X
Track quality 100.0 %
Test CRC 8D7A57AD
Copy CRC 8D7A57AD
Accurately ripped (confidence 1) [79838B52] (AR v2)
Copy OK

Track 5

Filename I:\Rainbow Serpent\1999 - SilverBlue (none)\05. Rainbow Serpent - Entrance.wav

Peak level 76.6 %
Extraction speed 8.5 X
Track quality 100.0 %
Test CRC 099B15DA
Copy CRC 099B15DA
Accurately ripped (confidence 1) [7ECB27A3] (AR v2)
Copy OK

Track 6

Filename I:\Rainbow Serpent\1999 - SilverBlue (none)\06. Rainbow Serpent - Raibow Runner.wav

Peak level 69.7 %
Extraction speed 8.4 X
Track quality 100.0 %
Test CRC AEE576D4
Copy CRC AEE576D4
Accurately ripped (confidence 1) [D00337D0] (AR v2)
Copy OK

Track 7

Filename I:\Rainbow Serpent\1999 - SilverBlue (none)\07. Rainbow Serpent - Back to the Rocks.wav

Peak level 72.1 %
Extraction speed 8.5 X
Track quality 100.0 %
Test CRC 3E8EEF92
Copy CRC 3E8EEF92
Accurately ripped (confidence 1) [666FC5D6] (AR v2)
Copy OK

Track 8

Filename I:\Rainbow Serpent\1999 - SilverBlue (none)\08. Rainbow Serpent - Living Surreal Strings.wav

Peak level 83.0 %
Extraction speed 7.1 X
Track quality 99.9 %
Test CRC BB2FD94E
Copy CRC BB2FD94E
Accurately ripped (confidence 1) [1023B030] (AR v2)
Copy OK


All tracks accurately ripped

No errors occurred

End of status report

–– CUETools DB Plugin V2.1.6

[CTDB TOCID: ZW2YIkbGDggCqYWOCkLhKMGdeoQ-] found
Submit result: ZW2YIkbGDggCqYWOCkLhKMGdeoQ- has been uploaded
Track | CTDB Status
1 | (0/1) No match
2 | (0/1) No match
3 | (0/1) No match
4 | (0/1) No match
5 | (0/1) No match
6 | (0/1) No match
7 | (0/1) No match
8 | (0/1) No match


==== Log checksum D06FE963C889864711E6F9885449D7C55756FBD28DB284A3B52B8FE063178C4F ====

[CUETools log; Date: 31.07.2020 22:54:29; Version: 2.1.4]
[CTDB TOCID: ZW2YIkbGDggCqYWOCkLhKMGdeoQ-] found.
Track | CTDB Status
1 | (1/3) Accurately ripped
2 | (1/3) Accurately ripped
3 | (2/3) Accurately ripped
4 | (2/3) Accurately ripped
5 | (1/3) Accurately ripped
6 | (1/3) Accurately ripped
7 | (1/3) Accurately ripped
8 | (1/3) Accurately ripped
[AccurateRip ID: 00164dbb-008f4c45-7e0e7e08] found.
Track [ CRC | V2 ] Status
01 [74dbf2e3|0fdb5439] (0+2/2) Accurately ripped
02 [c7a70c9b|375323c9] (0+2/2) Accurately ripped
03 [83d15b92|0d71f90f] (0+2/2) Accurately ripped
04 [ece2a28c|79838b52] (0+2/2) Accurately ripped
05 [49843e40|7ecb27a3] (0+2/2) Accurately ripped
06 [394c13b8|d00337d0] (0+2/2) Accurately ripped
07 [1a8e358a|666fc5d6] (0+2/2) Accurately ripped
08 [75341baf|1023b030] (0+2/2) Accurately ripped

Track Peak [ CRC32 ] [W/O NULL] [ LOG ]
– 83,0 [A1473E66] [F4CCDB47]
01 74,5 [3D8A43D4] [53525B44] CRC32
02 76,7 [EE0429A7] [72733812] CRC32
03 75,3 [C6940456] [A7DF134C] CRC32
04 71,5 [8D7A57AD] [4925BEE8] CRC32
05 76,6 [099B15DA] [29EFC5E2] CRC32
06 69,7 [AEE576D4] [4011C60D] CRC32
07 72,1 [3E8EEF92] [33327868] CRC32
08 83,0 [BB2FD94E] [DD70B4B6] CRC32

Rainbow Serpent - 9 Albums (1995-2010) (Re-up)

Rainbow Serpent - Cutted Scenes (1999)
EAC Rip | FLAC (tracks+.cue+log) - 348 MB | MP3 CBR 320 kbps (LAME 3.93) - 134 MB | Covers - 23 MB
Genre: Progressive Electronic, Berlin School | RAR 3% Rec. | Label: Invisible Shadows (IS 990400)

Tracklist:
01. Believe
02. Imagination Fire
03. Silent Running
04. Exploring the Mars
05. From Darkroom to Digital
06. Exploring the Mars Part 2
07. Celtic Dance

Total time: 56:50

Exact Audio Copy V1.0 beta 3 from 29. August 2011

EAC extraction logfile from 6. December 2015, 11:23

Rainbow Serpent / Cutted Scenes

Used drive : PIONEER BD-RW BDR-S09 Adapter: 1 ID: 0

Read mode : Secure
Utilize accurate stream : Yes
Defeat audio cache : Yes
Make use of C2 pointers : No

Read offset correction : 667
Overread into Lead-In and Lead-Out : No
Fill up missing offset samples with silence : Yes
Delete leading and trailing silent blocks : No
Null samples used in CRC calculations : Yes
Used interface : Native Win32 interface for Win NT & 2000
Gap handling : Appended to previous track

Used output format : User Defined Encoder
Selected bitrate : 1024 kBit/s
Quality : High
Add ID3 tag : No
Command line compressor : C:\Program Files (x86)\Exact Audio Copy\Flac\flac.exe
Additional command line options : -8 -V -T "COMMENT=ripped by DrStandBy special for new-team.org" -T "ARTIST=%artist%" -T "TITLE=%title%" -T "ALBUM=%albumtitle%" -T "DATE=%year%" -T "TRACKNUMBER=%tracknr%" -T "GENRE=%genre%" %source%


TOC of the extracted CD

Track | Start | Length | Start sector | End sector
––––––––––––––––––––––––––––-
1 | 0:00.00 | 9:18.00 | 0 | 41849
2 | 9:18.00 | 5:30.00 | 41850 | 66599
3 | 14:48.00 | 13:26.00 | 66600 | 127049
4 | 28:14.00 | 11:18.00 | 127050 | 177899
5 | 39:32.00 | 4:16.01 | 177900 | 197100
6 | 43:48.01 | 8:19.74 | 197101 | 234599
7 | 52:08.00 | 4:42.00 | 234600 | 255749


Track 1

Filename I:\Rainbow Serpent\1999 - Cutted Scenes (IS 990400)\01. Rainbow Serpent - Believe.wav

Pre-gap length 0:00:02.00

Peak level 98.5 %
Extraction speed 5.5 X
Track quality 100.0 %
Test CRC 603BC631
Copy CRC 603BC631
Accurately ripped (confidence 1) [F81DDDFC] (AR v2)
Copy OK

Track 2

Filename I:\Rainbow Serpent\1999 - Cutted Scenes (IS 990400)\02. Rainbow Serpent - Imagination Fire.wav

Peak level 98.1 %
Extraction speed 5.4 X
Track quality 99.9 %
Test CRC 54DCD428
Copy CRC 54DCD428
Accurately ripped (confidence 1) [635B4CEA] (AR v2)
Copy OK

Track 3

Filename I:\Rainbow Serpent\1999 - Cutted Scenes (IS 990400)\03. Rainbow Serpent - Silent Running.wav

Peak level 94.8 %
Extraction speed 6.8 X
Track quality 100.0 %
Test CRC 675CFDA8
Copy CRC 675CFDA8
Accurately ripped (confidence 1) [0F0C116D] (AR v2)
Copy OK

Track 4

Filename I:\Rainbow Serpent\1999 - Cutted Scenes (IS 990400)\04. Rainbow Serpent - Exploring the Mars.wav

Peak level 98.0 %
Extraction speed 7.8 X
Track quality 100.0 %
Test CRC 1F1EB628
Copy CRC 1F1EB628
Accurately ripped (confidence 1) [C05274B9] (AR v2)
Copy OK

Track 5

Filename I:\Rainbow Serpent\1999 - Cutted Scenes (IS 990400)\05. Rainbow Serpent - From Darkroom to Digital.wav

Peak level 94.8 %
Extraction speed 7.3 X
Track quality 100.0 %
Test CRC AB1C610F
Copy CRC AB1C610F
Accurately ripped (confidence 1) [7AA11BB8] (AR v2)
Copy OK

Track 6

Filename I:\Rainbow Serpent\1999 - Cutted Scenes (IS 990400)\06. Rainbow Serpent - Exploring the Mars Part 2.wav

Peak level 97.8 %
Extraction speed 7.7 X
Track quality 99.9 %
Test CRC B4B8B95A
Copy CRC B4B8B95A
Accurately ripped (confidence 1) [500DE9A6] (AR v2)
Copy OK

Track 7

Filename I:\Rainbow Serpent\1999 - Cutted Scenes (IS 990400)\07. Rainbow Serpent - Celtic Dance.wav

Peak level 94.8 %
Extraction speed 8.4 X
Track quality 100.0 %
Test CRC AF339A12
Copy CRC AF339A12
Accurately ripped (confidence 1) [FC7A88C1] (AR v2)
Copy OK


All tracks accurately ripped

No errors occurred

End of status report

–– CUETools DB Plugin V2.1.6

[CTDB TOCID: TzSUQfLLYwpIupXpTVoxrPyx2qc-] found
Submit result: TzSUQfLLYwpIupXpTVoxrPyx2qc- has been uploaded
Track | CTDB Status
1 | (0/1) No match
2 | (1/1) Accurately ripped
3 | (1/1) Accurately ripped
4 | (1/1) Accurately ripped
5 | (1/1) Accurately ripped
6 | (0/1) No match
7 | (0/1) No match


==== Log checksum 2052FF2952A7179EF6B2F8111B68EAE736E19EDF9145D0AA9A1E6EF667F8ED4A ====

[CUETools log; Date: 31.07.2020 23:15:45; Version: 2.1.4]
[CTDB TOCID: TzSUQfLLYwpIupXpTVoxrPyx2qc-] found.
Track | CTDB Status
1 | (1/2) Accurately ripped
2 | (2/2) Accurately ripped
3 | (2/2) Accurately ripped
4 | (2/2) Accurately ripped
5 | (2/2) Accurately ripped
6 | (1/2) Accurately ripped
7 | (1/2) Accurately ripped
[AccurateRip ID: 0010cc33-0063f9c7-560d5207] found.
Track [ CRC | V2 ] Status
01 [7211c9fb|f81dddfc] (0+2/2) Accurately ripped
02 [58abf53f|635b4cea] (0+2/2) Accurately ripped
03 [f8967c2b|0f0c116d] (0+2/2) Accurately ripped
04 [b2463ff7|c05274b9] (0+2/2) Accurately ripped
05 [691c0b52|7aa11bb8] (0+2/2) Accurately ripped
06 [7fee04a1|500de9a6] (0+2/2) Accurately ripped
07 [f403da63|fc7a88c1] (0+2/2) Accurately ripped

Track Peak [ CRC32 ] [W/O NULL] [ LOG ]
– 98,5 [EE837904] [F52E0A38]
01 98,5 [603BC631] [34C9DEAB] CRC32
02 98,1 [54DCD428] [C7EAC353] CRC32
03 94,8 [675CFDA8] [8E8B449A] CRC32
04 98,0 [1F1EB628] [61CCF25B] CRC32
05 94,8 [AB1C610F] [615DDE1D] CRC32
06 97,8 [B4B8B95A] [A6A9E88F] CRC32
07 94,8 [AF339A12] [9B9EFAC1] CRC32

Rainbow Serpent - 9 Albums (1995-2010) (Re-up)

Rainbow Serpent - Pulse (2000)
EAC Rip | FLAC (tracks+.cue+log) - 433 MB | MP3 CBR 320 kbps (LAME 3.93) - 184 MB | Covers - 71 MB
Genre: Progressive Electronic, Berlin School | RAR 3% Rec. | Label: Manikin Records (MRCD 7044)

Tracklist:
01. Pulse Trancemission
02. Part 1
03. Part 2
04. Part 3
05. Part 4
06. Alien Nature
07. Part 5

Total time: 01:18:24

Exact Audio Copy V1.0 beta 3 from 29. August 2011

EAC extraction logfile from 5. December 2015, 23:34

Rainbow Serpent / Pulse

Used drive : PIONEER BD-RW BDR-S09 Adapter: 1 ID: 0

Read mode : Secure
Utilize accurate stream : Yes
Defeat audio cache : Yes
Make use of C2 pointers : No

Read offset correction : 667
Overread into Lead-In and Lead-Out : No
Fill up missing offset samples with silence : Yes
Delete leading and trailing silent blocks : No
Null samples used in CRC calculations : Yes
Used interface : Native Win32 interface for Win NT & 2000
Gap handling : Appended to previous track

Used output format : User Defined Encoder
Selected bitrate : 1024 kBit/s
Quality : High
Add ID3 tag : No
Command line compressor : C:\Program Files (x86)\Exact Audio Copy\Flac\flac.exe
Additional command line options : -8 -V -T "COMMENT=ripped by DrStandBy special for new-team.org" -T "ARTIST=%artist%" -T "TITLE=%title%" -T "ALBUM=%albumtitle%" -T "DATE=%year%" -T "TRACKNUMBER=%tracknr%" -T "GENRE=%genre%" %source%


TOC of the extracted CD

Track | Start | Length | Start sector | End sector
––––––––––––––––––––––––––––-
1 | 0:00.00 | 15:12.48 | 0 | 68447
2 | 15:12.48 | 13:25.72 | 68448 | 128894
3 | 28:38.45 | 10:45.74 | 128895 | 177343
4 | 39:24.44 | 10:28.07 | 177344 | 224450
5 | 49:52.51 | 4:17.66 | 224451 | 243791
6 | 54:10.42 | 14:23.07 | 243792 | 308523
7 | 68:33.49 | 9:50.25 | 308524 | 352798


Track 1

Filename I:\Rainbow Serpent\2000 - Pulse (MRCD7044)\01. Rainbow Serpent - Pulse Trancemission.wav

Pre-gap length 0:00:02.00

Peak level 89.7 %
Extraction speed 6.0 X
Track quality 99.9 %
Test CRC 2B74508C
Copy CRC 2B74508C
Accurately ripped (confidence 6) [2F7039A8] (AR v2)
Copy OK

Track 2

Filename I:\Rainbow Serpent\2000 - Pulse (MRCD7044)\02. Rainbow Serpent - Part 1.wav

Peak level 92.7 %
Extraction speed 7.6 X
Track quality 100.0 %
Test CRC 04A47693
Copy CRC 04A47693
Accurately ripped (confidence 6) [4CA4A683] (AR v2)
Copy OK

Track 3

Filename I:\Rainbow Serpent\2000 - Pulse (MRCD7044)\03. Rainbow Serpent - Part 2.wav

Peak level 82.6 %
Extraction speed 8.4 X
Track quality 100.0 %
Test CRC 093A8487
Copy CRC 093A8487
Accurately ripped (confidence 6) [BCDE948B] (AR v2)
Copy OK

Track 4

Filename I:\Rainbow Serpent\2000 - Pulse (MRCD7044)\04. Rainbow Serpent - Part 3.wav

Peak level 82.1 %
Extraction speed 9.0 X
Track quality 100.0 %
Test CRC 817A7F8E
Copy CRC 817A7F8E
Accurately ripped (confidence 6) [0B21D36E] (AR v2)
Copy OK

Track 5

Filename I:\Rainbow Serpent\2000 - Pulse (MRCD7044)\05. Rainbow Serpent - Part 4.wav

Peak level 59.0 %
Extraction speed 8.7 X
Track quality 100.0 %
Test CRC 431EAA9D
Copy CRC 431EAA9D
Accurately ripped (confidence 6) [F417571E] (AR v2)
Copy OK

Track 6

Filename I:\Rainbow Serpent\2000 - Pulse (MRCD7044)\06. Rainbow Serpent - Alien Nature.wav

Peak level 86.2 %
Extraction speed 10.1 X
Track quality 100.0 %
Test CRC 1A314B89
Copy CRC 1A314B89
Accurately ripped (confidence 6) [466ACB20] (AR v2)
Copy OK

Track 7

Filename I:\Rainbow Serpent\2000 - Pulse (MRCD7044)\07. Rainbow Serpent - Part 5.wav

Peak level 100.0 %
Extraction speed 9.9 X
Track quality 99.9 %
Test CRC 33DF8019
Copy CRC 33DF8019
Accurately ripped (confidence 6) [A0ACEA90] (AR v2)
Copy OK


All tracks accurately ripped

No errors occurred

End of status report

–– CUETools DB Plugin V2.1.6

[CTDB TOCID: BIlO8.zIyW7JJ35ss9GvZ.uqKFg-] found
Submit result: BIlO8.zIyW7JJ35ss9GvZ.uqKFg- has been confirmed
Track | CTDB Status
1 | (2/2) Accurately ripped
2 | (2/2) Accurately ripped
3 | (2/2) Accurately ripped
4 | (2/2) Accurately ripped
5 | (2/2) Accurately ripped
6 | (2/2) Accurately ripped
7 | (2/2) Accurately ripped


==== Log checksum 9C2FF71E3C2B28DC212258D81AC7F86CEAFC17B6A8797531FCB25AF66F87E5F5 ====

[CUETools log; Date: 31.07.2020 23:16:14; Version: 2.1.4]
[CTDB TOCID: BIlO8.zIyW7JJ35ss9GvZ.uqKFg-] found.
Track | CTDB Status
1 | (6/6) Accurately ripped
2 | (6/6) Accurately ripped
3 | (6/6) Accurately ripped
4 | (6/6) Accurately ripped
5 | (6/6) Accurately ripped
6 | (6/6) Accurately ripped
7 | (6/6) Accurately ripped
[AccurateRip ID: 0016f3fd-00864719-5a125f07] found.
Track [ CRC | V2 ] Status
01 [38f37091|2f7039a8] (0+9/9) Accurately ripped
02 [18f60380|4ca4a683] (0+9/9) Accurately ripped
03 [68fe591f|bcde948b] (0+9/9) Accurately ripped
04 [777283f0|0b21d36e] (0+9/9) Accurately ripped
05 [e8a37f5c|f417571e] (0+9/9) Accurately ripped
06 [842aa4b3|466acb20] (0+9/9) Accurately ripped
07 [cce7e4dc|a0acea90] (0+9/9) Accurately ripped

Track Peak [ CRC32 ] [W/O NULL] [ LOG ]
– 100,0 [A3EB5A42] [F66B904A]
01 89,7 [2B74508C] [CD2DB361] CRC32
02 92,7 [04A47693] [21FC1C2E] CRC32
03 82,6 [093A8487] [240A6AC9] CRC32
04 82,1 [817A7F8E] [461219E1] CRC32
05 59,0 [431EAA9D] [65AFCBC2] CRC32
06 86,2 [1A314B89] [90C2B86E] CRC32
07 100,0 [33DF8019] [08AEF1CC] CRC32

Rainbow Serpent - 9 Albums (1995-2010) (Re-up)

Rainbow Serpent - The 8th Nerve (2005)
EAC Rip | FLAC (tracks+.cue+log) - 450 MB | MP3 CBR 320 kbps (LAME 3.93) - 185 MB | Covers - 81 MB
Genre: Progressive Electronic, Berlin School | RAR 3% Rec. | Label: Manikin Records (MRCD 7074)

Tracklist:
01. Audioframe
02. Mindmachine
03. Radiotrip
04. Winterlandschaft
05. N-Tropical
06. Edge of Reality
07. Third Ear
08. Planet Audio
09. Retropolis
10. Pibgorn
11. See - Not Have
12. Noosphere

Total time: 01:18:45

Exact Audio Copy V1.0 beta 3 from 29. August 2011

EAC extraction logfile from 6. December 2015, 11:54

Rainbow Serpent / The 8th Nerve

Used drive : PIONEER BD-RW BDR-S09 Adapter: 1 ID: 0

Read mode : Secure
Utilize accurate stream : Yes
Defeat audio cache : Yes
Make use of C2 pointers : No

Read offset correction : 667
Overread into Lead-In and Lead-Out : No
Fill up missing offset samples with silence : Yes
Delete leading and trailing silent blocks : No
Null samples used in CRC calculations : Yes
Used interface : Native Win32 interface for Win NT & 2000
Gap handling : Appended to previous track

Used output format : User Defined Encoder
Selected bitrate : 1024 kBit/s
Quality : High
Add ID3 tag : No
Command line compressor : C:\Program Files (x86)\Exact Audio Copy\Flac\flac.exe
Additional command line options : -8 -V -T "COMMENT=ripped by DrStandBy special for new-team.org" -T "ARTIST=%artist%" -T "TITLE=%title%" -T "ALBUM=%albumtitle%" -T "DATE=%year%" -T "TRACKNUMBER=%tracknr%" -T "GENRE=%genre%" %source%


TOC of the extracted CD

Track | Start | Length | Start sector | End sector
––––––––––––––––––––––––––––-
1 | 0:00.00 | 5:09.64 | 0 | 23238
2 | 5:09.64 | 11:21.48 | 23239 | 74361
3 | 16:31.37 | 7:21.17 | 74362 | 107453
4 | 23:52.54 | 7:32.68 | 107454 | 141421
5 | 31:25.47 | 3:49.54 | 141422 | 158650
6 | 35:15.26 | 6:48.50 | 158651 | 189300
7 | 42:04.01 | 5:00.20 | 189301 | 211820
8 | 47:04.21 | 9:19.11 | 211821 | 253756
9 | 56:23.32 | 5:23.07 | 253757 | 277988
10 | 61:46.39 | 5:08.55 | 277989 | 301143
11 | 66:55.19 | 7:33.29 | 301144 | 335147
12 | 74:28.48 | 4:16.17 | 335148 | 354364


Track 1

Filename I:\Rainbow Serpent\2005 - The 8th Nerve (MRCD 7074)\01. Rainbow Serpent - Audioframe.wav

Pre-gap length 0:00:02.00

Peak level 97.7 %
Extraction speed 5.3 X
Track quality 100.0 %
Test CRC D2953006
Copy CRC D2953006
Accurately ripped (confidence 6) [B6062170] (AR v2)
Copy OK

Track 2

Filename I:\Rainbow Serpent\2005 - The 8th Nerve (MRCD 7074)\02. Rainbow Serpent - Mindmachine.wav

Peak level 97.7 %
Extraction speed 6.5 X
Track quality 100.0 %
Test CRC 0926B8DC
Copy CRC 0926B8DC
Accurately ripped (confidence 6) [C25022DC] (AR v2)
Copy OK

Track 3

Filename I:\Rainbow Serpent\2005 - The 8th Nerve (MRCD 7074)\03. Rainbow Serpent - Radiotrip.wav

Peak level 97.7 %
Extraction speed 6.7 X
Track quality 99.9 %
Test CRC 0738EFB7
Copy CRC 0738EFB7
Accurately ripped (confidence 6) [7EBE7BB8] (AR v2)
Copy OK

Track 4

Filename I:\Rainbow Serpent\2005 - The 8th Nerve (MRCD 7074)\04. Rainbow Serpent - Winterlandschaft.wav

Peak level 97.7 %
Extraction speed 7.8 X
Track quality 100.0 %
Test CRC A40574DE
Copy CRC A40574DE
Accurately ripped (confidence 6) [2F8B21AA] (AR v2)
Copy OK

Track 5

Filename I:\Rainbow Serpent\2005 - The 8th Nerve (MRCD 7074)\05. Rainbow Serpent - N-Tropical.wav

Peak level 97.7 %
Extraction speed 6.8 X
Track quality 99.9 %
Test CRC 9F39746D
Copy CRC 9F39746D
Accurately ripped (confidence 6) [4792959B] (AR v2)
Copy OK

Track 6

Filename I:\Rainbow Serpent\2005 - The 8th Nerve (MRCD 7074)\06. Rainbow Serpent - Edge of Reality.wav

Peak level 97.7 %
Extraction speed 7.8 X
Track quality 99.9 %
Test CRC B595B0F8
Copy CRC B595B0F8
Accurately ripped (confidence 6) [5C73A372] (AR v2)
Copy OK

Track 7

Filename I:\Rainbow Serpent\2005 - The 8th Nerve (MRCD 7074)\07. Rainbow Serpent - Third Ear.wav

Peak level 97.7 %
Extraction speed 8.5 X
Track quality 100.0 %
Test CRC 782D0C5F
Copy CRC 782D0C5F
Accurately ripped (confidence 6) [2E5E584D] (AR v2)
Copy OK

Track 8

Filename I:\Rainbow Serpent\2005 - The 8th Nerve (MRCD 7074)\08. Rainbow Serpent - Planet Audio.wav

Peak level 97.7 %
Extraction speed 9.4 X
Track quality 100.0 %
Test CRC 7CBA1C3F
Copy CRC 7CBA1C3F
Accurately ripped (confidence 6) [841CECCE] (AR v2)
Copy OK

Track 9

Filename I:\Rainbow Serpent\2005 - The 8th Nerve (MRCD 7074)\09. Rainbow Serpent - Retropolis.wav

Peak level 97.7 %
Extraction speed 9.4 X
Track quality 100.0 %
Test CRC E3D32AA5
Copy CRC E3D32AA5
Accurately ripped (confidence 6) [DE0FE7B9] (AR v2)
Copy OK

Track 10

Filename I:\Rainbow Serpent\2005 - The 8th Nerve (MRCD 7074)\10. Rainbow Serpent - Pibgorn.wav

Peak level 97.6 %
Extraction speed 8.7 X
Track quality 99.9 %
Test CRC 6317D3C1
Copy CRC 6317D3C1
Accurately ripped (confidence 6) [7E3D805F] (AR v2)
Copy OK

Track 11

Filename I:\Rainbow Serpent\2005 - The 8th Nerve (MRCD 7074)\11. Rainbow Serpent - See - Not Have.wav

Peak level 97.7 %
Extraction speed 10.2 X
Track quality 100.0 %
Test CRC A73B540A
Copy CRC A73B540A
Accurately ripped (confidence 6) [3A2D2567] (AR v2)
Copy OK

Track 12

Filename I:\Rainbow Serpent\2005 - The 8th Nerve (MRCD 7074)\12. Rainbow Serpent - Noosphere.wav

Peak level 97.7 %
Extraction speed 10.0 X
Track quality 100.0 %
Test CRC 910DC181
Copy CRC 910DC181
Accurately ripped (confidence 6) [AB80470E] (AR v2)
Copy OK


All tracks accurately ripped

No errors occurred

End of status report

–– CUETools DB Plugin V2.1.6

[CTDB TOCID: JcYEeoD19o9WZ.C0J0Djsu_Lymw-] found
Submit result: JcYEeoD19o9WZ.C0J0Djsu_Lymw- has been confirmed
Track | CTDB Status
1 | (4/4) Accurately ripped
2 | (4/4) Accurately ripped
3 | (4/4) Accurately ripped
4 | (4/4) Accurately ripped
5 | (4/4) Accurately ripped
6 | (4/4) Accurately ripped
7 | (4/4) Accurately ripped
8 | (4/4) Accurately ripped
9 | (4/4) Accurately ripped
10 | (4/4) Accurately ripped
11 | (4/4) Accurately ripped
12 | (4/4) Accurately ripped


==== Log checksum ED067696954700430C5F0B782EBDAFD6A1C2181B5BBD454611036FAB7B70EB98 ====

[CUETools log; Date: 31.07.2020 23:16:44; Version: 2.1.4]
[CTDB TOCID: JcYEeoD19o9WZ.C0J0Djsu_Lymw-] found.
Track | CTDB Status
1 | (8/8) Accurately ripped
2 | (8/8) Accurately ripped
3 | (8/8) Accurately ripped
4 | (8/8) Accurately ripped
5 | (8/8) Accurately ripped
6 | (8/8) Accurately ripped
7 | (8/8) Accurately ripped
8 | (8/8) Accurately ripped
9 | (8/8) Accurately ripped
10 | (8/8) Accurately ripped
11 | (8/8) Accurately ripped
12 | (8/8) Accurately ripped
[AccurateRip ID: 00250eed-01558920-ac12740c] found.
Track [ CRC | V2 ] Status
01 [6a268f5f|b6062170] (0+8/8) Accurately ripped
02 [5700b24a|c25022dc] (0+8/8) Accurately ripped
03 [f4cfeb21|7ebe7bb8] (0+8/8) Accurately ripped
04 [bfd2a474|2f8b21aa] (0+8/8) Accurately ripped
05 [222498b0|4792959b] (0+8/8) Accurately ripped
06 [0f8d7d73|5c73a372] (0+8/8) Accurately ripped
07 [b4323bf6|2e5e584d] (0+8/8) Accurately ripped
08 [d7d7fc74|841cecce] (0+8/8) Accurately ripped
09 [878f5e73|de0fe7b9] (0+8/8) Accurately ripped
10 [59b4ce4c|7e3d805f] (0+8/8) Accurately ripped
11 [b7fd7e7f|3a2d2567] (0+8/8) Accurately ripped
12 [663685ae|ab80470e] (0+8/8) Accurately ripped

Track Peak [ CRC32 ] [W/O NULL] [ LOG ]
– 97,7 [FDB5DF19] [57A710D1]
01 97,7 [D2953006] [FC95E210] CRC32
02 97,7 [0926B8DC] [644713F5] CRC32
03 97,7 [0738EFB7] [5DF0317B] CRC32
04 97,7 [A40574DE] [B76E68AB] CRC32
05 97,7 [9F39746D] [9A7D3B41] CRC32
06 97,7 [B595B0F8] [C57C0F3B] CRC32
07 97,7 [782D0C5F] [4FE616DE] CRC32
08 97,7 [7CBA1C3F] [53FF8D33] CRC32
09 97,7 [E3D32AA5] [D08A7E99] CRC32
10 97,6 [6317D3C1] [F76CA604] CRC32
11 97,7 [A73B540A] [51915111] CRC32
12 97,7 [910DC181] [F6D7C5BA] CRC32

Rainbow Serpent - 9 Albums (1995-2010) (Re-up)

Rainbow Serpent - Live@Liphook 2007 (2008)
EAC Rip | FLAC (tracks+.cue+log) - 401 MB | MP3 CBR 320 kbps (LAME 3.93) - 167 MB | Covers - 66 MB
Genre: Progressive Electronic, Berlin School | RAR 3% Rec. | Label: Manikin Records (MRCD 7084)

Tracklist:
01. La Vent Dans La Plaine
02. Twelve Celli
03. Tangram
04. Calais
05. En Passant
06. Memories
07. Ruckblenden

Total time: 01:11:06

Exact Audio Copy V1.0 beta 3 from 29. August 2011

EAC extraction logfile from 6. December 2015, 16:54

Rainbow Serpent / Live@Liphook 2007

Used drive : PIONEER BD-RW BDR-S09 Adapter: 1 ID: 0

Read mode : Secure
Utilize accurate stream : Yes
Defeat audio cache : Yes
Make use of C2 pointers : No

Read offset correction : 667
Overread into Lead-In and Lead-Out : No
Fill up missing offset samples with silence : Yes
Delete leading and trailing silent blocks : No
Null samples used in CRC calculations : Yes
Used interface : Native Win32 interface for Win NT & 2000
Gap handling : Appended to previous track

Used output format : User Defined Encoder
Selected bitrate : 1024 kBit/s
Quality : High
Add ID3 tag : No
Command line compressor : C:\Program Files (x86)\Exact Audio Copy\Flac\flac.exe
Additional command line options : -8 -V -T "COMMENT=ripped by DrStandBy special for new-team.org" -T "ARTIST=%artist%" -T "TITLE=%title%" -T "ALBUM=%albumtitle%" -T "DATE=%year%" -T "TRACKNUMBER=%tracknr%" -T "GENRE=%genre%" %source%


TOC of the extracted CD

Track | Start | Length | Start sector | End sector
––––––––––––––––––––––––––––-
1 | 0:00.00 | 9:37.43 | 0 | 43317
2 | 9:37.43 | 12:35.49 | 43318 | 99991
3 | 22:13.17 | 10:03.73 | 99992 | 145289
4 | 32:17.15 | 4:35.36 | 145290 | 165950
5 | 36:52.51 | 19:20.05 | 165951 | 252955
6 | 56:12.56 | 4:58.02 | 252956 | 275307
7 | 61:10.58 | 9:55.40 | 275308 | 319972


Track 1

Filename I:\Rainbow Serpent\2008 - Live@Liphook 2007 (MRCD 7084)\01. Rainbow Serpent - La Vent Dans La Plaine.wav

Pre-gap length 0:00:02.00

Peak level 96.5 %
Extraction speed 5.5 X
Track quality 100.0 %
Test CRC CFC9A1B2
Copy CRC CFC9A1B2
Accurately ripped (confidence 5) [A9359830] (AR v2)
Copy OK

Track 2

Filename I:\Rainbow Serpent\2008 - Live@Liphook 2007 (MRCD 7084)\02. Rainbow Serpent - Twelve Celli.wav

Peak level 96.6 %
Extraction speed 6.5 X
Track quality 99.9 %
Test CRC AA96BE42
Copy CRC AA96BE42
Accurately ripped (confidence 5) [D0BA40DA] (AR v2)
Copy OK

Track 3

Filename I:\Rainbow Serpent\2008 - Live@Liphook 2007 (MRCD 7084)\03. Rainbow Serpent - Tangram.wav

Peak level 96.5 %
Extraction speed 7.7 X
Track quality 100.0 %
Test CRC AE62A906
Copy CRC AE62A906
Accurately ripped (confidence 5) [C92C531D] (AR v2)
Copy OK

Track 4

Filename I:\Rainbow Serpent\2008 - Live@Liphook 2007 (MRCD 7084)\04. Rainbow Serpent - Calais.wav

Peak level 96.5 %
Extraction speed 7.8 X
Track quality 100.0 %
Test CRC 3E1B6EBD
Copy CRC 3E1B6EBD
Accurately ripped (confidence 5) [5DFCEDBA] (AR v2)
Copy OK

Track 5

Filename I:\Rainbow Serpent\2008 - Live@Liphook 2007 (MRCD 7084)\05. Rainbow Serpent - En Passant.wav

Peak level 96.5 %
Extraction speed 9.1 X
Track quality 100.0 %
Test CRC 9E5817BD
Copy CRC 9E5817BD
Accurately ripped (confidence 5) [A15C275D] (AR v2)
Copy OK

Track 6

Filename I:\Rainbow Serpent\2008 - Live@Liphook 2007 (MRCD 7084)\06. Rainbow Serpent - Memories.wav

Peak level 96.5 %
Extraction speed 9.1 X
Track quality 100.0 %
Test CRC 27CA9DB4
Copy CRC 27CA9DB4
Accurately ripped (confidence 5) [E339AAF2] (AR v2)
Copy OK

Track 7

Filename I:\Rainbow Serpent\2008 - Live@Liphook 2007 (MRCD 7084)\07. Rainbow Serpent - Ruckblenden.wav

Peak level 100.0 %
Extraction speed 10.0 X
Track quality 100.0 %
Test CRC 2183907B
Copy CRC 2183907B
Accurately ripped (confidence 5) [59C475D6] (AR v2)
Copy OK


All tracks accurately ripped

No errors occurred

End of status report

–– CUETools DB Plugin V2.1.6

[CTDB TOCID: gbgEZH6UWCSRQCGjbhPxtiURMQA-] found
Submit result: gbgEZH6UWCSRQCGjbhPxtiURMQA- has been confirmed
Track | CTDB Status
1 | (2/2) Accurately ripped
2 | (2/2) Accurately ripped
3 | (2/2) Accurately ripped
4 | (2/2) Accurately ripped
5 | (2/2) Accurately ripped
6 | (2/2) Accurately ripped
7 | (2/2) Accurately ripped


==== Log checksum 5556CF185114FC9670C2793D6F15398DFA7A10BEF17E33C2047AAB0A0B18A3ED ====

[CUETools log; Date: 31.07.2020 23:17:47; Version: 2.1.4]
[CTDB TOCID: gbgEZH6UWCSRQCGjbhPxtiURMQA-] found.
Track | CTDB Status
1 | (7/7) Accurately ripped
2 | (7/7) Accurately ripped
3 | (7/7) Accurately ripped
4 | (7/7) Accurately ripped
5 | (7/7) Accurately ripped
6 | (7/7) Accurately ripped
7 | (7/7) Accurately ripped
[AccurateRip ID: 0013e104-00770d5c-6510aa07] found.
Track [ CRC | V2 ] Status
01 [6e9fe60a|a9359830] (0+6/6) Accurately ripped
02 [8163587c|d0ba40da] (0+6/6) Accurately ripped
03 [0b7abb53|c92c531d] (0+6/6) Accurately ripped
04 [4812ba0d|5dfcedba] (0+6/6) Accurately ripped
05 [41c74c86|a15c275d] (0+6/6) Accurately ripped
06 [a32d31f5|e339aaf2] (0+6/6) Accurately ripped
07 [3b04531a|59c475d6] (0+6/6) Accurately ripped

Track Peak [ CRC32 ] [W/O NULL] [ LOG ]
– 100,0 [9441AFA4] [9F0E5D8B]
01 96,5 [CFC9A1B2] [EFD9EF29] CRC32
02 96,5 [AA96BE42] [42D02761] CRC32
03 96,5 [AE62A906] [58AAE743] CRC32
04 96,5 [3E1B6EBD] [4E85149D] CRC32
05 96,5 [9E5817BD] [86888FD8] CRC32
06 96,5 [27CA9DB4] [A1479860] CRC32
07 100,0 [2183907B] [BA52886A] CRC32

Rainbow Serpent - 9 Albums (1995-2010) (Re-up)

Rainbow Serpent & Isgaard - Stranger (2010)
EAC Rip | FLAC (tracks+.cue+log) - 379 MB | MP3 CBR 320 kbps (LAME 3.93) - 157 MB | Covers - 232 MB
Genre: Progressive Electronic, Berlin School, New Age | RAR 3% Rec. | Label: Manikin Records (MRCD 7092)

Tracklist:
01. Intense
02. Elements 1
03. Elements 2
04. Leave & Love
05. Beyond New Worlds
06. Wide Open Spaces
07. Gateway
08. Arl
09. Rub Al-Chali
10. Sands Of Time
11. Memory Leaves
12. Stranger
13. Beautiful Child

Total time: 01:06:52

Exact Audio Copy V1.0 beta 3 from 29. August 2011

EAC extraction logfile from 6. December 2015, 17:40

Rainbow Serpent & Isgaard / Stranger

Used drive : PIONEER BD-RW BDR-S09 Adapter: 1 ID: 0

Read mode : Secure
Utilize accurate stream : Yes
Defeat audio cache : Yes
Make use of C2 pointers : No

Read offset correction : 667
Overread into Lead-In and Lead-Out : No
Fill up missing offset samples with silence : Yes
Delete leading and trailing silent blocks : No
Null samples used in CRC calculations : Yes
Used interface : Native Win32 interface for Win NT & 2000
Gap handling : Appended to previous track

Used output format : User Defined Encoder
Selected bitrate : 1024 kBit/s
Quality : High
Add ID3 tag : No
Command line compressor : C:\Program Files (x86)\Exact Audio Copy\Flac\flac.exe
Additional command line options : -8 -V -T "COMMENT=ripped by DrStandBy special for new-team.org" -T "ARTIST=%artist%" -T "TITLE=%title%" -T "ALBUM=%albumtitle%" -T "DATE=%year%" -T "TRACKNUMBER=%tracknr%" -T "GENRE=%genre%" %source%


TOC of the extracted CD

Track | Start | Length | Start sector | End sector
––––––––––––––––––––––––––––-
1 | 0:00.00 | 3:27.38 | 0 | 15562
2 | 3:27.38 | 4:59.47 | 15563 | 38034
3 | 8:27.10 | 4:21.13 | 38035 | 57622
4 | 12:48.23 | 4:51.70 | 57623 | 79517
5 | 17:40.18 | 6:46.11 | 79518 | 109978
6 | 24:26.29 | 5:26.11 | 109979 | 134439
7 | 29:52.40 | 6:38.21 | 134440 | 164310
8 | 36:30.61 | 4:30.64 | 164311 | 184624
9 | 41:01.50 | 4:35.24 | 184625 | 205273
10 | 45:36.74 | 5:47.28 | 205274 | 231326
11 | 51:24.27 | 7:02.06 | 231327 | 262982
12 | 58:26.33 | 4:15.03 | 262983 | 282110
13 | 62:41.36 | 4:10.13 | 282111 | 300873


Track 1

Filename I:\Rainbow Serpent\2010 - Stranger (with Isgaard) (MRCD 7092)\01. Rainbow Serpent & Isgaard - Intense.wav

Pre-gap length 0:00:02.00

Peak level 92.6 %
Extraction speed 3.9 X
Track quality 99.9 %
Test CRC 9F3AED55
Copy CRC 9F3AED55
Accurately ripped (confidence 6) [52E46949] (AR v2)
Copy OK

Track 2

Filename I:\Rainbow Serpent\2010 - Stranger (with Isgaard) (MRCD 7092)\02. Rainbow Serpent & Isgaard - Elements 1.wav

Peak level 98.8 %
Extraction speed 5.1 X
Track quality 100.0 %
Test CRC 464E4527
Copy CRC 464E4527
Accurately ripped (confidence 6) [6CFC584C] (AR v2)
Copy OK

Track 3

Filename I:\Rainbow Serpent\2010 - Stranger (with Isgaard) (MRCD 7092)\03. Rainbow Serpent & Isgaard - Elements 2.wav

Peak level 94.7 %
Extraction speed 5.6 X
Track quality 100.0 %
Test CRC 6EFE8F65
Copy CRC 6EFE8F65
Accurately ripped (confidence 6) [DB4F8C9B] (AR v2)
Copy OK

Track 4

Filename I:\Rainbow Serpent\2010 - Stranger (with Isgaard) (MRCD 7092)\04. Rainbow Serpent & Isgaard - Leave & Love.wav

Peak level 99.5 %
Extraction speed 6.0 X
Track quality 100.0 %
Test CRC 919E2442
Copy CRC 919E2442
Accurately ripped (confidence 6) [F3802F8F] (AR v2)
Copy OK

Track 5

Filename I:\Rainbow Serpent\2010 - Stranger (with Isgaard) (MRCD 7092)\05. Rainbow Serpent & Isgaard - Beyond New Worlds.wav

Peak level 96.9 %
Extraction speed 6.7 X
Track quality 100.0 %
Test CRC 6ACC50AD
Copy CRC 6ACC50AD
Accurately ripped (confidence 6) [BB21763F] (AR v2)
Copy OK

Track 6

Filename I:\Rainbow Serpent\2010 - Stranger (with Isgaard) (MRCD 7092)\06. Rainbow Serpent & Isgaard - Wide Open Spaces.wav

Peak level 97.5 %
Extraction speed 7.1 X
Track quality 100.0 %
Test CRC AC4BBF09
Copy CRC AC4BBF09
Accurately ripped (confidence 6) [EE5FF254] (AR v2)
Copy OK

Track 7

Filename I:\Rainbow Serpent\2010 - Stranger (with Isgaard) (MRCD 7092)\07. Rainbow Serpent & Isgaard - Gateway.wav

Peak level 96.5 %
Extraction speed 7.7 X
Track quality 100.0 %
Test CRC AF964700
Copy CRC AF964700
Accurately ripped (confidence 6) [46C17873] (AR v2)
Copy OK

Track 8

Filename I:\Rainbow Serpent\2010 - Stranger (with Isgaard) (MRCD 7092)\08. Rainbow Serpent & Isgaard - Arl.wav

Peak level 96.3 %
Extraction speed 7.7 X
Track quality 100.0 %
Test CRC 94586563
Copy CRC 94586563
Accurately ripped (confidence 6) [F2FDC823] (AR v2)
Copy OK

Track 9

Filename I:\Rainbow Serpent\2010 - Stranger (with Isgaard) (MRCD 7092)\09. Rainbow Serpent & Isgaard - Rub Al-Chali.wav

Peak level 99.2 %
Extraction speed 8.0 X
Track quality 100.0 %
Test CRC E0CE6BD0
Copy CRC E0CE6BD0
Accurately ripped (confidence 6) [82FC06A4] (AR v2)
Copy OK

Track 10

Filename I:\Rainbow Serpent\2010 - Stranger (with Isgaard) (MRCD 7092)\10. Rainbow Serpent & Isgaard - Sands Of Time.wav

Peak level 99.9 %
Extraction speed 8.4 X
Track quality 100.0 %
Test CRC FCA2F9A9
Copy CRC FCA2F9A9
Accurately ripped (confidence 6) [8A613486] (AR v2)
Copy OK

Track 11

Filename I:\Rainbow Serpent\2010 - Stranger (with Isgaard) (MRCD 7092)\11. Rainbow Serpent & Isgaard - Memory Leaves.wav

Peak level 96.5 %
Extraction speed 8.9 X
Track quality 100.0 %
Test CRC AEDD4C66
Copy CRC AEDD4C66
Accurately ripped (confidence 6) [449BA064] (AR v2)
Copy OK

Track 12

Filename I:\Rainbow Serpent\2010 - Stranger (with Isgaard) (MRCD 7092)\12. Rainbow Serpent & Isgaard - Stranger.wav

Peak level 95.4 %
Extraction speed 8.7 X
Track quality 100.0 %
Test CRC 93A0FEC2
Copy CRC 93A0FEC2
Accurately ripped (confidence 6) [7902294F] (AR v2)
Copy OK

Track 13

Filename I:\Rainbow Serpent\2010 - Stranger (with Isgaard) (MRCD 7092)\13. Rainbow Serpent & Isgaard - Beautiful Child.wav

Peak level 83.7 %
Extraction speed 8.9 X
Track quality 100.0 %
Test CRC F338B62C
Copy CRC F338B62C
Accurately ripped (confidence 6) [464029E4] (AR v2)
Copy OK


All tracks accurately ripped

No errors occurred

End of status report

–– CUETools DB Plugin V2.1.6

[CTDB TOCID: OwB9lXGbUsZHRwGfhqXQTUg0yio-] found
Submit result: OwB9lXGbUsZHRwGfhqXQTUg0yio- has been confirmed
Track | CTDB Status
1 | (5/5) Accurately ripped
2 | (5/5) Accurately ripped
3 | (5/5) Accurately ripped
4 | (5/5) Accurately ripped
5 | (5/5) Accurately ripped
6 | (5/5) Accurately ripped
7 | (5/5) Accurately ripped
8 | (5/5) Accurately ripped
9 | (5/5) Accurately ripped
10 | (5/5) Accurately ripped
11 | (5/5) Accurately ripped
12 | (5/5) Accurately ripped
13 | (5/5) Accurately ripped


==== Log checksum A636E7898309E2662872C45EABD5BB09CABE8D881D6DC5CF43DB5E868CDB9031 ====

[CUETools log; Date: 31.07.2020 23:17:14; Version: 2.1.4]
[CTDB TOCID: OwB9lXGbUsZHRwGfhqXQTUg0yio-] found.
Track | CTDB Status
1 | (15/15) Accurately ripped
2 | (15/15) Accurately ripped
3 | (15/15) Accurately ripped
4 | (15/15) Accurately ripped
5 | (15/15) Accurately ripped
6 | (15/15) Accurately ripped
7 | (15/15) Accurately ripped
8 | (15/15) Accurately ripped
9 | (15/15) Accurately ripped
10 | (15/15) Accurately ripped
11 | (15/15) Accurately ripped
12 | (15/15) Accurately ripped
13 | (15/15) Accurately ripped
[AccurateRip ID: 001f88e7-01402d99-bf0fab0d] found.
Track [ CRC | V2 ] Status
01 [dcd8abfb|52e46949] (04+08/12) Accurately ripped
02 [a6b546d5|6cfc584c] (04+08/12) Accurately ripped
03 [d8f7acfc|db4f8c9b] (04+08/12) Accurately ripped
04 [9c3d8052|f3802f8f] (04+08/12) Accurately ripped
05 [abda2a17|bb21763f] (04+08/12) Accurately ripped
06 [c049cf4b|ee5ff254] (04+08/12) Accurately ripped
07 [d3c0d71e|46c17873] (04+08/12) Accurately ripped
08 [4a642ab5|f2fdc823] (04+08/12) Accurately ripped
09 [e489b1e0|82fc06a4] (04+08/12) Accurately ripped
10 [8b2403b5|8a613486] (04+08/12) Accurately ripped
11 [4761a866|449ba064] (03+08/11) Accurately ripped
12 [05ba0967|7902294f] (03+08/11) Accurately ripped
13 [cd8943e9|464029e4] (03+08/11) Accurately ripped

Track Peak [ CRC32 ] [W/O NULL] [ LOG ]
– 99,9 [D82C2C1E] [2D11818A]
01 92,6 [9F3AED55] [547E8B4D] CRC32
02 98,8 [464E4527] [C9C2C214] CRC32
03 94,7 [6EFE8F65] [E52924AB] CRC32
04 99,5 [919E2442] [CC3526DE] CRC32
05 96,9 [6ACC50AD] [3E8054DF] CRC32
06 97,5 [AC4BBF09] [E6F3BA51] CRC32
07 96,5 [AF964700] [2496CCE0] CRC32
08 96,3 [94586563] [E728D274] CRC32
09 99,2 [E0CE6BD0] [1653F78D] CRC32
10 99,9 [FCA2F9A9] [184E491C] CRC32
11 96,5 [AEDD4C66] [37ADDD71] CRC32
12 95,4 [93A0FEC2] [D1D05756] CRC32
13 83,7 [F338B62C] [A252A0F9] CRC32

Thanks to DrStandBy

See also:
Rainbow Serpent / Fanger & Schönwälder - Elektrik Cowboys (2009)
Der Laborant - Kontakt (1998)