Subcategories

Ramsey Lewis – Mother Nature's Son (1968) [Reissue 2002]

Posted By: jclane
Ramsey Lewis – Mother Nature's Son (1968) [Reissue 2002]

Ramsey Lewis – Mother Nature's Son (1968) [Reissue 2002]
EAC Rip | FLAC Tracks + Cue + Log | Scans included | 259 MB
MP3 CBR @320 kbps (LAME 3.99) | Joint Stereo | 93 MB
Universal CLassics & Jazz. Japan | #: UCCC-9029 | Funk, Soul

This album was another brainchild of Marshall Chess' regime at Chess Records and, in a sense, is of a piece with Electric Mud by Muddy Waters – here, he's getting Ramsey Lewis, supported by an orchestra conducted and arranged by Charles Stepney, to do jazz improvisations on ten songs from The Beatles (aka The White Album). The results are a good deal more impressive and a lot less awkward than Electric Mud, Lewis and company being in far greater sympathy with this material than Muddy Waters was with Rolling Stones material. The orchestrations are occasionally a bit thick and treacly, but when Lewis jumps in and his playing takes flight, songs such as "Julia" soar off in all manner of unexpected and delightful directions, while "Back in the U.S.S.R.," divorced from its Chuck Berry sound, still serves as the basis for some funky improvisations by the pianist. The album probably didn't do much more for Lewis' career than Electric Mud did for Muddy Waters, but it's a better fit with Lewis and an enjoyable excursion. The cover art is also funny enough to almost make it worth the price of the LP, which was reissued in Japan in 2002 in 24-bit digital audio.

Track Listing

01. Mother Nature's Son - 4:54
02. Rocky Raccoon - 2:39
03. Julia - 4:19
04. Back In The USSR - 3:16
05. Dear Prudence - 4:54
06. Cry Baby Cry - 3:50
07. Good Night - 5:55
08. Everybody's Got Something To Hide Except Me And My Monkey - 3:14
09. Sexy Sadie - 2:44
10. Blackbird - 4:32


Exact Audio Copy V1.0 beta 3 from 29. August 2011

EAC extraction logfile from 9. October 2011, 12:56

Ramsey Lewis / Mother Nature's Son

Used drive : TSSTcorpCDDVDW TS-L633C Adapter: 2 ID: 0

Read mode : Secure
Utilize accurate stream : Yes
Defeat audio cache : Yes
Make use of C2 pointers : No

Read offset correction : 6
Overread into Lead-In and Lead-Out : No
Fill up missing offset samples with silence : Yes
Delete leading and trailing silent blocks : No
Null samples used in CRC calculations : Yes
Used interface : Native Win32 interface for Win NT & 2000
Gap handling : Appended to previous track

Used output format : User Defined Encoder
Selected bitrate : 128 kBit/s
Quality : High
Add ID3 tag : No
Command line compressor : C:\Program Files (x86)\Exact Audio Copy\Flac\flac.exe
Additional command line options : -8 -V -T "ARTIST=%artist%" -T "TITLE=%title%" -T "ALBUM=%albumtitle%" -T "DATE=%year%" -T "TRACKNUMBER=%tracknr%" -T "GENRE=%genre%" -T "PERFORMER=%albuminterpret%" -T "COMPOSER=%composer%" %haslyrics%–tag-from-file=LYRICS="%lyricsfile%"%haslyrics% -T "ALBUMARTIST=%albumartist%" -T "ALBUM ARTIST=%albumartist%" -T "DISCNUMBER=%cdnumber%" -T "TOTALDISCS=%totalcds%" -T "TOTALTRACKS=%numtracks%" -T "COMMENT=EAC V1.0 beta 2, Secure Mode, Test & Copy, AccurateRip, FLAC -8" %source% -o %dest%

TOC of the extracted CD

Track | Start | Length | Start sector | End sector
––––––––––––––––––––––––––––-
1 | 0:00.00 | 4:54.15 | 0 | 22064
2 | 4:54.15 | 2:38.40 | 22065 | 33954
3 | 7:32.55 | 4:19.27 | 33955 | 53406
4 | 11:52.07 | 3:15.48 | 53407 | 68079
5 | 15:07.55 | 4:54.32 | 68080 | 90161
6 | 20:02.12 | 3:50.13 | 90162 | 107424
7 | 23:52.25 | 5:54.70 | 107425 | 134044
8 | 29:47.20 | 3:13.65 | 134045 | 148584
9 | 33:01.10 | 2:44.02 | 148585 | 160886
10 | 35:45.12 | 4:31.63 | 160887 | 181274

Track 1

Filename G:\EACRIPS\Ramsey Lewis - Mother Nature's Son (1968) [FLAC]\01. Mother Nature's Son.wav

Pre-gap length 0:00:02.00

Peak level 83.5 %
Extraction speed 1.1 X
Track quality 100.0 %
Test CRC 8C6F0AC6
Copy CRC 8C6F0AC6
Accurately ripped (confidence 1) [1FB56842] (AR v1)
Copy OK

Track 2

Filename G:\EACRIPS\Ramsey Lewis - Mother Nature's Son (1968) [FLAC]\02. Rocky Raccoon.wav

Peak level 92.3 %
Extraction speed 1.1 X
Track quality 100.0 %
Test CRC 293F93A1
Copy CRC 293F93A1
Accurately ripped (confidence 1) [5C10E871] (AR v1)
Copy OK

Track 3

Filename G:\EACRIPS\Ramsey Lewis - Mother Nature's Son (1968) [FLAC]\03. Julia.wav

Peak level 86.8 %
Extraction speed 1.3 X
Track quality 100.0 %
Test CRC EDA37230
Copy CRC EDA37230
Accurately ripped (confidence 1) [4D5BE334] (AR v1)
Copy OK

Track 4

Filename G:\EACRIPS\Ramsey Lewis - Mother Nature's Son (1968) [FLAC]\04. Back in the USSR.wav

Peak level 90.2 %
Extraction speed 1.4 X
Track quality 100.0 %
Test CRC 8FC614B9
Copy CRC 8FC614B9
Accurately ripped (confidence 1) [DBCCAF7F] (AR v1)
Copy OK

Track 5

Filename G:\EACRIPS\Ramsey Lewis - Mother Nature's Son (1968) [FLAC]\05. Dear Prudence.wav

Peak level 86.5 %
Extraction speed 1.5 X
Track quality 100.0 %
Test CRC C8E49686
Copy CRC C8E49686
Accurately ripped (confidence 1) [8627ACD5] (AR v1)
Copy OK

Track 6

Filename G:\EACRIPS\Ramsey Lewis - Mother Nature's Son (1968) [FLAC]\06. Cry Baby Cry.wav

Peak level 99.9 %
Extraction speed 1.6 X
Track quality 100.0 %
Test CRC B5FA0DE1
Copy CRC B5FA0DE1
Accurately ripped (confidence 1) [F2084CC4] (AR v1)
Copy OK

Track 7

Filename G:\EACRIPS\Ramsey Lewis - Mother Nature's Son (1968) [FLAC]\07. Good Night.wav

Peak level 79.5 %
Extraction speed 1.8 X
Track quality 100.0 %
Test CRC 087032AB
Copy CRC 087032AB
Accurately ripped (confidence 1) [3717C3E3] (AR v1)
Copy OK

Track 8

Filename G:\EACRIPS\Ramsey Lewis - Mother Nature's Son (1968) [FLAC]\08. Everybody's Got Something to Hide Except Me and My Monkey.wav

Peak level 99.9 %
Extraction speed 1.5 X
Track quality 99.9 %
Test CRC 98EEAFFD
Copy CRC 98EEAFFD
Accurately ripped (confidence 1) [47922EEC] (AR v1)
Copy OK

Track 9

Filename G:\EACRIPS\Ramsey Lewis - Mother Nature's Son (1968) [FLAC]\09. Sexy Sadie.wav

Peak level 97.4 %
Extraction speed 1.5 X
Track quality 99.9 %
Test CRC 02A31E9E
Copy CRC 02A31E9E
Accurately ripped (confidence 1) [C4334593] (AR v1)
Copy OK

Track 10

Filename G:\EACRIPS\Ramsey Lewis - Mother Nature's Son (1968) [FLAC]\10. Blackbird.wav

Peak level 92.8 %
Extraction speed 2.0 X
Track quality 100.0 %
Test CRC 83C598C6
Copy CRC 83C598C6
Accurately ripped (confidence 1) [B216DFBB] (AR v1)
Copy OK

All tracks accurately ripped

No errors occurred

End of status report

–– CUETools DB Plugin V2.1.3

[CTDB TOCID: 6fX05XJedvXqiukjYJGYOIcItQQ-] disk not present in database, Submit result: 6fX05XJedvXqiukjYJGYOIcItQQ- has been uploaded

==== Log checksum 86717262EC88B26D8FC1FCCA5373CCB588738EDC3169092967C1958ADA15965F ====


[CUETools log; Date: 05/06/2013 05:37:07 p.m.; Version: 2.1.4]
[AccurateRip ID: 000f41ce-007a2773-8d09710a] disk not present in database.

Track Peak [ CRC32 ] [W/O NULL] [ LOG ]
– 99.9 [74FFA4CF] [005A7B68]
01 83.5 [8C6F0AC6] [4D1BF13E] CRC32
02 92.3 [293F93A1] [342AE48A] CRC32
03 86.8 [EDA37230] [EE47842D] CRC32
04 90.2 [8FC614B9] [E350205A] CRC32
05 86.5 [C8E49686] [9C7E4990] CRC32
06 99.9 [B5FA0DE1] [B1EC0467] CRC32
07 79.5 [087032AB] [0D825C34] CRC32
08 99.9 [98EEAFFD] [083A3E87] CRC32
09 97.4 [02A31E9E] [D92EF54E] CRC32
10 92.8 [83C598C6] [C738AA1A] CRC32


Personnel

*Lennon/McCartney - Composer
*Ramsey Lewis - Primary Artist

Original Released: 1968
CD Released Date: 2002
Format: CD, Album
Length: 40:17


Ramsey Lewis – Mother Nature's Son (1968) [Reissue 2002]
Ramsey Lewis – Mother Nature's Son (1968) [Reissue 2002]

******************************************************

Many Thanks to papa1954

The files are interchangeable!

If you have any questions about this publication, please send me a private message.