Subcategories

Rare Earth: Collection (1969 - 1978) [Vinyl Rip 16/44 & mp3-320]

Posted By: v3122
Rare Earth: Collection (1969 - 1978) [Vinyl Rip 16/44 & mp3-320]

Rare Earth: Collection (1969 - 1978)
7 x Vinyl Rip 16/44 | Flac(Image + Cue) > 2017 Mb
MP3 CBR 320Kbps > 728 Mb | Artwork > 1435 Mb
Soul Rock, Funk Rock, Rhythm & Blues, Art Rock

Rare Earth is an American rock band affiliated with Motown's Rare Earth record label (named after the band), which prospered from 1970–1972. Although not the first white band signed to Motown, Rare Earth was the first big hit-making act signed by Motown that consisted only of white members. (None of the previously signed all-white acts The Rustix, The Dalton Boys, or The Underdogs had any hits.)…

~ wiki
Rare Earth: Collection (1969 - 1978) [Vinyl Rip 16/44 & mp3-320]


Rare Earth: Collection (1969 - 1978):

Rare Earth: Collection (1969 - 1978) [Vinyl Rip 16/44 & mp3-320]

Tracklist VNL01 - 1969 - Get Ready:
Rare Earth ‎– RS 507

A1 Magic Key
A2 Tobacco Road
A3 Feelin' Alright
A4 In Bed
A5 Train To Nowhere
B Get Ready

foobar2000 1.2.9 / Dynamic Range Meter 1.1.1
log date: 2017-11-27 13:22:30

––––––––––––––––––––––––––––––––––––––––
Analyzed: Rare Earth / Get Ready (Orig USA)
––––––––––––––––––––––––––––––––––––––––

DR Peak RMS Duration Track
––––––––––––––––––––––––––––––––––––––––
DR12 -0.39 dB -15.09 dB 3:56 01-Magic Key
DR13 -0.37 dB -16.43 dB 7:08 02-Tobacco Road
DR13 -0.31 dB -15.58 dB 5:00 03-Feelin' Alright
DR14 -0.41 dB -16.47 dB 3:01 04-In Bed
DR13 -0.95 dB -15.92 dB 3:23 05-Train To Nowhere
DR14 0.00 dB -16.14 dB 21:16 06-Get Ready
––––––––––––––––––––––––––––––––––––––––

Number of tracks: 6
Official DR value: DR13

Samplerate: 44100 Hz
Channels: 2
Bits per sample: 16
Bitrate: 891 kbps
Codec: FLAC
================================================================================



Rare Earth: Collection (1969 - 1978) [Vinyl Rip 16/44 & mp3-320]

Tracklist VNL02 - 1970 - Ecology:
Rare Earth ‎– RS 514

A1 Born To Wander
A2 Long Time Leavin'
A3 (I Know) I'm Losing You
B1 Satisfaction Guaranteed
B2 Nice Place To Visit
B3 No. 1 Man
B4 Eleanor Rigby

foobar2000 1.2.9 / Dynamic Range Meter 1.1.1
log date: 2017-11-27 13:22:09

––––––––––––––––––––––––––––––––––––––––
Analyzed: Rare Earth / Ecology (Orig USA)
––––––––––––––––––––––––––––––––––––––––

DR Peak RMS Duration Track
––––––––––––––––––––––––––––––––––––––––
DR13 -0.77 dB -16.46 dB 3:20 01-Born to Wander
DR12 0.00 dB -15.43 dB 4:47 02-Long Time Leavin'
DR13 -0.44 dB -16.13 dB 10:50 03-(I Know) I'm Losing You
DR13 -0.13 dB -15.30 dB 4:33 04-Satisfaction Guaranteed
DR13 -0.01 dB -14.82 dB 3:56 05-Nice Place To Visit
DR12 -0.07 dB -14.45 dB 4:48 06-No. 1 Man
DR12 -0.93 dB -16.17 dB 6:33 07-Eleanor Rigby
––––––––––––––––––––––––––––––––––––––––

Number of tracks: 7
Official DR value: DR12

Samplerate: 44100 Hz
Channels: 2
Bits per sample: 16
Bitrate: 886 kbps
Codec: FLAC
================================================================================



Rare Earth: Collection (1969 - 1978) [Vinyl Rip 16/44 & mp3-320]

Tracklist VNL03 - 1970 - One World:
Rare Earth ‎– RS 520

A1 What'd I Say
A2 If I Die
A3 The Seed
A4 I Just Want To Celebrate
B1 Someone To Love
B2 Any Man Can Be A Fool
B3 The Road
B4 Under God's Light

foobar2000 1.2.9 / Dynamic Range Meter 1.1.1
log date: 2017-11-27 13:22:47

––––––––––––––––––––––––––––––––––––––––
Analyzed: Rare Earth / One World (original USA)
––––––––––––––––––––––––––––––––––––––––

DR Peak RMS Duration Track
––––––––––––––––––––––––––––––––––––––––
DR11 -0.78 dB -14.81 dB 7:13 01-What'd I Say
DR12 -0.64 dB -15.01 dB 3:31 02-If I Die
DR12 -0.55 dB -14.47 dB 3:35 03-Seed
DR12 -0.89 dB -14.96 dB 3:39 04-I Just Want to Celebrate
DR11 -1.68 dB -14.88 dB 3:47 05-Someone To Love
DR14 -1.16 dB -17.01 dB 3:34 06-Any Man Can Be a Fool
DR12 -0.54 dB -15.32 dB 3:37 07-The Road
DR13 -0.66 dB -15.80 dB 4:54 08-Under God's Light
––––––––––––––––––––––––––––––––––––––––

Number of tracks: 8
Official DR value: DR12

Samplerate: 44100 Hz
Channels: 2
Bits per sample: 16
Bitrate: 929 kbps
Codec: FLAC
================================================================================



Rare Earth: Collection (1969 - 1978) [Vinyl Rip 16/44 & mp3-320]

Tracklist VNL04 - 1971 - Rare Earth In Concert:
Rare Earth ‎– R 534D

A1 I Just Want To Celebrate
A2 Hey, Big Brother
A3 Born To Wander
B Get Ready
C1 What'd I Say
C2 Thoughts
D1 (I Know) I'm Losing You
D2 Nice To Be With You

foobar2000 1.2.9 / Dynamic Range Meter 1.1.1
log date: 2017-11-27 13:24:52

––––––––––––––––––––––––––––––––––––––––
Analyzed: Rare Earth / In Concert (Original USA)
––––––––––––––––––––––––––––––––––––––––

DR Peak RMS Duration Track
––––––––––––––––––––––––––––––––––––––––
DR11 -0.55 dB -13.42 dB 4:49 01-I Just Want To Celebrate
DR11 -0.42 dB -14.15 dB 7:26 02-Hey Big Brother
DR11 -0.76 dB -14.01 dB 4:25 03-Born To Wander
DR14 -0.13 dB -16.56 dB 23:39 04-Get Ready
DR12 -0.81 dB -14.75 dB 6:35 05-What'd I Say
DR15 -0.51 dB -18.43 dB 10:57 06-Thoughts
DR12 -0.79 dB -15.02 dB 14:17 07-(I Know) I'm Loosing You
DR10 -1.58 dB -14.45 dB 2:24 08-Nice To Be With You
––––––––––––––––––––––––––––––––––––––––

Number of tracks: 8
Official DR value: DR12

Samplerate: 44100 Hz
Channels: 2
Bits per sample: 16
Bitrate: 958 kbps
Codec: FLAC
================================================================================



Rare Earth: Collection (1969 - 1978) [Vinyl Rip 16/44 & mp3-320]

Tracklist VNL05 - 1972 - Willie Remembers:
Rare Earth ‎– R 543L DJ Promo

A1 Good Time Sally
A2 Every Now & Then We Get To Go On Down To Miami
A3 Think Of The Children
A4 Gotta Get Myself Back Home
A5 Come With Your Lady
B1 Would You Like To Come Along
B2 We're Gonna Have A Good Time
B3 I Couldn't Believe What Happened Last Night

foobar2000 1.2.9 / Dynamic Range Meter 1.1.1
log date: 2017-11-27 13:25:18

––––––––––––––––––––––––––––––––––––––––
Analyzed: Rare Earth / Willie Remembers… (DJ Promo)
––––––––––––––––––––––––––––––––––––––––

DR Peak RMS Duration Track
––––––––––––––––––––––––––––––––––––––––
DR13 -0.72 dB -15.92 dB 2:56 01-Good Time Sally
DR13 -0.46 dB -15.76 dB 3:14 02-Every Now & Then We Get To Go On Down To Miami
DR14 0.00 dB -17.49 dB 5:36 03-Think Of The Children
DR12 -1.21 dB -15.46 dB 3:04 04-Gotta Get Myself Back Home
DR13 -0.73 dB -17.91 dB 5:48 05-Come With Your Lady
DR12 -0.56 dB -14.92 dB 2:49 06-Would You Like To Come Along
DR13 -0.48 dB -15.43 dB 3:26 07-We're Gonna Have A Good Time
DR14 -0.23 dB -16.71 dB 12:32 08-I Couldn't Believe What Happened Last Night
––––––––––––––––––––––––––––––––––––––––

Number of tracks: 8
Official DR value: DR13

Samplerate: 44100 Hz
Channels: 2
Bits per sample: 16
Bitrate: 848 kbps
Codec: FLAC
================================================================================



Rare Earth: Collection (1969 - 1978) [Vinyl Rip 16/44 & mp3-320]

Tracklist VNL06 - 1973 - Ma:
Rare Earth ‎– R546L DJ Promo

B1 Big John Is My Name
B2 Smiling Faces Sometimes
B3 Hum Along And Dance
B4 Come With Me

foobar2000 1.2.9 / Dynamic Range Meter 1.1.1
log date: 2017-11-27 13:25:32

––––––––––––––––––––––––––––––––––––––––
Analyzed: Rare Earth / Ma (DJ Promo)
––––––––––––––––––––––––––––––––––––––––

DR Peak RMS Duration Track
––––––––––––––––––––––––––––––––––––––––
DR16 -0.15 dB -18.06 dB 17:16 01-Ma
DR15 -0.37 dB -17.36 dB 4:23 02-Big John Is My Name
DR15 -0.41 dB -19.11 dB 5:59 03-Smiling Faces Sometimes
DR14 -0.33 dB -16.63 dB 5:15 04-Hum Along And Dance
DR14 -1.67 dB -20.81 dB 4:46 05-Come With Me
––––––––––––––––––––––––––––––––––––––––

Number of tracks: 5
Official DR value: DR15

Samplerate: 44100 Hz
Channels: 2
Bits per sample: 16
Bitrate: 771 kbps
Codec: FLAC
================================================================================



Rare Earth: Collection (1969 - 1978) [Vinyl Rip 16/44 & mp3-320]

Tracklist VNL07 - 1978 - Band Together:
Prodigal ‎– P7-10025R1

A1 Warm Ride
A2 You
A3 Love Is What You Get (If Love Is What You Give Me)
A4 Love Do Me Right
A5 Dreamer
B1 Maybe The Magic
B2 Love Music
B3 Rock 'N' Roll Man
B4 Mota Molata

foobar2000 1.2.9 / Dynamic Range Meter 1.1.1
log date: 2017-11-27 13:25:50

––––––––––––––––––––––––––––––––––––––––
Analyzed: Rare Earth / Band Together (Original USA)
––––––––––––––––––––––––––––––––––––––––

DR Peak RMS Duration Track
––––––––––––––––––––––––––––––––––––––––
DR15 0.00 dB -18.06 dB 4:01 01-Warm Ride
DR15 0.00 dB -18.13 dB 3:33 02-You
DR15 -0.40 dB -16.78 dB 2:54 03-Love Is What You Get (If Love Is What You Give Me)
DR15 -1.36 dB -18.29 dB 4:28 04-Love Do Me Right
DR13 -1.02 dB -19.88 dB 4:08 05-Dreamer
DR14 -0.45 dB -16.61 dB 3:08 06-Maybe The Magic
DR15 -0.40 dB -17.06 dB 4:43 07-Love Music
DR14 -0.13 dB -16.23 dB 3:59 08-Rock 'N' Roll Man
DR14 -0.42 dB -16.98 dB 4:28 09-Mota Molata
––––––––––––––––––––––––––––––––––––––––

Number of tracks: 9
Official DR value: DR14

Samplerate: 44100 Hz
Channels: 2
Bits per sample: 16
Bitrate: 846 kbps
Codec: FLAC
================================================================================




Original ripper: miklespr
Original format: 24/192
Vinyl Condition: VG+
Cleaning:
Direct Drive Turntable: Yamaha
Cartridge: Empire
Amplifier: BHM-V
ADC: RME UC
Postprocessing:Fade in-Fade out

Downsampled to 16/44

Kraftwerk: Collection (1974 - 1991) [Vinyl Rip 16/44 & mp3-320]
Roger Waters: Vinyl Collection (1970 - 1992) [Vinyl Rip 16/44 & mp3-320] [Vinyl Rip 16/44 & MP3-320]
David Gilmour - Rattle That Lock (2015) [Vinyl Rip 16/44 & mp3-320]




Depeche Mode: Collection (1981 - 2013) [Vinyl Rip 16/44 & mp3-320]
Pink Floyd: Remastered Collection (1967 - 2016) [Vinyl Rip 16/44 & mp3-320]
Sade: Discography (1984 - 2010) [Vinyl Rip 16/44 & MP3-320]
Deep Purple: Collection (1968 - 2017) [Vinyl Rip 16/44 & mp3-320]
Queen: Collection (1973 - 1995) [Vinyl Rip 16/44 & MP3-320]
The Cars: Collection (1978 - 1987) [Vinyl Rip 16/44 & mp3-320]
Metallica: Discography (1983 - 2016) [Vinyl Rip 16/44 & mp3-320]
Bon Jovi - The Albums (2017) [Vinyl Rip 16/44 & mp3-320, Limited Edition Box set]
The Doors: Collection (1967 - 1971) [Vinyl Rip 16/44 & mp3-320]
Black Sabbath: Collection (1970 - 2013) [Vinyl Rip 16/44 & mp3-320]
The Beatles: Discography (1963 - 1988) [Vinyl Rip 16/44 & mp3-320]
Joe Cocker: Collection (1969 - 1991) [Vinyl Rip 16/44 & mp3-320]
Frank Zappa: Collection (1969 - 1981) [Vinyl Rip 16/44 & mp3-320]
Ten Years After: Collection (1967 - 1974) [Vinyl Rip 16/44 & mp3-320]
Dire Straits: Discography (1978 - 1991) [Vinyl Rip 16/44 & mp3-320]
Bonnie Tyler: Collection (1977 - 1986) [Vinyl Rip 16/44 & mp3-320]
The Beatles: Stereo Vinyl Box Set (2012) [Vinyl Rip 16/44 & mp3-320]
Wolfgang Amadeus Mozart - Die Violin Konzerte (1968) [Vinyl Rip 16/44 & mp3-320]
Eagles - The Studio Albums 1972-1979 (2013) [Vinyl Rip 16/44 & mp3-320]
Pink Floyd: Discography (1967 - 2014) [Vinyl Rip 16/44 & mp3-320]
Led Zeppelin: Discography (1969 - 1982) [Vinyl Rip 16/44 & mp3-320]
Manowar: Collection (1982 - 2012) [Vinyl Rip 16/44 & mp3-320]
A-HA: Collection (1985-2015) [Vinyl Rip 16/44 & mp3-320]
Decca, Wiener Philharmoniker - 6 Classic Analogue LPs (2014) [Vinyl Rip 16/44]
Beethoven - Chicago Symphony Orchestra / Sir Georg Solti ‎– The Nine Symphonies (1975) [Vinyl Rip 16/44 & mp3-320]
Scorpions: Collection (1974 - 2015) [Vinyl Rip 16/44 & mp3-320]
Pink Floyd - Echoes: The Best Of Pink Floyd (2001) [Vinyl Rip 16/44]
Alice Cooper - Paranormal (2017) [Vinyl Rip 16/44 & mp3-320]
Manfred Mann's Earth Band: Collection (1967 - 2014) [Vinyl Rip 16/44 & mp3-320]
Rainbow: Discography (1975 - 1986) [Vinyl Rip 16/44 & mp3-320]
Amanda Lear: Collection (1978 - 1986) [Vinyl Rip 16/44 & mp3-320]
Space & Didier Marouani: Collection (1977 - 1987) [Vinyl Rip 16/44 & mp3-320]
Rod Stewart: Collection (1969 - 1988) [Vinyl Rip 16/44 & mp3-320]
Rare Earth or Rare Earth in my Blog

Download Rare Earth: Collection (1969 - 1978):