Subcategories

Seattle Symphony & Ludovic Morlot - Raskatov & Stravinsky (2014)

Posted By: SERTiL
Seattle Symphony & Ludovic Morlot - Raskatov & Stravinsky (2014)

Seattle Symphony & Ludovic Morlot - Raskatov & Stravinsky
EAC Rip | FLAC (tracks)+cue, log, m3u, d.booklet | 63:05 min | 259 MB
Label: Seattle Symphony Media - SSM1005 | Tracks: 26 | Rls.date: 2014
Classical

The Seattle Symphony has received rave reviews for the first four releases on its in-house record label from critics around the world. The label’s fifth release will be the premiere recording of Alexander Raskatov’s powerful and captivating Piano Concerto, “Night Butterflies,” performed by Tomoko Mukaiyama.

Also on the release is Igor Stravinsky’s Rite of Spring, recorded live at Benaroya Hall in June 2014, as part of a memorable single-evening performance of the three great Stravinsky ballets that was one of the highlights of the 2013-14 season.

TRACKLIST

Aleksander Raskatov (1953-)

Piano Concerto Night Butterflies
1 I. Volante 02:00
2 II. Adagietto 02:44
3 III. Vivo meccanico 00:54
4 IV. Quasi cadenza 03:11
5 V. Furioso 03:23
6 VI. Largo: Quasi senza tempo 02:44
7 VII. Quasi spettro 00:49
8 VIII. Quasi recitativo 01:43
9 IX. Ruvido 02:16
10 X. Senza misura 01:13
11 XI. Poco allegretto 03:56
12 XII. Largo lontano 03:41

Igor Stravinsky (1882-1971)

The Rite of Spring - PartI: The Adoration of the Earth
13 Pt. 1 Adoration of the Earth: Introduction 03:24
14 Pt. 1 Adoration of the Earth: Dances of the Young Girls 03:14
15 Pt. 1 Adoration of the Earth: Ritual of Abduction 01:23
16 Pt. 1 Adoration of the Earth: Spring Rounds 03:25
17 Pt. 1 Adoration of the Earth: Ritual of the Rival Tribes 02:01
18 Pt. 1 Adoration of the Earth: Procession of the Sage 00:45
19 Pt. 1 Adoration of the Earth: The Sage 00:19
20 Pt. 1 Adoration of the Earth: Dance of the Earth 01:15
21 Pt. 2 The Sacrifice: Introduction 04:55
22 Pt. 2 The Sacrifice: Mystic Circles of the Young Girls 03:08
23 Pt. 2 The Sacrifice: Glorification of the Chosen One 01:33
24 Pt. 2 The Sacrifice: Evocation of the Ancestors 00:43
25 Pt. 2 The Sacrifice: Ritual Action of the Ancestors 03:34
26 Pt. 2 The Sacrifice: Sacrificial Dance 04:52

PERSONNEL
Tomoko Mukaiyama, piano
Seattle Symphony
Ludovic Morlot, conductor

Exact Audio Copy V1.0 beta 3 from 29. August 2011

EAC extraction logfile from 22. February 2015, 14:32

Seattle Symphony Orchestra/Ludovic Morlot / Raskatov - The Night Butterflies; Stravinsky - The Rite of Spring

Used drive : HL-DT-STDVD+-RW GT30N Adapter: 0 ID: 1

Read mode : Secure
Utilize accurate stream : Yes
Defeat audio cache : Yes
Make use of C2 pointers : No

Read offset correction : 103
Overread into Lead-In and Lead-Out : No
Fill up missing offset samples with silence : Yes
Delete leading and trailing silent blocks : No
Null samples used in CRC calculations : Yes
Used interface : Native Win32 interface for Win NT & 2000
Gap handling : Appended to previous track

Used output format : User Defined Encoder
Selected bitrate : 128 kBit/s
Quality : High
Add ID3 tag : No
Command line compressor : C:\Program Files (x86)\Exact Audio Copy\Flac\flac.exe
Additional command line options : -8 -V -T "ARTIST=%artist%" -T "TITLE=%title%" -T "ALBUM=%albumtitle%" -T "DATE=%year%" -T "TRACKNUMBER=%tracknr%" -T "GENRE=%genre%" -T "PERFORMER=%albuminterpret%" -T "COMPOSER=%composer%" %haslyrics%–tag-from-file=LYRICS="%lyricsfile%"%haslyrics% -T "ALBUMARTIST=%albumartist%" -T "DISCNUMBER=%cdnumber%" -T "TOTALDISCS=%totalcds%" -T "TOTALTRACKS=%numtracks%" -T "COMMENT=%comment%" %source% -o %dest%


TOC of the extracted CD

Track | Start | Length | Start sector | End sector
––––––––––––––––––––––––––––-
1 | 0:00.00 | 2:00.35 | 0 | 9034
2 | 2:00.35 | 2:44.00 | 9035 | 21334
3 | 4:44.35 | 0:54.43 | 21335 | 25427
4 | 5:39.03 | 3:11.72 | 25428 | 39824
5 | 8:51.00 | 3:23.32 | 39825 | 55081
6 | 12:14.32 | 2:44.31 | 55082 | 67412
7 | 14:58.63 | 0:49.66 | 67413 | 71153
8 | 15:48.54 | 1:43.68 | 71154 | 78946
9 | 17:32.47 | 2:16.04 | 78947 | 89150
10 | 19:48.51 | 1:13.51 | 89151 | 94676
11 | 21:02.27 | 3:56.52 | 94677 | 112428
12 | 24:59.04 | 3:41.53 | 112429 | 129056
13 | 28:40.57 | 3:24.69 | 129057 | 144425
14 | 32:05.51 | 3:14.29 | 144426 | 159004
15 | 35:20.05 | 1:23.38 | 159005 | 165267
16 | 36:43.43 | 3:25.15 | 165268 | 180657
17 | 40:08.58 | 2:01.60 | 180658 | 189792
18 | 42:10.43 | 0:45.23 | 189793 | 193190
19 | 42:55.66 | 0:19.71 | 193191 | 194686
20 | 43:15.62 | 1:15.44 | 194687 | 200355
21 | 44:31.31 | 4:55.64 | 200356 | 222544
22 | 49:27.20 | 3:08.12 | 222545 | 236656
23 | 52:35.32 | 1:33.05 | 236657 | 243636
24 | 54:08.37 | 0:43.21 | 243637 | 246882
25 | 54:51.58 | 3:34.04 | 246883 | 262936
26 | 58:25.62 | 4:52.08 | 262937 | 284844


Track 1

Filename C:\FLACS\Raskatov; Stravinsky [Seattle Symphony - Morlot]\01 - Tomoko Mukaiyama; Seattle Symphony Orchestra,Ludovic Morlot - Piano Concerto ''Night Butterflies''- 1 Valante.wav

Pre-gap length 0:00:02.00

Peak level 49.3 %
Extraction speed 0.8 X
Track quality 99.9 %
Test CRC 6EDD49B3
Copy CRC 6EDD49B3
Track not present in AccurateRip database
Copy OK

Track 2

Filename C:\FLACS\Raskatov; Stravinsky [Seattle Symphony - Morlot]\02 - Tomoko Mukaiyama; Seattle Symphony Orchestra,Ludovic Morlot - Piano Concerto ''Night Butterflies''- 2 Adagietto.wav

Peak level 29.9 %
Extraction speed 1.0 X
Track quality 99.9 %
Test CRC FBDB9399
Copy CRC FBDB9399
Track not present in AccurateRip database
Copy OK

Track 3

Filename C:\FLACS\Raskatov; Stravinsky [Seattle Symphony - Morlot]\03 - Tomoko Mukaiyama; Seattle Symphony Orchestra,Ludovic Morlot - Piano Concerto ''Night Butterflies''- 3 Vivo Meccanico.wav

Peak level 25.3 %
Extraction speed 0.9 X
Track quality 100.0 %
Test CRC D78C509C
Copy CRC D78C509C
Track not present in AccurateRip database
Copy OK

Track 4

Filename C:\FLACS\Raskatov; Stravinsky [Seattle Symphony - Morlot]\04 - Tomoko Mukaiyama; Seattle Symphony Orchestra,Ludovic Morlot - Piano Concerto ''Night Butterflies''- 4 Quasi Cadenza.wav

Peak level 65.1 %
Extraction speed 1.3 X
Track quality 100.0 %
Test CRC F52F70D3
Copy CRC F52F70D3
Track not present in AccurateRip database
Copy OK

Track 5

Filename C:\FLACS\Raskatov; Stravinsky [Seattle Symphony - Morlot]\05 - Tomoko Mukaiyama; Seattle Symphony Orchestra,Ludovic Morlot - Piano Concerto ''Night Butterflies''- 5 Furioso.wav

Peak level 84.6 %
Extraction speed 1.4 X
Track quality 100.0 %
Test CRC 9D3FCFD8
Copy CRC 9D3FCFD8
Track not present in AccurateRip database
Copy OK

Track 6

Filename C:\FLACS\Raskatov; Stravinsky [Seattle Symphony - Morlot]\06 - Tomoko Mukaiyama; Seattle Symphony Orchestra,Ludovic Morlot - Piano Concerto ''Night Butterflies''- 6 Largo- Quasi Senza Tempo.wav

Peak level 73.5 %
Extraction speed 1.5 X
Track quality 100.0 %
Test CRC DA4F8FE3
Copy CRC DA4F8FE3
Track not present in AccurateRip database
Copy OK

Track 7

Filename C:\FLACS\Raskatov; Stravinsky [Seattle Symphony - Morlot]\07 - Tomoko Mukaiyama; Seattle Symphony Orchestra,Ludovic Morlot - Piano Concerto ''Night Butterflies''- 7 Quasi Spettro.wav

Peak level 18.2 %
Extraction speed 1.0 X
Track quality 100.0 %
Test CRC 5E2288D5
Copy CRC 5E2288D5
Track not present in AccurateRip database
Copy OK

Track 8

Filename C:\FLACS\Raskatov; Stravinsky [Seattle Symphony - Morlot]\08 - Tomoko Mukaiyama; Seattle Symphony Orchestra,Ludovic Morlot - Piano Concerto ''Night Butterflies''- 8 Quasi Recitativo.wav

Peak level 86.1 %
Extraction speed 1.1 X
Track quality 99.8 %
Test CRC 2DC0D7E0
Copy CRC 2DC0D7E0
Track not present in AccurateRip database
Copy OK

Track 9

Filename C:\FLACS\Raskatov; Stravinsky [Seattle Symphony - Morlot]\09 - Tomoko Mukaiyama; Seattle Symphony Orchestra,Ludovic Morlot - Piano Concerto ''Night Butterflies''- 9 Ruvido.wav

Peak level 97.1 %
Extraction speed 1.5 X
Track quality 100.0 %
Test CRC A25C82B7
Copy CRC A25C82B7
Track not present in AccurateRip database
Copy OK

Track 10

Filename C:\FLACS\Raskatov; Stravinsky [Seattle Symphony - Morlot]\10 - Tomoko Mukaiyama; Seattle Symphony Orchestra,Ludovic Morlot - Piano Concerto ''Night Butterflies''- 10 Senza Misura.wav

Peak level 63.8 %
Extraction speed 1.0 X
Track quality 99.8 %
Test CRC 6918A4D9
Copy CRC 6918A4D9
Track not present in AccurateRip database
Copy OK

Track 11

Filename C:\FLACS\Raskatov; Stravinsky [Seattle Symphony - Morlot]\11 - Tomoko Mukaiyama; Seattle Symphony Orchestra,Ludovic Morlot - Piano Concerto ''Night Butterflies''- 11 Poco Allegretto.wav

Peak level 69.5 %
Extraction speed 1.6 X
Track quality 99.9 %
Test CRC 0E0EBBAC
Copy CRC 0E0EBBAC
Track not present in AccurateRip database
Copy OK

Track 12

Filename C:\FLACS\Raskatov; Stravinsky [Seattle Symphony - Morlot]\12 - Tomoko Mukaiyama; Seattle Symphony Orchestra,Ludovic Morlot - Piano Concerto ''Night Butterflies''- 12 Largo Iontano.wav

Peak level 50.0 %
Extraction speed 1.9 X
Track quality 100.0 %
Test CRC B998465B
Copy CRC B998465B
Track not present in AccurateRip database
Copy OK

Track 13

Filename C:\FLACS\Raskatov; Stravinsky [Seattle Symphony - Morlot]\13 - Seattle Symphony Orchestra,Ludovic Morlot - The Rite of Spring- The Adoration of the Earth - Introduction.wav

Peak level 22.8 %
Extraction speed 1.9 X
Track quality 100.0 %
Test CRC 47E16126
Copy CRC 47E16126
Track not present in AccurateRip database
Copy OK

Track 14

Filename C:\FLACS\Raskatov; Stravinsky [Seattle Symphony - Morlot]\14 - Seattle Symphony Orchestra,Ludovic Morlot - The Rite of Spring- The Adoration of the Earth - Dance of the Young Girls.wav

Peak level 88.4 %
Extraction speed 2.0 X
Track quality 100.0 %
Test CRC F9F535ED
Copy CRC F9F535ED
Track not present in AccurateRip database
Copy OK

Track 15

Filename C:\FLACS\Raskatov; Stravinsky [Seattle Symphony - Morlot]\15 - Seattle Symphony Orchestra,Ludovic Morlot - The Rite of Spring- The Adoration of the Earth - Ritual of Abduction.wav

Peak level 88.6 %
Extraction speed 1.6 X
Track quality 100.0 %
Test CRC 1C81874F
Copy CRC 1C81874F
Track not present in AccurateRip database
Copy OK

Track 16

Filename C:\FLACS\Raskatov; Stravinsky [Seattle Symphony - Morlot]\16 - Seattle Symphony Orchestra,Ludovic Morlot - The Rite of Spring- The Adoration of the Earth - Spring Rounds.wav

Peak level 89.0 %
Extraction speed 1.8 X
Track quality 99.9 %
Test CRC A5318977
Copy CRC A5318977
Track not present in AccurateRip database
Copy OK

Track 17

Filename C:\FLACS\Raskatov; Stravinsky [Seattle Symphony - Morlot]\17 - Seattle Symphony Orchestra,Ludovic Morlot - The Rite of Spring- The Adoration of the Earth - Ritual of the Rival Tribes.wav

Peak level 78.4 %
Extraction speed 1.5 X
Track quality 99.9 %
Test CRC BCDA3DCA
Copy CRC BCDA3DCA
Track not present in AccurateRip database
Copy OK

Track 18

Filename C:\FLACS\Raskatov; Stravinsky [Seattle Symphony - Morlot]\18 - Seattle Symphony Orchestra,Ludovic Morlot - The Rite of Spring- The Adoration of the Earth - Procession of the Sage.wav

Peak level 89.3 %
Extraction speed 1.4 X
Track quality 100.0 %
Test CRC 1BDCEA1F
Copy CRC 1BDCEA1F
Track not present in AccurateRip database
Copy OK

Track 19

Filename C:\FLACS\Raskatov; Stravinsky [Seattle Symphony - Morlot]\19 - Seattle Symphony Orchestra,Ludovic Morlot - The Rite of Spring- The Adoration of the Earth - The Sage.wav

Peak level 2.5 %
Extraction speed 0.9 X
Track quality 100.0 %
Test CRC EA4116B3
Copy CRC EA4116B3
Track not present in AccurateRip database
Copy OK

Track 20

Filename C:\FLACS\Raskatov; Stravinsky [Seattle Symphony - Morlot]\20 - Seattle Symphony Orchestra,Ludovic Morlot - The Rite of Spring- The Adoration of the Earth - Dance of the Earth.wav

Peak level 89.5 %
Extraction speed 1.7 X
Track quality 100.0 %
Test CRC AAB78A34
Copy CRC AAB78A34
Track not present in AccurateRip database
Copy OK

Track 21

Filename C:\FLACS\Raskatov; Stravinsky [Seattle Symphony - Morlot]\21 - Seattle Symphony Orchestra,Ludovic Morlot - The Rite of Spring- The Sacrifice - Introduction.wav

Peak level 36.7 %
Extraction speed 2.4 X
Track quality 100.0 %
Test CRC DA23D95A
Copy CRC DA23D95A
Track not present in AccurateRip database
Copy OK

Track 22

Filename C:\FLACS\Raskatov; Stravinsky [Seattle Symphony - Morlot]\22 - Seattle Symphony Orchestra,Ludovic Morlot - The Rite of Spring- The Sacrifice - Mystic Circle of the Young Girls.wav

Peak level 88.9 %
Extraction speed 2.3 X
Track quality 100.0 %
Test CRC EA67F93F
Copy CRC EA67F93F
Track not present in AccurateRip database
Copy OK

Track 23

Filename C:\FLACS\Raskatov; Stravinsky [Seattle Symphony - Morlot]\23 - Seattle Symphony Orchestra,Ludovic Morlot - The Rite of Spring- The Sacrifice - Glorification of the Chosen One.wav

Peak level 90.4 %
Extraction speed 2.0 X
Track quality 100.0 %
Test CRC 95393A3E
Copy CRC 95393A3E
Track not present in AccurateRip database
Copy OK

Track 24

Filename C:\FLACS\Raskatov; Stravinsky [Seattle Symphony - Morlot]\24 - Seattle Symphony Orchestra,Ludovic Morlot - The Rite of Spring- The Sacrifice - Evocation of the Ancestors.wav

Peak level 90.6 %
Extraction speed 1.4 X
Track quality 100.0 %
Test CRC FED61A10
Copy CRC FED61A10
Track not present in AccurateRip database
Copy OK

Track 25

Filename C:\FLACS\Raskatov; Stravinsky [Seattle Symphony - Morlot]\25 - Seattle Symphony Orchestra,Ludovic Morlot - The Rite of Spring- The Sacrifice - Ritual Action of the Ancestors.wav

Peak level 86.6 %
Extraction speed 2.4 X
Track quality 100.0 %
Test CRC D9164137
Copy CRC D9164137
Track not present in AccurateRip database
Copy OK

Track 26

Filename C:\FLACS\Raskatov; Stravinsky [Seattle Symphony - Morlot]\26 - Seattle Symphony Orchestra,Ludovic Morlot - The Rite of Spring- The Sacrifice - Sacrificial Dance.wav

Peak level 95.2 %
Extraction speed 2.6 X
Track quality 100.0 %
Test CRC 5EB92615
Copy CRC 5EB92615
Track not present in AccurateRip database
Copy OK


None of the tracks are present in the AccurateRip database

No errors occurred

End of status report

–– CUETools DB Plugin V2.1.3

[CTDB TOCID: kW.UxlVNZVxQeQKpRQRdZLHKnSU-] found, Submit result: kW.UxlVNZVxQeQKpRQRdZLHKnSU- has been confirmed
[71786c62] (1/1) Accurately ripped


==== Log checksum 776E04973FC27757FA508799082AC8FD71F97C5ACABA66BD649285534AA2D232 ====


Seattle Symphony & Ludovic Morlot - Raskatov & Stravinsky (2014)


Thanks to the Original customer.