Subcategories

Ray Barretto - Can You Feel It (1978)

Posted By: tiburon
Ray Barretto - Can You Feel It (1978)

Ray Barretto - Can You Feel It (1978)
EAC 0.99pb5 | FLAC Image level 8 | Cue+Log | Full Scans 600dpi | 308MB + 5% Recovery
MP3 CBR 320 Kbps | 96MB + 5% Recovery
Genre: Latin Jazz, Fusion, Jazz Pop
Ray Barretto - Can You Feel It (1978)

One of Ray Barretto's more erratic albums of the 1970s, Can You Feel It? is a collection of pop-jazz/crossover, fusion, and pop-soul that ranges from the exciting to the forgettable. Parts of this album find the conguero wasting his considerable talents on lesser material, but other parts find him letting loose and taking chances. "Whirlpool," "Daydreams," and the insistent "Confrontation" are solid fusion instrumentals that would have been worthy of Return to Forever, and "Sting Ray" has the type of catchy jazz-funk groove that would have worked on one of Joe Farrell's CTI dates of the 1970s.
Track List
01. Can You Feel It (Let It Groove You) 4:22
02. I Think About You 4:33
03. What Part Of Heaven Do You Come From? 4:45
04. Stargazer 6:18
05. Summer Sun 3:41
06. Whirlpool 4:31
07. Sting Ray 4:31
08. Daydreams 3:49
09. Confrontation 5:22

musicians
Ray Barretto - congas, percussion
Todd Anderson - tenor and alto sax, acoustic and electric piano
Richie Morales - drums
Jeff Richman - rhythm and all lead guitars
Howard Schneider - Fender and acoustic piano, synths
Carlos Cordova - timbales, percussion
Eddie Rivera - bass
Neil Stubenhaus - bass
Cliff Carter - synths
Ray Romeo - bongos
Hiram Bullock - guitar
Cissy Houston - vocal on tracks 1, 5
Googie Coppola - vocals on tracks 4, 6
Prince Philip Mitchell - vocal on track 3
Michelle Robinson - background vocals
Chris Robinson - background vocals
Walter Garcia - background vocals
Kelly Barretto - background vocals
Ray Barretto II - background vocals

Produced by Ray Barretto and Raymond Silva


Exact Audio Copy V0.99 prebeta 5 from 4. May 2009

EAC extraction logfile from 22. November 2012, 17:13

Ray Barretto / Can You Feel It

Used drive : PIONEER DVD-RW DVR-110D Adapter: 1 ID: 0

Read mode : Secure
Utilize accurate stream : Yes
Defeat audio cache : Yes
Make use of C2 pointers : No

Read offset correction : 48
Overread into Lead-In and Lead-Out : No
Fill up missing offset samples with silence : Yes
Delete leading and trailing silent blocks : No
Null samples used in CRC calculations : Yes
Used interface : Native Win32 interface for Win NT & 2000

Used output format : Internal WAV Routines
Sample format : 44.100 Hz; 16 Bit; Stereo


TOC of the extracted CD

Track | Start | Length | Start sector | End sector
––––––––––––––––––––––––––––-
1 | 0:00.00 | 4:21.53 | 0 | 19627
2 | 4:21.53 | 4:32.71 | 19628 | 40098
3 | 8:54.49 | 4:45.14 | 40099 | 61487
4 | 13:39.63 | 6:17.40 | 61488 | 89802
5 | 19:57.28 | 3:40.66 | 89803 | 106368
6 | 23:38.19 | 4:30.66 | 106369 | 126684
7 | 28:09.10 | 4:31.02 | 126685 | 147011
8 | 32:40.12 | 3:49.35 | 147012 | 164221
9 | 36:29.47 | 5:22.33 | 164222 | 188404


Range status and errors

Selected range

Filename D:\Ray Barretto - Can You Feel It.wav

Peak level 100.0 %
Range quality 99.9 %
Test CRC 9F2EA628
Copy CRC 9F2EA628
Copy OK

No errors occurred


AccurateRip summary

Track 1 accurately ripped (confidence 2) [2BE3B6E5]
Track 2 accurately ripped (confidence 2) [7F1CC9BA]
Track 3 accurately ripped (confidence 2) [9799A721]
Track 4 accurately ripped (confidence 2) [B4E7FE8E]
Track 5 accurately ripped (confidence 2) [135B5BE0]
Track 6 accurately ripped (confidence 2) [4D2F4E7F]
Track 7 accurately ripped (confidence 2) [609796DA]
Track 8 accurately ripped (confidence 2) [B49E8BAD]
Track 9 accurately ripped (confidence 2) [A43FF19E]

All tracks accurately ripped

End of status report


––––––––––––––––––––––––––––––––––––––––
Analyzed: Ray Barretto / Can You Feel It
––––––––––––––––––––––––––––––––––––––––

DR Peak RMS Duration Track
––––––––––––––––––––––––––––––––––––––––
DR11 -0.01 dB -12.68 dB 4:22 01-Can You Feel It (Let It Groove You)
DR12 -0.01 dB -13.65 dB 4:33 02-I Think About You
DR11 -0.01 dB -13.22 dB 4:45 03-What Part of Heaven Do You Come From?
DR13 -0.01 dB -14.41 dB 6:18 04-Stargazer
DR12 -0.05 dB -13.58 dB 3:41 05-Summer Sun
DR11 -0.03 dB -12.74 dB 4:31 06-Whirlpool
DR11 -0.03 dB -12.50 dB 4:31 07-Sting Ray
DR12 -0.04 dB -12.54 dB 3:49 08-Daydreams
DR11 0.00 dB -12.59 dB 5:22 09-Confrontation
––––––––––––––––––––––––––––––––––––––––

Number of tracks: 9
Official DR value: DR12

Samplerate: 44100 Hz
Channels: 2
Bits per sample: 16
Bitrate: 881 kbps
Codec: FLAC
================================================================================

Ray Barretto - Can You Feel It (1978)
Ray Barretto - Can You Feel It (1978)
Ray Barretto - Can You Feel It (1978)


Thanks to the original ripper