Subcategories

Ray Charles - The Genius of Ray Charles (1959) [MFSL, 2012]

Posted By: gribovar
Ray Charles - The Genius of Ray Charles (1959) [MFSL, 2012]

Ray Charles - The Genius of Ray Charles (1959) [MFSL, 2012]
EAC Rip | WavPack (image+.cue+log) - 182 MB | MP3 CBR 320 kbps (LAME 3.93) - 127 MB | Covers included
Genre: Vocal Jazz | RAR 3% Rec. | Label: Mobile Fidelity Sound Lab (UDSACD 2055), 2012

The Genius of Ray Charles is a 1959 album by Ray Charles. In 2003, the album was ranked number 263 on Rolling Stone magazine's list of the 500 greatest albums of all time. Some players from Ray Charles' big band are joined by many ringers from the Count Basie and Duke Ellington bands for the first half of this program, featuring Charles belting out six songs arranged by Quincy Jones. "Let the Good Times Roll" and "Deed I Do" are highlights, and there are solos by tenorman David "Fathead" Newman, trumpeter Marcus Belgrave, and (on "Two Years of Torture") tenor Paul Gonsalves. The remaining six numbers are ballads, with Charles backed by a string orchestra arranged by Ralph Burns.
Tracklist:
01. Let The Good Times Roll
02. It Had To Be You
03. Alexander's Ragtime Band
04. Two Years Of Torture
05. When Your Lover Has Gone
06. Deed I Do
07. Just For A Thrill
08. You Won't Let Me Go
09. Tell Me You' Wait For Me
10. Don't Let The Sun Catch You Cryin'
11. Am I Blue
12. Come Rain Or Come Shine

Total time: 38:32

Exact Audio Copy V1.0 beta 3 from 29. August 2011

EAC extraction logfile from 8. December 2012, 14:03

Ray Charles / The Genius Of [MFSL UDSACD 2055]

Used drive : Optiarc DVD RW AD-7200S Adapter: 5 ID: 1

Read mode : Secure
Utilize accurate stream : Yes
Defeat audio cache : Yes
Make use of C2 pointers : No

Read offset correction : 48
Overread into Lead-In and Lead-Out : No
Fill up missing offset samples with silence : Yes
Delete leading and trailing silent blocks : No
Null samples used in CRC calculations : Yes
Used interface : Installed external ASPI interface

Used output format : User Defined Encoder
Selected bitrate : 1024 kBit/s
Quality : High
Add ID3 tag : No
Command line compressor : D:\Program Files (x86)\Exact Audio Copy\wavpack.exe
Additional command line options : -hlmx2 %source% %dest%


TOC of the extracted CD

Track | Start | Length | Start sector | End sector
––––––––––––––––––––––––––––-
1 | 0:00.00 | 2:54.05 | 0 | 13054
2 | 2:54.05 | 2:44.54 | 13055 | 25408
3 | 5:38.59 | 2:54.30 | 25409 | 38488
4 | 8:33.14 | 3:25.53 | 38489 | 53916
5 | 11:58.67 | 2:51.04 | 53917 | 66745
6 | 14:49.71 | 2:28.20 | 66746 | 77865
7 | 17:18.16 | 3:24.73 | 77866 | 93238
8 | 20:43.14 | 3:20.63 | 93239 | 108301
9 | 24:04.02 | 3:24.03 | 108302 | 123604
10 | 27:28.05 | 3:45.05 | 123605 | 140484
11 | 31:13.10 | 3:38.60 | 140485 | 156894
12 | 34:51.70 | 3:40.29 | 156895 | 173423


Range status and errors

Selected range

Filename D:\eac\Ray Charles\Ray Charles - The Genius Of [MFSL UDSACD 2055].wav

Peak level 100.0 %
Extraction speed 3.8 X
Range quality 100.0 %
Test CRC FACE4165
Copy CRC FACE4165
Copy OK

No errors occurred


AccurateRip summary

Track 1 not present in database
Track 2 not present in database
Track 3 not present in database
Track 4 not present in database
Track 5 not present in database
Track 6 not present in database
Track 7 not present in database
Track 8 not present in database
Track 9 not present in database
Track 10 not present in database
Track 11 not present in database
Track 12 not present in database

None of the tracks are present in the AccurateRip database

End of status report

–– CUETools DB Plugin V2.1.3

[CTDB TOCID: LG_EQt6MAtpxpnVMqDCoi2c0lRY-] disk not present in database, Submit result: LG_EQt6MAtpxpnVMqDCoi2c0lRY- has been uploaded


==== Log checksum 90E94EA024AF26DA30F26292162BBBC4DA71A532A7C6403974A705F94D7763B2 ====

Thanks to taurus66

More MFSL releases from my blog:
MFSL releases

Ray Charles - The Genius of Ray Charles (1959) [MFSL, 2012]
LOSSLESS:

Filepost.com
________________

MP3 320 kbps:

Filepost.com