Subcategories

Red Hot Chili Peppers - Californication (1999) (2CD Edition)

Posted By: uff
Red Hot Chili Peppers - Californication (1999) (2CD Edition)

Red Hot Chili Peppers - Californication (1999) (2CD Edition)
Rock | 2cd | EAC Rip | Flac + Cue + Log | covers
Warner, 9362474872 | rel: 1999 | 535Mb

Many figured that the Red Hot Chili Peppers' days as undisputed alternative kings were numbered after their lackluster 1995 release One Hot Minute, but like the great phoenix rising from the ashes, this legendary and influential outfit returned back to greatness with 1999's Californication. An obvious reason for their rebirth is the reappearance of guitarist John Frusciante (replacing Dave Navarro), who left the Peppers in 1992 and disappeared into a haze of hard drugs before cleaning up and returning to the fold in 1998. Frusciante was a main reason for such past band classics as 1989's Mother's Milk and 1991's Blood Sugar Sex Magik, and proves once and for all to be the quintessential RHCP guitarist. Anthony Kiedis' vocals have improved dramatically as well, while the rhythm section of bassist Flea and drummer Chad Smith remains one of rock's best. The quartet's trademark punk-funk can be sampled on such tracks as "Around the World," "I Like Dirt," and "Parallel Universe," but the more pop-oriented material proves to be a pleasant surprise – "Scar Tissue," "Otherside," "Easily," and "Purple Stain" all contain strong melodies and instantly memorable choruses. And like their 1992 introspective hit "Under the Bridge," there are even a few mellow moments – "Porcelain," "Road Trippin'," and the title track. With the instrumentalists' interplay at an all-time telepathic high and Kiedis peaking as a vocalist, Californication is a bona fide Chili Peppers classic. ~Allmusic

Track listing
cd1:
01. Around the World (3:59)
02. Parallel Universe (4:30)
03. Scar Tissue (3:37)
04. Otherside (4:15)
05. Get on Top (3:18)
06. Californication (5:21)
07. Easily (3:51)
08. Porcelain (2:43)
09. Emit Remmus (4:00)
10. I Like Dirt (2:38)
11. This Velvet Glove (3:45)
12. Savior (4:53)
13. Purple Stain (4:13)
14. Right on Time (1:53)
15. Road Trippin' (3:26)

cd2:
01. Gong Li (Non LP Track) (3:44)
02. How Strong (Non LP Track) (4:43)
03. Instrumental #2 (Non LP Track) (2:34)

Personnel
- Anthony Kiedis – lead vocals
- Flea – bass, backing vocals
- John Frusciante – guitars, backing vocals, keyboard
- Chad Smith – drums


Exact Audio Copy V1.0 beta 3 from 29. August 2011

EAC extraction logfile from 26. December 2012, 10:08

Red Hot Chili Peppers / Californication (CD1)

Used drive : TSSTcorpCDDVDW SH-S203B Adapter: 2 ID: 0

Read mode : Secure
Utilize accurate stream : Yes
Defeat audio cache : Yes
Make use of C2 pointers : No

Read offset correction : 6
Overread into Lead-In and Lead-Out : No
Fill up missing offset samples with silence : Yes
Delete leading and trailing silent blocks : No
Null samples used in CRC calculations : Yes
Used interface : Native Win32 interface for Win NT & 2000

Used output format : Internal WAV Routines
Sample format : 44.100 Hz; 16 Bit; Stereo


TOC of the extracted CD

Track | Start | Length | Start sector | End sector
––––––––––––––––––––––––––––-
1 | 0:00.00 | 3:59.08 | 0 | 17932
2 | 3:59.08 | 4:30.05 | 17933 | 38187
3 | 8:29.13 | 3:37.28 | 38188 | 54490
4 | 12:06.41 | 4:15.33 | 54491 | 73648
5 | 16:21.74 | 3:18.43 | 73649 | 88541
6 | 19:40.42 | 5:21.43 | 88542 | 112659
7 | 25:02.10 | 3:51.34 | 112660 | 130018
8 | 28:53.44 | 2:43.47 | 130019 | 142290
9 | 31:37.16 | 4:00.70 | 142291 | 160360
10 | 35:38.11 | 2:38.27 | 160361 | 172237
11 | 38:16.38 | 3:45.17 | 172238 | 189129
12 | 42:01.55 | 4:53.23 | 189130 | 211127
13 | 46:55.03 | 4:13.59 | 211128 | 230161
14 | 51:08.62 | 1:53.03 | 230162 | 238639
15 | 53:01.65 | 3:26.15 | 238640 | 254104


Range status and errors

Selected range

Filename C:\Incoming\UncleSandy\Red Hot Chili Peppers - Californication (CD1).wav

Peak level 99.6 %
Extraction speed 7.5 X
Range quality 99.9 %
Test CRC D94F87D9
Copy CRC D94F87D9
Copy OK

No errors occurred


AccurateRip summary

Track 1 accurately ripped (confidence 4) [1E96F643] (AR v2)
Track 2 accurately ripped (confidence 4) [A64515C7] (AR v2)
Track 3 accurately ripped (confidence 4) [7406530B] (AR v2)
Track 4 accurately ripped (confidence 4) [5F9976C6] (AR v2)
Track 5 accurately ripped (confidence 4) [44BB8FD6] (AR v2)
Track 6 accurately ripped (confidence 4) [9745EF67] (AR v2)
Track 7 accurately ripped (confidence 4) [8E60E255] (AR v2)
Track 8 accurately ripped (confidence 4) [CA789747] (AR v2)
Track 9 accurately ripped (confidence 4) [CE40FD1B] (AR v2)
Track 10 accurately ripped (confidence 4) [1FC8D323] (AR v2)
Track 11 accurately ripped (confidence 4) [820D7B04] (AR v2)
Track 12 accurately ripped (confidence 3) [EB3ABDB4] (AR v2)
Track 13 accurately ripped (confidence 4) [79F5A477] (AR v2)
Track 14 accurately ripped (confidence 4) [53ACCBCE] (AR v2)
Track 15 accurately ripped (confidence 3) [0DE220CA] (AR v2)

All tracks accurately ripped

End of status report

==== Log checksum 01B04B1711CB3791A8FD3DC45C18F14D9A98B66EE551E4B66501E5647F80AF54 ====
–-

Exact Audio Copy V1.0 beta 3 from 29. August 2011

EAC extraction logfile from 26. December 2012, 10:23

Red Hot Chili Peppers / Californication (CD2)

Used drive : TSSTcorpCDDVDW SH-S203B Adapter: 2 ID: 0

Read mode : Secure
Utilize accurate stream : Yes
Defeat audio cache : Yes
Make use of C2 pointers : No

Read offset correction : 6
Overread into Lead-In and Lead-Out : No
Fill up missing offset samples with silence : Yes
Delete leading and trailing silent blocks : No
Null samples used in CRC calculations : Yes
Used interface : Native Win32 interface for Win NT & 2000

Used output format : Internal WAV Routines
Sample format : 44.100 Hz; 16 Bit; Stereo


TOC of the extracted CD

Track | Start | Length | Start sector | End sector
––––––––––––––––––––––––––––-
1 | 0:00.00 | 3:44.22 | 0 | 16821
2 | 3:44.22 | 4:43.66 | 16822 | 38112
3 | 8:28.13 | 2:34.41 | 38113 | 49703


Range status and errors

Selected range

Filename C:\Incoming\UncleSandy\Red Hot Chili Peppers - Californication (CD2).wav

Peak level 99.8 %
Extraction speed 2.0 X
Range quality 100.0 %
Test CRC A7F2EDE1
Copy CRC A7F2EDE1
Copy OK

No errors occurred


AccurateRip summary

Track 1 accurately ripped (confidence 2) [C534B98A] (AR v2)
Track 2 accurately ripped (confidence 2) [8C20BF36] (AR v2)
Track 3 accurately ripped (confidence 2) [CCCA40E1] (AR v2)

All tracks accurately ripped

End of status report

==== Log checksum 91D4A9EE2AD0744F59114793FE0F49B83FDC864410B18150CFF56D88B44817FB ====



[CUETools log; Date: 2016. 08. 19. 20:45:00; Version: 2.1.6]
[AccurateRip ID: 00204001-016a81e3-c90d3c0f] found.
Track [ CRC | V2 ] Status
01 [c1273771|1e96f643] (048+038/172) Accurately ripped
02 [8df26a5d|a64515c7] (049+039/175) Accurately ripped
03 [c42a0492|7406530b] (049+039/178) Accurately ripped
04 [8625cd49|5f9976c6] (049+037/176) Accurately ripped
05 [6a602e91|44bb8fd6] (049+039/177) Accurately ripped
06 [61fb97a7|9745ef67] (048+039/174) Accurately ripped
07 [8f02e09b|8e60e255] (050+039/176) Accurately ripped
08 [8ab467de|ca789747] (049+039/175) Accurately ripped
09 [2a72bb53|ce40fd1b] (048+039/174) Accurately ripped
10 [ed91f939|1fc8d323] (049+039/173) Accurately ripped
11 [a8692ac3|820d7b04] (049+039/173) Accurately ripped
12 [1c341438|eb3abdb4] (050+038/175) Accurately ripped
13 [f7010fdd|79f5a477] (050+039/175) Accurately ripped
14 [c5759e0c|53accbce] (050+039/175) Accurately ripped
15 [c42e29e6|0de220ca] (037+038/173) Accurately ripped
Offsetted by -667:
01 [dd0888dc] (030/172) Accurately ripped
02 [c277a86a] (031/175) Accurately ripped
03 [7c2d3cd3] (033/178) Accurately ripped
04 [837bc488] (033/176) Accurately ripped
05 [7a419910] (032/177) Accurately ripped
06 [e41301a6] (032/174) Accurately ripped
07 [311e97bc] (032/176) Accurately ripped
08 [dd0e7694] (032/175) Accurately ripped
09 [dcb23362] (032/174) Accurately ripped
10 [40511b0f] (029/173) Accurately ripped
11 [d6767662] (030/173) Accurately ripped
12 [71b30a7b] (031/175) Accurately ripped
13 [cbcd8357] (029/175) Accurately ripped
14 [219ceb7f] (029/175) Accurately ripped
15 [f2e13d69] (029/173) Accurately ripped
Offsetted by -30:
01 [5fdd2802] (008/172) Accurately ripped
02 [0035a8e9] (008/175) Accurately ripped
03 [66156dbb] (008/178) Accurately ripped
04 [d31b4b36] (008/176) Accurately ripped
05 [38167176] (008/177) Accurately ripped
06 [779fee13] (008/174) Accurately ripped
07 [066947a7] (008/176) Accurately ripped
08 [891663df] (008/175) Accurately ripped
09 [17d7cd86] (008/174) Accurately ripped
10 [4128fb23] (008/173) Accurately ripped
11 [c3245962] (008/173) Accurately ripped
12 [0c798066] (008/175) Accurately ripped
13 [d46ff781] (008/175) Accurately ripped
14 [75d6b5c7] (008/175) Accurately ripped
15 [a5fe3681] (004/173) Accurately ripped
Offsetted by -24:
01 [0d33f82d] (000/172) No match (V2 was not tested)
02 [308965d6] (000/175) No match (V2 was not tested)
03 [44575435] (000/178) No match (V2 was not tested)
04 [2f9979f5] (000/176) No match (V2 was not tested)
05 [3f066834] (000/177) No match (V2 was not tested)
06 [3f44a974] (000/174) No match (V2 was not tested)
07 [e90ffe57] (000/176) No match (V2 was not tested)
08 [8b5efebe] (000/175) No match (V2 was not tested)
09 [7bccc1a2] (000/174) No match (V2 was not tested)
10 [ac13281d] (000/173) No match
11 [24d91d90] (000/173) No match
12 [76053790] (000/175) No match
13 [db59c92d] (000/175) No match
14 [ebe1b0c0] (000/175) No match
15 [791c9aaa] (000/173) No match

Track Peak [ CRC32 ] [W/O NULL] [ LOG ]
– 99,6 [D94F87D9] [62B922EF] CRC32
01 96,2 [C474A310] [D323CD39]
02 96,2 [9E7418A7] [9E7418A7]
03 96,2 [40796B24] [40796B24]
04 96,2 [07731FCD] [07731FCD]
05 96,2 [80AC118B] [80AC118B]
06 99,6 [AAFD9A54] [AAFD9A54]
07 96,2 [44466D47] [44466D47]
08 96,2 [78DE777D] [78DE777D]
09 96,2 [00A4B974] [00A4B974]
10 96,2 [A39C60A5] [A39C60A5]
11 96,2 [FE1B72E7] [FE1B72E7]
12 96,2 [5F50CB57] [5F50CB57]
13 96,2 [2248D5FF] [2248D5FF]
14 96,2 [E907F998] [E907F998]
15 96,2 [B49D1A0F] [CBE101B1]
––

[CUETools log; Date: 2016. 08. 19. 20:45:40; Version: 2.1.6]
[AccurateRip ID: 000198bf-00054ab0-12029603] found.
Track [ CRC | V2 ] Status
01 [e5c24af1|c534b98a] (18+18/38) Accurately ripped
02 [c7563ad3|8c20bf36] (18+18/38) Accurately ripped
03 [37e32f8d|ccca40e1] (18+18/38) Accurately ripped
Offsetted by -667:
01 [36a83e37] (00/38) No match (V2 was not tested)
02 [87801c00] (00/38) No match (V2 was not tested)
03 [9e84bd82] (00/38) No match (V2 was not tested)

Track Peak [ CRC32 ] [W/O NULL] [ LOG ]
– 99,8 [A7F2EDE1] [E3FC1962] CRC32
01 98,8 [A3F79C24] [F67CB4CC]
02 99,8 [D3FD94D2] [1722CE30]
03 98,8 [06771061] [2333F85D]


Thx to UncleSandy
Bigfile
Yunfile

password: asd