Subcategories

Red Rider - Breaking Curfew (1984)

Posted By: Andi_Deris
Red Rider - Breaking Curfew (1984)

Red Rider - Breaking Curfew (1984)
EAC Rip | FLAC: Image+Cue+Log | MP3 CBR 320 kbps | Scans
262 Mb | 106 Mb | Time: 37:27
Capitol Records, Inc./EMI | E2 28972
Soft Rock, New Wave

Breaking Curfew is the fourth studio album by the Canadian rock band Red Rider, released in 1984. Album reached #137 on Billboard's 200 chart in 1984 assisted by the single "Young Thing, Wild Dreams (Rock Me)" which hit #44 on the Canadian charts and #71 on Billboard's Hot 100 chart. "Breaking Curfew" also hit #93 in Canada.



Red Rider - Breaking Curfew (1984)


Track Listing

01. Whipping Boy (3:17)
02. Young Thing, Wild Dreams (Rock Me) (3:32)
03. One Way Out (3:54)
04. Among The Ruins (I'll Be Here) (4:33)
05. Breaking Curfew (3:43)
06. Someone's Watching (3:53)
07. Shake Monster (4:46)
08. Beacon Hill (4:56)
09. Hold Tight (4:53)

Produced by Tom Cochrane & Ken Greer

The Band

• Tom Chochrane - Guitar, Keyboards, Vocals
• Ken Greer - Guitar, Keyboards, Vocals (bckgr)
• Robert Baker - Percussion, Drums
• Jeff Jones - Guitar (Bass), Vocals (bckgr)
• John Webster - Keyboards

*****
• Steve Sexton - Keyboards
• Earl Seymour - Saxophone
• Rough Maids - Vocals (bckgr)

Red Rider - Breaking Curfew (1984)


Exact Audio Copy V0.99 prebeta 4 from 23. January 2008

EAC extraction logfile from 11. May 2008, 15:22

Red Rider / Breaking Curfew

Used drive : ASUS DRW-1608P Adapter: 2 ID: 0

Read mode : Secure
Utilize accurate stream : Yes
Defeat audio cache : Yes
Make use of C2 pointers : No

Read offset correction : 48
Overread into Lead-In and Lead-Out : No
Fill up missing offset samples with silence : Yes
Delete leading and trailing silent blocks : No
Null samples used in CRC calculations : Yes
Used interface : Installed external ASPI interface

Used output format : User Defined Encoder
Selected bitrate : 1024 kBit/s
Quality : High
Add ID3 tag : Yes
Command line compressor : C:\Program Files (x86)\Exact Audio Copy\Flac\flac.exe
Additional command line options : -5 -V -T "ARTIST=%a" -T "TITLE=%t" -T "ALBUM=%g" -T "DATE=%y" -T "TRACKNUMBER=%n" -T "GENRE=%m" -T "COMMENT=EAC FLAC -5" %s


TOC of the extracted CD

Track | Start | Length | Start sector | End sector
––––––––––––––––––––––––––––-
1 | 0:00.00 | 3:17.02 | 0 | 14776
2 | 3:17.02 | 3:32.40 | 14777 | 30716
3 | 6:49.42 | 3:54.03 | 30717 | 48269
4 | 10:43.45 | 4:33.20 | 48270 | 68764
5 | 15:16.65 | 3:43.05 | 68765 | 85494
6 | 18:59.70 | 3:53.22 | 85495 | 102991
7 | 22:53.17 | 4:46.70 | 102992 | 124511
8 | 27:40.12 | 4:56.50 | 124512 | 146761
9 | 32:36.62 | 4:53.08 | 146762 | 168744


Range status and errors

Selected range

Filename F:\Red Rider\Red Rider - Breaking Curfew.wav

Peak level 99.3 %
Range quality 100.0 %
Test CRC A50C8375
Copy CRC A50C8375
Copy OK

No errors occurred


AccurateRip summary

Track 1 not present in database
Track 2 not present in database
Track 3 not present in database
Track 4 not present in database
Track 5 not present in database
Track 6 not present in database
Track 7 not present in database
Track 8 not present in database
Track 9 not present in database

None of the tracks are present in the AccurateRip database

End of status report


Many thanks to the original uploader: bvstudio



Password: pass