Subcategories

Reinhold Quartett - Albert: String Quartets Nos. 1 & 2 (2016)

Posted By: SERTiL
Reinhold Quartett - Albert: String Quartets Nos. 1 & 2 (2016)

Reinhold Quartett - Albert: String Quartets Nos. 1 & 2
Classical | WEB FLAC (tracks) & d. booklet | 65:17 min | 345 MB
Label: CPO | Tracks: 08 | Rls.date: 2016

Scottish-born German composer Eugen Francois Charles dAlbert (1864-1932) began his musical career as a pianist. As years passed, he began focusing more on composing, and produced 21 operas, and a variety of piano, chamber, vocal, and orchestral works. The works chosen for this album are his String Quartet op. 11 in E flat major, and String Quartet op. 7 in A minor. These are the only two string quartets that dAlbert wrote. The Reinhold-Quartett is Dietrich Reinhold and Tobias Haupt, violin, Norbert Tunze, viola, and Christoph Vietz, cello.

TRACKLIST
01. String Quartet No. 2 in E-Flat Major, Op. 11: I. Andante con moto
02. String Quartet No. 2 in E-Flat Major, Op. 11: II. Allegro vivace
03. String Quartet No. 2 in E-Flat Major, Op. 11: III. Adagio ma non troppo e con molta expressione
04. String Quartet No. 2 in E-Flat Major, Op. 11: IV. Allegro
05. String Quartet No. 1 in A Minor, Op. 7: I. Leidenschaftlich bewegt
06. String Quartet No. 1 in A Minor, Op. 7: II. Langsam, mit Ausdruck
07. String Quartet No. 1 in A Minor, Op. 7: III. Mässig bewegt
08. String Quartet No. 1 in A Minor, Op. 7: IV. In massiger, ruhiger Bewegung (Thema mit Varitionen)

PERFORMER: auCDtect Task Manager, ver. 1.6.0 RC1 build 1.6.0.1
Copyright © 2008-2010 y-soft. All rights reserved

ANALYZER: auCDtect: CD records authenticity detector, version 0.8.2
Copyright © 2004 Oleg Berngardt. All rights reserved.
Copyright © 2004 Alexander Djourik. All rights reserved.


FILE: 08. String Quartet No. 1 in A Minor, Op. 7 IV. In massiger, ruhiger Bewegung (Thema mit Varitionen).flac
Size: 55705984 Hash: BAE8360F32FA10CE8F4ADFE870839C77 Accuracy: -m0
Conclusion: CDDA 94%
Signature: 73ACBF0BEAB286A095558715DC10E7A5C8C0FF78
FILE: 07. String Quartet No. 1 in A Minor, Op. 7 III. Mässig bewegt.flac
Size: 35836861 Hash: CF989202BC756BFA73D1AA0B4892E07B Accuracy: -m0
Conclusion: CDDA 100%
Signature: EC9E237967CB5D19A85703F379F3513927910FA5
FILE: 06. String Quartet No. 1 in A Minor, Op. 7 II. Langsam, mit Ausdruck.flac
Size: 43475597 Hash: B05D55D72D912F0D880D58FE714E1881 Accuracy: -m0
Conclusion: CDDA 58%
Signature: C6502C73FFC74BB56479C4DB1E51F629098E41C6
FILE: 05. String Quartet No. 1 in A Minor, Op. 7 I. Leidenschaftlich bewegt.flac
Size: 44906231 Hash: 068CF5B43EE741E8537B594635AF8228 Accuracy: -m0
Conclusion: CDDA 86%
Signature: AEF5AF07D5A8922B1AEDEC9EC5E7E8CA48466359
FILE: 04. String Quartet No. 2 in E-Flat Major, Op. 11 IV. Allegro.flac
Size: 37096543 Hash: A9EC0D5CABDAA757E12A0C757E4335A1 Accuracy: -m0
Conclusion: CDDA 100%
Signature: 4B1D0CA6E7102F6B465E6E01FAD181FCB83DE366
FILE: 03. String Quartet No. 2 in E-Flat Major, Op. 11 III. Adagio ma non troppo e con molta expressione.flac
Size: 39307756 Hash: CEDC7B6F7B924A2C2CC8B203FD81BA81 Accuracy: -m0
Conclusion: CDDA 42%
Signature: 0EBF1FFEBA75768FE223945E3798411F6FD160F5
FILE: 02. String Quartet No. 2 in E-Flat Major, Op. 11 II. Allegro vivace.flac
Size: 33761841 Hash: 103EF0F47604B96967A25D2A59A7FF72 Accuracy: -m0
Conclusion: CDDA 42%
Signature: 260A3DB9DE9192F148F03C02F2E22F152C0873CD
FILE: 01. String Quartet No. 2 in E-Flat Major, Op. 11 I. Andante con moto.flac
Size: 38420460 Hash: CEF5F00EA10A355E4593337D31052B8A Accuracy: -m0
Conclusion: CDDA 58%
Signature: 20D6135180AD86C784748B5E06F3C3ED50FAB5C0

foobar2000 1.3.7 / Dynamic Range Meter 1.1.1
log date: 2017-10-18 14:15:25

––––––––––––––––––––––––––––––––––––––––
Analyzed: Reinhold Quartett / Albert: String Quartets Nos. 1 & 2
––––––––––––––––––––––––––––––––––––––––

DR Peak RMS Duration Track
––––––––––––––––––––––––––––––––––––––––
DR15 -0.30 dB -21.90 dB 7:35 01-String Quartet No. 2 in E-Flat Major, Op. 11: I. Andante con moto
DR16 -1.84 dB -25.21 dB 7:31 02-String Quartet No. 2 in E-Flat Major, Op. 11: II. Allegro vivace
DR16 -0.30 dB -23.52 dB 8:09 03-String Quartet No. 2 in E-Flat Major, Op. 11: III. Adagio ma non troppo e con molta expressione
DR14 -0.30 dB -19.06 dB 6:52 04-String Quartet No. 2 in E-Flat Major, Op. 11: IV. Allegro
DR14 -0.30 dB -19.02 dB 8:29 05-String Quartet No. 1 in A Minor, Op. 7: I. Leidenschaftlich bewegt
DR14 -3.27 dB -24.67 dB 8:55 06-String Quartet No. 1 in A Minor, Op. 7: II. Langsam, mit Ausdruck
DR16 -0.54 dB -21.42 dB 6:53 07-String Quartet No. 1 in A Minor, Op. 7: III. Mässig bewegt
DR15 -0.75 dB -21.79 dB 10:56 08-String Quartet No. 1 in A Minor, Op. 7: IV. In massiger, ruhiger Bewegung (Thema mit Varitionen)
––––––––––––––––––––––––––––––––––––––––

Number of tracks: 8
Official DR value: DR15

Samplerate: 44100 Hz
Channels: 2
Bits per sample: 16
Bitrate: 675 kbps
Codec: FLAC
================================================================================


Reinhold Quartett - Albert: String Quartets Nos. 1 & 2 (2016)


Thanks to the Original customer.