Subcategories

Repicco - Assassini, assassinati (2017)

Posted By: SERTiL
Repicco - Assassini, assassinati (2017)

Repicco - Assassini, assassinati
Classical | WEB FLAC (tracks) & d. booklet | 60:36 min | 311 MB
Label: Ambronay | Tracks: 13 | Rls.date: 2017

The impetuous duo Repicco (violin/theorbo), a discovery of the eeemerging programme, evokes here the tragic destinies of composers who were murderers or murder victims. Plunge into the seething atmosphere of Baroque Italy to meet the extravagant personalities of Alessandro Stradella, Giovanni Antonio Pandolfi Mealli and Ignazio Albertini!

Tracklist:
01. 12 Violin Sonatas: Sonata No.1
02. Capriccio per sonare il violino con tre corde a modo di lira, Op. 8
03. Sonata settima
04. 6 Sonatas, Op. 4: IV. La Biancuccia
05. Theorbo improvisation
06. Sinfonia No. 2
07. Violin Sonata, Op. 3: I. La Stella
08. Sinfonia No. 9
09. 12 Violin Sonatas: Sonata No.3
10. Violin improvisation
11. Sinfonia No. 5
12. Furiosa Corrente
13. Violin Sonata, Op. 3: V. La Clemente

PERFORMER: auCDtect Task Manager, ver. 1.6.0 RC1 build 1.6.0.1
Copyright © 2008-2010 y-soft. All rights reserved

ANALYZER: auCDtect: CD records authenticity detector, version 0.8.2
Copyright © 2004 Oleg Berngardt. All rights reserved.
Copyright © 2004 Alexander Djourik. All rights reserved.


FILE: 13. Violin Sonata, Op. 3 V. La Clemente .flac
Size: 42530871 Hash: 6A1BFBC9E1BF978D0225BAD85B227179 Accuracy: -m0
Conclusion: CDDA 99%
Signature: 7B97D4419F691D96FDB5841A746D1F59054EC3F0
FILE: 12. Furiosa Corrente.flac
Size: 6905317 Hash: 909FF946C40509DA6A75DFC70A1B1403 Accuracy: -m0
Conclusion: CDDA 100%
Signature: 3B0616D8690F38E39C7C3B3B913E9A17408CE576
FILE: 11. Sinfonia No. 5.flac
Size: 31625169 Hash: B0D08990DBBBF1AEA44AE1F480AB879D Accuracy: -m0
Conclusion: CDDA 100%
Signature: 305A5CB96332205FFEDD943790C6FA1B9CAA0570
FILE: 10. Violin improvisation.flac
Size: 9977957 Hash: 1CB20108565758A9D7F565180655A794 Accuracy: -m0
Conclusion: CDDA 100%
Signature: 2A90F1E0EAEAE281CC8BA4490AF70FE2E6D91D4C
FILE: 09. 12 Violin Sonatas Sonata No.3.flac
Size: 29705538 Hash: B89E05B60A39F8709A7B78F2312721BB Accuracy: -m0
Conclusion: CDDA 100%
Signature: AD1B4C4C2BE929815F00B74AE7BFC72533ED695D
FILE: 08. Sinfonia No. 9.flac
Size: 32360274 Hash: E70EFAE61441B2796231496ADD81B7D8 Accuracy: -m0
Conclusion: CDDA 100%
Signature: 6EC143F3A312A5DDE6730A57C0C4A55C1A91BD8A
FILE: 07. Violin Sonata, Op. 3 I. La Stella .flac
Size: 20894126 Hash: 7E02F1B60715BEE369F418C80F976363 Accuracy: -m0
Conclusion: CDDA 99%
Signature: 7ACEE3064A80F61FBBC92870C0AFD04C63A74730
FILE: 06. Sinfonia No. 2.flac
Size: 33402606 Hash: 01D49D447428B4C0984AD76A6020EB46 Accuracy: -m0
Conclusion: CDDA 100%
Signature: 6801B42727C1F28B0FA9B209AA642ABAFAC5B327
FILE: 05. Theorbo improvisation.flac
Size: 4600388 Hash: 688D361978D246924AE2A905CD08DF4D Accuracy: -m0
Conclusion: CDDA 100%
Signature: 9BDACD2B312E704C55F6C356B30A8633C9E6059D
FILE: 04. 6 Sonatas, Op. 4 IV. La Biancuccia .flac
Size: 44627956 Hash: CE12F105F870DBB244B77CB7C1D43F75 Accuracy: -m0
Conclusion: CDDA 100%
Signature: DC6C8D9BEE012DEE2D9A71ADAC5FEC624755F058
FILE: 03. Sonata settima.flac
Size: 12677820 Hash: 08E2EE64F1B47E8B19BDD91C03FDED61 Accuracy: -m0
Conclusion: CDDA 100%
Signature: 566DDA7D655FDA3B42FD58C076C2A1B5F1359049
FILE: 02. Capriccio per sonare il violino con tre corde a modo di lira, Op. 8.flac
Size: 17588566 Hash: 7539CC8D0335BF5574C12CA1FABE9BBD Accuracy: -m0
Conclusion: CDDA 100%
Signature: 3574422F5132EE6F5F661D437889A714047010FB
FILE: 01. 12 Violin Sonatas Sonata No.1.flac
Size: 38062533 Hash: 3F9E35CDF9D4E5E03DA54B9B4F73F1A3 Accuracy: -m0
Conclusion: CDDA 99%
Signature: D639BC5C37B02FA2E8E382A3C488B6829BFF7F14

foobar2000 1.3.7 / Dynamic Range Meter 1.1.1
log date: 2017-10-23 20:41:39

––––––––––––––––––––––––––––––––––––––––
Analyzed: Repicco / Assassini, assassinati
––––––––––––––––––––––––––––––––––––––––

DR Peak RMS Duration Track
––––––––––––––––––––––––––––––––––––––––
DR15 -0.82 dB -19.93 dB 6:38 01-12 Violin Sonatas: Sonata No.1
DR14 -0.81 dB -21.44 dB 3:23 02-Capriccio per sonare il violino con tre corde a modo di lira, Op. 8
DR13 -4.96 dB -24.10 dB 2:41 03-Sonata settima
DR15 -0.52 dB -21.35 dB 8:11 04-6 Sonatas, Op. 4: IV. La Biancuccia
DR13 -13.16 dB -33.67 dB 1:12 05-Theorbo improvisation
DR14 -4.74 dB -22.69 dB 6:11 06-Sinfonia No. 2
DR13 -2.67 dB -21.71 dB 3:51 07-Violin Sonata, Op. 3: I. La Stella
DR14 -3.80 dB -22.09 dB 5:46 08-Sinfonia No. 9
DR14 -3.21 dB -22.47 dB 5:33 09-12 Violin Sonatas: Sonata No.3
DR13 -3.40 dB -23.40 dB 1:51 10-Violin improvisation
DR14 -3.14 dB -21.88 dB 5:38 11-Sinfonia No. 5
DR15 -8.95 dB -27.18 dB 1:34 12-Furiosa Corrente
DR17 -1.01 dB -22.68 dB 8:11 13-Violin Sonata, Op. 3: V. La Clemente
––––––––––––––––––––––––––––––––––––––––

Number of tracks: 13
Official DR value: DR14

Samplerate: 44100 Hz
Channels: 2
Bits per sample: 16
Bitrate: 691 kbps
Codec: FLAC
================================================================================


Repicco - Assassini, assassinati (2017)


Thanks to the Original customer.