Tags
Language
Tags

Republic - Indul A Mandula!!! (1991)

Posted By: v3122
Republic - Indul A Mandula!!! (1991)

Republic - Indul A Mandula!!! (1991)
EAC | Flac(Image) + Cue + Log & MP3 CBR 320Kbps
1995 | Gong, HCD 37459 | ~ 263 or 101 Mb | Artwork(jpg) -> 1.63 Mb
Rock, Pop Rock

It is clear that Republic has always been an important act of the “modern” (i.e. post 1990) Hungarian rock music. They got a huge back catalogue that isn’t easy to be rated comprehensively, but it may be sure that the debut Indul a mandula is a clear stunner and one of musical milestones of the 1990s.

Even if their best, it’s still quite a mixed bag. The first half is a collection of very clever, sometimes also musically inspiring songs. The second part is more straightforward and punk oriented rock and roll, sometimes with pretty offending lyrics that may have a lot of different interpretations. The opener ‘Neked könnyű lehet’ – as a kind of ars poetica – has become their permanent concert intro. Then come songs focusing on mixed emotions about actual political and social developments (‘Pionyírok előre bátran’, ‘Válaszd a legrosszabbat’, ‘Gurul a kő’, ‘Repül a bálna’) combined with pieces having multi-layered ironic/quirky metaphors on love relationships and personal emotions (‘Vedd el’, ‘Lángolj és égj el’, ‘Igazi szerelem’, ‘Ahogy a halak’, ‘Szerelmes vagyok’, ‘Meleg és boldog’, ‘A madárjós vakáción’). My personal favourite is the puzzling ‘Ahogy a halak’ that may enter both the political and the personal category.

If you are interested in East European rock music of the 1990s, this is a must. However their succeeding few albums still have a lot to be discovered.

by sultan, rateyourmusic.com
Republic - Indul A Mandula!!! (1991):

Republic - Indul A Mandula!!! (1991)

Tracklist:

01. Neked Konnyu Lehet
02. Pionyirok Elore Batran
03. Langolj Es Egj El
04. Vedd El
05. Igazi Szerelem
06. Ahogy A Halak
07. Valaszd A Legrosszabbat
08. Szerelmes Vagyok
09. Gurul A Ko
10. Repul A Balna
11. Meleg Es Boldog
12. A Madarjos Vakacion

Exact Audio Copy V1.3 from 2. September 2016

EAC extraction logfile from 11. July 2021, 18:53

Republic / Indul A Mandula!!!

Used drive : ASUS DRW-24D5MT Adapter: 1 ID: 0

Read mode : Secure
Utilize accurate stream : Yes
Defeat audio cache : Yes
Make use of C2 pointers : No

Read offset correction : 6
Overread into Lead-In and Lead-Out : No
Fill up missing offset samples with silence : Yes
Delete leading and trailing silent blocks : No
Null samples used in CRC calculations : Yes
Used interface : Native Win32 interface for Win NT & 2000
Gap handling : Appended to previous track

Used output format : User Defined Encoder
Selected bitrate : 1024 kBit/s
Quality : High
Add ID3 tag : No
Command line compressor : C:\Program Files (x86)\Exact Audio Copy\Flac\flac.exe
Additional command line options : -V -8 -T "Genre=%genre%" -T "Artist=%artist%" -T "Title=%title%" -T "Album=%albumtitle%" -T "Date=%year%" -T "Tracknumber=%tracknr%" -T "Comment=%comment%" %source%


TOC of the extracted CD

Track | Start | Length | Start sector | End sector
––––––––––––––––––––––––––––-
1 | 0:00.00 | 4:09.25 | 0 | 18699
2 | 4:09.25 | 2:25.13 | 18700 | 29587
3 | 6:34.38 | 2:58.07 | 29588 | 42944
4 | 9:32.45 | 3:43.25 | 42945 | 59694
5 | 13:15.70 | 3:49.43 | 59695 | 76912
6 | 17:05.38 | 5:16.67 | 76913 | 100679
7 | 22:22.30 | 3:10.60 | 100680 | 114989
8 | 25:33.15 | 2:53.00 | 114990 | 127964
9 | 28:26.15 | 4:52.35 | 127965 | 149899
10 | 33:18.50 | 3:13.58 | 149900 | 164432
11 | 36:32.33 | 2:22.60 | 164433 | 175142
12 | 38:55.18 | 3:46.15 | 175143 | 192107


Track 1

Filename H:\Sket4er\Republic – Indul A Mandula!!! (1991) 1995\01 Neked Könnyű Lehet.wav

Pre-gap length 0:00:02.00

Peak level 93.4 %
Extraction speed 0.9 X
Track quality 99.9 %
Test CRC 2BDCCD48
Copy CRC 2BDCCD48
Cannot be verified as accurate (confidence 4) [D945794C], AccurateRip returned [8F053836] (AR v2)
Copy OK

Track 2

Filename H:\Sket4er\Republic – Indul A Mandula!!! (1991) 1995\02 Pionyírok Előre Bátran.wav

Pre-gap length 0:00:02.10

Peak level 89.6 %
Extraction speed 1.0 X
Track quality 100.0 %
Test CRC 5C179422
Copy CRC 5C179422
Cannot be verified as accurate (confidence 4) [03554B2C], AccurateRip returned [D18F93B8] (AR v2)
Copy OK

Track 3

Filename H:\Sket4er\Republic – Indul A Mandula!!! (1991) 1995\03 Lángolj És Égj El.wav

Pre-gap length 0:00:00.73

Peak level 90.7 %
Extraction speed 1.1 X
Track quality 100.0 %
Test CRC 11913EB4
Copy CRC 11913EB4
Cannot be verified as accurate (confidence 4) [136330C0], AccurateRip returned [EB5E9350] (AR v2)
Copy OK

Track 4

Filename H:\Sket4er\Republic – Indul A Mandula!!! (1991) 1995\04 Vedd El.wav

Peak level 93.4 %
Extraction speed 1.3 X
Track quality 100.0 %
Test CRC F55B877C
Copy CRC F55B877C
Cannot be verified as accurate (confidence 4) [6229FC0A], AccurateRip returned [B48880E7] (AR v2)
Copy OK

Track 5

Filename H:\Sket4er\Republic – Indul A Mandula!!! (1991) 1995\05 Igazi Szerelem.wav

Pre-gap length 0:00:01.55

Peak level 97.8 %
Extraction speed 1.4 X
Track quality 100.0 %
Test CRC 12F81A17
Copy CRC 12F81A17
Cannot be verified as accurate (confidence 4) [46C7838C], AccurateRip returned [B0ECFA73] (AR v2)
Copy OK

Track 6

Filename H:\Sket4er\Republic – Indul A Mandula!!! (1991) 1995\06 Ahogy A Halak.wav

Pre-gap length 0:00:01.50

Peak level 94.9 %
Extraction speed 1.5 X
Track quality 100.0 %
Test CRC 74ECA825
Copy CRC 74ECA825
Cannot be verified as accurate (confidence 4) [F9E446B1], AccurateRip returned [0B255197] (AR v2)
Copy OK

Track 7

Filename H:\Sket4er\Republic – Indul A Mandula!!! (1991) 1995\07 Válaszd A Legrosszabbat.wav

Pre-gap length 0:00:01.60

Peak level 96.9 %
Extraction speed 1.5 X
Track quality 100.0 %
Test CRC 3BB76AF2
Copy CRC 3BB76AF2
Cannot be verified as accurate (confidence 4) [B89CA575], AccurateRip returned [3110E2CD] (AR v2)
Copy OK

Track 8

Filename H:\Sket4er\Republic – Indul A Mandula!!! (1991) 1995\08 Szerelmes Vagyok.wav

Pre-gap length 0:00:01.67

Peak level 92.0 %
Extraction speed 1.3 X
Track quality 99.9 %
Test CRC A3F78B19
Copy CRC A3F78B19
Cannot be verified as accurate (confidence 4) [C2413252], AccurateRip returned [5B1CF61A] (AR v2)
Copy OK

Track 9

Filename H:\Sket4er\Republic – Indul A Mandula!!! (1991) 1995\09 Gurul A Kő.wav

Pre-gap length 0:00:01.30

Peak level 91.3 %
Extraction speed 1.6 X
Track quality 99.9 %
Test CRC 69CDB7E8
Copy CRC 69CDB7E8
Cannot be verified as accurate (confidence 4) [E657CE9C], AccurateRip returned [06893EA1] (AR v2)
Copy OK

Track 10

Filename H:\Sket4er\Republic – Indul A Mandula!!! (1991) 1995\10 Repül A Bálna.wav

Pre-gap length 0:00:02.62

Peak level 89.9 %
Extraction speed 1.7 X
Track quality 100.0 %
Test CRC 17B05853
Copy CRC 17B05853
Cannot be verified as accurate (confidence 4) [ECE89035], AccurateRip returned [FF1D87D1] (AR v2)
Copy OK

Track 11

Filename H:\Sket4er\Republic – Indul A Mandula!!! (1991) 1995\11 Meleg És Boldog.wav

Pre-gap length 0:00:02.23

Peak level 87.2 %
Extraction speed 1.7 X
Track quality 100.0 %
Test CRC B50E3E14
Copy CRC B50E3E14
Cannot be verified as accurate (confidence 4) [E26277BA], AccurateRip returned [06AD9AC1] (AR v2)
Copy OK

Track 12

Filename H:\Sket4er\Republic – Indul A Mandula!!! (1991) 1995\12 A Madárjós Vakáción.wav

Pre-gap length 0:00:02.38

Peak level 69.3 %
Extraction speed 1.8 X
Track quality 100.0 %
Test CRC 2376B0E8
Copy CRC 2376B0E8
Cannot be verified as accurate (confidence 4) [4ABC6DF1], AccurateRip returned [FC5501D2] (AR v2)
Copy OK


No tracks could be verified as accurate
You may have a different pressing from the one(s) in the database

No errors occurred

End of status report

–– CUETools DB Plugin V2.1.6

[CTDB TOCID: 23._MCKBs0KslNWuU_tF2FnpbH4-] found
Submit result: 23._MCKBs0KslNWuU_tF2FnpbH4- has been confirmed
Track | CTDB Status
1 | (16/16) Accurately ripped
2 | (16/16) Accurately ripped
3 | (16/16) Accurately ripped
4 | (16/16) Accurately ripped
5 | (16/16) Accurately ripped
6 | (16/16) Accurately ripped
7 | (16/16) Accurately ripped
8 | (16/16) Accurately ripped
9 | (16/16) Accurately ripped
10 | (16/16) Accurately ripped
11 | (16/16) Accurately ripped
12 | (15/16) Accurately ripped


==== Log checksum 2EADDD35B3FA31287FFB969C44B2ED75425015BA84D69AB257EE0FBB71C4B108 ====


[CUETools log; Date: 28.07.2021 22:44:49; Version: 2.1.4]
[AccurateRip ID: 00131ec4-00b327da-980a010c] found.
Track [ CRC | V2 ] Status
01 [6637270e|d945794c] (0+0/4) No match
02 [e45e85ec|03554b2c] (0+0/4) No match
03 [5a682d18|136330c0] (0+0/4) No match
04 [c514545b|6229fc0a] (0+0/4) No match
05 [0b43d91b|46c7838c] (0+0/4) No match
06 [cc00c933|f9e446b1] (0+0/4) No match
07 [3355a2d9|b89ca575] (0+0/4) No match
08 [0898d29e|c2413252] (0+0/4) No match
09 [7288ac85|e657ce9c] (0+0/4) No match
10 [8d9e8be5|ece89035] (0+0/4) No match
11 [aee75899|e26277ba] (0+0/4) No match
12 [1c5b47b7|4abc6df1] (0+0/4) No match
Offsetted by 676:
01 [8f053836] (4/4) Accurately ripped
02 [d18f93b8] (4/4) Accurately ripped
03 [eb5e9350] (4/4) Accurately ripped
04 [b48880e7] (4/4) Accurately ripped
05 [b0ecfa73] (4/4) Accurately ripped
06 [0b255197] (4/4) Accurately ripped
07 [3110e2cd] (4/4) Accurately ripped
08 [5b1cf61a] (4/4) Accurately ripped
09 [06893ea1] (4/4) Accurately ripped
10 [ff1d87d1] (4/4) Accurately ripped
11 [06ad9ac1] (4/4) Accurately ripped
12 [fc5501d2] (4/4) Accurately ripped

Track Peak [ CRC32 ] [W/O NULL] [ LOG ]
– 97,8 [EF18F8B0] [A6C33CBB]
01 93,4 [2BDCCD48] [04CC886D] CRC32
02 89,6 [5C179422] [E2BBC1A4] CRC32
03 90,7 [11913EB4] [04D58848] CRC32
04 93,4 [F55B877C] [A0F982BE] CRC32
05 97,8 [12F81A17] [BC4887E7] CRC32
06 94,9 [74ECA825] [BB34F852] CRC32
07 96,9 [3BB76AF2] [4BF274B3] CRC32
08 92,0 [A3F78B19] [CCA9C072] CRC32
09 91,3 [69CDB7E8] [EF76A4B0] CRC32
10 89,9 [17B05853] [8C902D14] CRC32
11 87,2 [B50E3E14] [4B2373D4] CRC32
12 69,3 [2376B0E8] [615A7D7C] CRC32


Republic - Indul A Mandula!!! (1991)

All thanks go to Sket4er

Download Republic - Indul A Mandula!!! (1991):