Subcategories

Rhoda Scott and Thad Jones / Mel Lewis Big Band - Rhoda Scott A New-York (1976) {Barclay}

Posted By: tiburon
Rhoda Scott and Thad Jones / Mel Lewis Big Band - Rhoda Scott A New-York (1976) {Barclay}

Rhoda Scott and Thad Jones / Mel Lewis Big Band - Rhoda Scott A New-York (1976) {Barclay}
EAC 1.3 | FLAC tracks level 8 | Cue+Log+M3U | Full Scans 300dpi | 209MB + 5% Recovery
MP3 CBR 320 Kbps | 98MB + 5% Recovery
Genre: Big Band, Swing, Hard Bop, Post-Bop

Thad Jones/Mel Lewis Orchestra With Rhoda Scott (a.k.a. Rhoda Scott in New York with the Thad Jones/Mel Lewis Orchestra) is a 1976 big band jazz album recorded by jazz organist Rhoda Scott with the Thad Jones/Mel Lewis Jazz Orchestra and released on the Barclay (France) record label.
Track List
1 Mach 2 4:35
2 Tanikka 4:30
3 Rhoda Map 5:00
4 R & R 4:15
5 Charlotte's Waltz 4:30
6 Walkin' About 5:07
7 Take A Ladder 7:72

musicians
Hammond Organ – Rhoda Scott
Alto Saxophone, Soprano Saxophone, Flute – Eddie Xiques, Jerry Dodgion
Baritone Saxophone – Pepper Adams
Bass – Bob Bowman
Cornet – Thad Jones
Drums – Mel Lewis
Electric Piano – Harold Danko
Producer – Raoul Saint-Yves
Tenor Saxophone, Clarinet – Larry Schneider
Tenor Saxophone, Flute, Clarinet – Gregory Herbert
Trombone – Billy Campbell, Clifford Adams, Earl McIntyre, John Mosca
Trumpet – Al Porcino, Cecil Bridgewater, Earl Gardner, Lynn Nicholson

Produced by Raoul Saint-Yves


Exact Audio Copy V1.3 from 2. September 2016

EAC extraction logfile from 10. February 2018, 11:59

Rhoda Scott + Thad Jones - Mel Lewis Big Band / Rhoda Scott A New-York

Used drive : HL-DT-STDVDRAM GSA-T50N Adapter: 1 ID: 0

Read mode : Secure
Utilize accurate stream : Yes
Defeat audio cache : Yes
Make use of C2 pointers : No

Read offset correction : 667
Overread into Lead-In and Lead-Out : No
Fill up missing offset samples with silence : Yes
Delete leading and trailing silent blocks : No
Null samples used in CRC calculations : Yes
Used interface : Native Win32 interface for Win NT & 2000
Gap handling : Appended to previous track

Used output format : User Defined Encoder
Selected bitrate : 1024 kBit/s
Quality : High
Add ID3 tag : No
Command line compressor : C:\Program Files\Exact Audio Copy\Flac\flac.exe
Additional command line options : -V -8 -T "Genre=%genre%" -T "Artist=%artist%" -T "Title=%title%" -T "Album=%albumtitle%" -T "Date=%year%" -T "Tracknumber=%tracknr%" %source% -o %dest%


TOC of the extracted CD

Track | Start | Length | Start sector | End sector
––––––––––––––––––––––––––––-
1 | 0:00.32 | 4:33.00 | 32 | 20506
2 | 4:33.32 | 4:33.23 | 20507 | 41004
3 | 9:06.55 | 5:02.27 | 41005 | 63681
4 | 14:09.07 | 4:15.60 | 63682 | 82866
5 | 18:24.67 | 4:34.20 | 82867 | 103436
6 | 22:59.12 | 5:08.08 | 103437 | 126544
7 | 28:07.20 | 7:23.10 | 126545 | 159779


Track 1

Filename C:\music\MG rips\Rhoda Scott and Thad Jones Mel Lewis Big Band - Rhoda Scott A New-York -1976 (Unk., Barclay) [FLAC]\01 - Mach 2.wav

Pre-gap length 0:00:02.32

Peak level 90.9 %
Extraction speed 2.5 X
Track quality 100.0 %
Test CRC 66A17B8B
Copy CRC 66A17B8B
Accurately ripped (confidence 2) [C5D91575] (AR v2)
Copy OK

Track 2

Filename C:\music\MG rips\Rhoda Scott and Thad Jones Mel Lewis Big Band - Rhoda Scott A New-York -1976 (Unk., Barclay) [FLAC]\02 - Tanikka.wav

Peak level 71.4 %
Extraction speed 2.8 X
Track quality 100.0 %
Test CRC BBACFD8C
Copy CRC BBACFD8C
Accurately ripped (confidence 4) [CA1DF571] (AR v2)
Copy OK

Track 3

Filename C:\music\MG rips\Rhoda Scott and Thad Jones Mel Lewis Big Band - Rhoda Scott A New-York -1976 (Unk., Barclay) [FLAC]\03 - Rhoda Map.wav

Pre-gap length 0:00:03.00

Peak level 80.3 %
Extraction speed 3.1 X
Track quality 100.0 %
Test CRC B8561F3B
Copy CRC B8561F3B
Accurately ripped (confidence 4) [F53ABC86] (AR v2)
Copy OK

Track 4

Filename C:\music\MG rips\Rhoda Scott and Thad Jones Mel Lewis Big Band - Rhoda Scott A New-York -1976 (Unk., Barclay) [FLAC]\04 - R&R.wav

Pre-gap length 0:00:02.64

Peak level 85.2 %
Extraction speed 3.3 X
Track quality 100.0 %
Test CRC 61592571
Copy CRC 61592571
Accurately ripped (confidence 4) [3891B96A] (AR v2)
Copy OK

Track 5

Filename C:\music\MG rips\Rhoda Scott and Thad Jones Mel Lewis Big Band - Rhoda Scott A New-York -1976 (Unk., Barclay) [FLAC]\05 - Charlotte's Waltz.wav

Pre-gap length 0:00:02.51

Peak level 77.6 %
Extraction speed 3.5 X
Track quality 100.0 %
Test CRC FC71D435
Copy CRC FC71D435
Accurately ripped (confidence 4) [315B7EA4] (AR v2)
Copy OK

Track 6

Filename C:\music\MG rips\Rhoda Scott and Thad Jones Mel Lewis Big Band - Rhoda Scott A New-York -1976 (Unk., Barclay) [FLAC]\06 - Walkin' about.wav

Peak level 85.8 %
Extraction speed 3.4 X
Track quality 99.9 %
Test CRC 1F8281CB
Copy CRC 1F8281CB
Accurately ripped (confidence 4) [6A8347A8] (AR v2)
Copy OK

Track 7

Filename C:\music\MG rips\Rhoda Scott and Thad Jones Mel Lewis Big Band - Rhoda Scott A New-York -1976 (Unk., Barclay) [FLAC]\07 - Take a ladder.wav

Peak level 87.6 %
Extraction speed 4.2 X
Track quality 100.0 %
Test CRC E982C8A1
Copy CRC E982C8A1
Accurately ripped (confidence 4) [66AE2B2A] (AR v2)
Copy OK


All tracks accurately ripped

No errors occurred

End of status report

==== Log checksum 2AACA042D61943F91D69A90A161DDC8B3E79DE953D96E8C69119CBB6B87CB30D ====

Rhoda Scott and Thad Jones / Mel Lewis Big Band - Rhoda Scott A New-York (1976) {Barclay}
Rhoda Scott and Thad Jones / Mel Lewis Big Band - Rhoda Scott A New-York (1976) {Barclay}


Thanks to the original ripper