Subcategories

Richard Bonynge, Orchestra e Coro del Teatro Massimo Bellini di Catania - Paisiello: Nina ossia La pazza per amore (2006)

Posted By: ArlegZ
Richard Bonynge, Orchestra e Coro del Teatro Massimo Bellini di Catania - Paisiello: Nina ossia La pazza per amore (2006)

Richard Bonynge, Orchestra e Coro del Teatro Massimo Bellini di Catania - Giovanni Paisiello: Nina ossia La pazza per amore (2006)
EAC | FLAC | Image (Cue & Log) ~ 440 Mb | Total time: 55:58+46:30 | Scans included
Classical | Label: Nuova Era | # 223294-311 | Recorded: 1989

This tragicomedy was apparently the greatest success of Giovanni Paisiello’s career, some claim considering that he wrote around 90 operas and that his Barbiere di Siviglia both inspired Mozart to produce Le nozze di Figaro as a sequel and caused later audiences to criticise Rossini for daring to tackle the same subject. Although Paisiello (1740-1816) is interesting enough to deserve some attention today, his musical accomplishments are more reminiscent of Cimarosa than anyone else. He did, however, enjoy a colourful life, and served European rulers as diverse as Catherine the Great and Napoleon. When Nina was first performed at La Scala, the title role was taken by none other than Floria Tosca, the singer who was later to inspire Sardou and Puccini.
–John Allison


Performer:
Nina - Maria Bolgan
Lindoro - Don Bernardini
Il Conte - Francesco Musinu
Susanna - Fiorella Pediconi
Giorgio - Giorgio Surian
Villanella - Berta Ceglie
Un Pastore - Carlo Bosi
Orchestra e Coro del Teatro Massimo Bellini di Catania
Conductor - Richard Bonynge

Track List:
CD1:
01. Sinfonia
02. Atto I. Dormi, o cara (Coro, Giorgia, Susanna)
03. Dunque in voi non si placa (Giorgio, Susanna)
04. Dormi, o cara (Coro)
05. Ma voi ci prometteste (Giorgio, Susanna)
06. È sì fiero il mio tormento (Conte)
07. Perdonate Signore! (Giorgio, Conte)
08. Del suo mal non v'affliggete (Giorgio)
09. Ma che fa Nina? (Conte, Giorgio, Nina)
10. Il mio ben, quando verrа? (Nina)
11. Egli non viene! (Nina, Susanna)
12. Se il cor, gli affetti suoi (Susanna)
13. Brave, non m'abbandonate mai (Nina, Villanella, coro)
14. Lontana da te, Lindoro suo ben (Nina, coro)
15. Mia cara, andiamo via di qui! (Nina, Susanna, Conte)
16. Già il sol si cela dietro la montagna (Pastore)
17. Che soave armonia (Nina, Susanna)
18. Come oimé partir degg'io! (Nina, Susanna, Conte, Pastore)
CD2:
01. Atto II. Per l'amata padroncina (Susanna)
02. Oh, sta arrivando il conte! (Susanna, Conte)
03. Ah, eccelenza (Giorgio)
04. Ma chi è venuto? (Giorgio, Conte)
05. Son io desto, oppur deliro! (Lindoro, Conte)
06. Dunque tu, presto nina rivedrai! (Conte, Lindoro)
07. Questo è dunque il loco usato (Lindoro)
08. Cantiam, nina cantiamo (Nina, coro)
09. Vedi tu? (Susanna, Nina, Conte, Lindoro)
10. Oh, momento fortunato (Nina, Lindoro)
11. Con quale nome poi ti chiamerò? (Nina, Susanna, Lindoro)
12. Mi siento… Oh dio! che calma (Nina, Tutti)


Exact Audio Copy V1.3 from 2. September 2016

EAC extraction logfile from 14. February 2018, 19:38

Richard Bonynge, Orchestra e Coro del Teatro Massimo Bellini di Catania / Paisiello - Nina CD1

Used drive : HL-DT-STDVDRAM GH24NS95 Adapter: 1 ID: 0

Read mode : Secure
Utilize accurate stream : Yes
Defeat audio cache : Yes
Make use of C2 pointers : No

Read offset correction : 6
Overread into Lead-In and Lead-Out : No
Fill up missing offset samples with silence : Yes
Delete leading and trailing silent blocks : No
Null samples used in CRC calculations : Yes
Used interface : Native Win32 interface for Win NT & 2000

Used output format : User Defined Encoder
Selected bitrate : 128 kBit/s
Quality : High
Add ID3 tag : No
Command line compressor : C:\Program Files\Exact Audio Copy\Flac\flac.exe
Additional command line options : -V -8 -T "Date=%year%" -T "Genre=%genre%" %source%


TOC of the extracted CD

Track | Start | Length | Start sector | End sector
––––––––––––––––––––––––––––-
1 | 0:00.00 | 5:24.28 | 0 | 24327
2 | 5:24.28 | 4:11.50 | 24328 | 43202
3 | 9:36.03 | 0:19.15 | 43203 | 44642
4 | 9:55.18 | 1:05.68 | 44643 | 49585
5 | 11:01.11 | 2:33.47 | 49586 | 61107
6 | 13:34.58 | 3:11.50 | 61108 | 75482
7 | 16:46.33 | 0:19.20 | 75483 | 76927
8 | 17:05.53 | 3:57.05 | 76928 | 94707
9 | 21:02.58 | 1:26.48 | 94708 | 101205
10 | 22:29.31 | 6:42.55 | 101206 | 131410
11 | 29:12.11 | 0:23.27 | 131411 | 133162
12 | 29:35.38 | 1:53.48 | 133163 | 141685
13 | 31:29.11 | 0:56.25 | 141686 | 145910
14 | 32:25.36 | 5:43.50 | 145911 | 171685
15 | 38:09.11 | 1:31.00 | 171686 | 178510
16 | 39:40.11 | 3:41.55 | 178511 | 195140
17 | 43:21.66 | 0:31.40 | 195141 | 197505
18 | 43:53.31 | 10:02.52 | 197506 | 242707


Range status and errors

Selected range

Filename C:\Program Files\Exact Audio Copy\Flac\Paisiello - Nina CD1.wav

Peak level 94.3 %
Extraction speed 7.0 X
Range quality 100.0 %
Test CRC 169EF7D7
Copy CRC 169EF7D7
Copy OK

No errors occurred

End of status report

==== Log checksum 8C9C714F6A82730068227EAD98AB5DC2CACF458822D5DF1B7C68E87656BFCB2C ====


Exact Audio Copy V1.3 from 2. September 2016

EAC extraction logfile from 14. February 2018, 20:01

Richard Bonynge, Orchestra e Coro del Teatro Massimo Bellini di Catania / Paisiello - Nina CD2

Used drive : HL-DT-STDVDRAM GH24NS95 Adapter: 1 ID: 0

Read mode : Secure
Utilize accurate stream : Yes
Defeat audio cache : Yes
Make use of C2 pointers : No

Read offset correction : 6
Overread into Lead-In and Lead-Out : No
Fill up missing offset samples with silence : Yes
Delete leading and trailing silent blocks : No
Null samples used in CRC calculations : Yes
Used interface : Native Win32 interface for Win NT & 2000

Used output format : User Defined Encoder
Selected bitrate : 128 kBit/s
Quality : High
Add ID3 tag : No
Command line compressor : C:\Program Files\Exact Audio Copy\Flac\flac.exe
Additional command line options : -V -8 -T "Date=%year%" -T "Genre=%genre%" %source%


TOC of the extracted CD

Track | Start | Length | Start sector | End sector
––––––––––––––––––––––––––––-
1 | 0:00.00 | 3:47.34 | 0 | 17058
2 | 3:47.34 | 0:26.37 | 17059 | 19045
3 | 4:13.71 | 2:04.10 | 19046 | 28355
4 | 6:18.06 | 0:57.30 | 28356 | 32660
5 | 7:15.36 | 4:58.05 | 32661 | 55015
6 | 12:13.41 | 0:46.08 | 55016 | 58473
7 | 12:59.49 | 9:05.02 | 58474 | 99350
8 | 22:04.51 | 3:42.68 | 99351 | 116068
9 | 25:47.44 | 1:53.65 | 116069 | 124608
10 | 27:41.34 | 3:52.05 | 124609 | 142013
11 | 31:33.39 | 2:06.15 | 142014 | 151478
12 | 33:39.54 | 12:48.47 | 151479 | 209125


Range status and errors

Selected range

Filename C:\Program Files\Exact Audio Copy\Flac\Paisiello - Nina CD2.wav

Peak level 75.4 %
Extraction speed 6.8 X
Range quality 100.0 %
Test CRC 7C5A4D17
Copy CRC 7C5A4D17
Copy OK

No errors occurred

End of status report

==== Log checksum B746389D8B8C94B55BBC6E75C7A79FEA77859FF8501BB88D223A70A532EB6756 ====

Richard Bonynge, Orchestra e Coro del Teatro Massimo Bellini di Catania - Paisiello: Nina ossia La pazza per amore (2006)